osu file format v14

[General]
AudioFilename: audio.mp3
AudioLeadIn: 0
PreviewTime: -1
Countdown: 1
SampleSet: Soft
StackLeniency: 0.4
Mode: 0
LetterboxInBreaks: 0
WidescreenStoryboard: 0

[Editor]
Bookmarks: 22618,24868,26982,36527,46345,47436,47982,49618,49891,62982,68027,69118,72254,74436,75527,75800,76345,76891,77436,78527,79073,79482,79550,79618,79754,80164,80709,98164,100345,101982,119982,128709,129732,133073,137436,152436,154891,159800,163618
DistanceSpacing: 1.6
BeatDivisor: 4
GridSize: 16
TimelineZoom: 1.9

[Metadata]
Title:We Are One (Original Vocal Mix)
TitleUnicode:We Are One (Original Vocal Mix)
Artist:Pegboard Nerds
ArtistUnicode:Pegboard Nerds
Creator:Kannes
Version:Done Right
Source:
Tags:
BeatmapID:1872187
BeatmapSetID:896041

[Difficulty]
HPDrainRate:4
CircleSize:4
OverallDifficulty:9
ApproachRate:10
SliderMultiplier:2
SliderTickRate:1

[Events]
//Background and Video events
0,0,"asdsadasdsad.png",0,0
//Break Periods
//Storyboard Layer 0 (Background)
//Storyboard Layer 1 (Fail)
//Storyboard Layer 2 (Pass)
//Storyboard Layer 3 (Foreground)
//Storyboard Sound Samples

[TimingPoints]
2164,272.727272727273,4,2,0,100,1,0
19618,-133.333333333333,4,2,0,100,0,0
32641,-100,4,2,0,100,0,0
37073,-133.333333333333,4,2,0,100,0,0
38709,-80,4,2,0,100,0,0
38982,-133.333333333333,4,2,0,100,0,0
40891,-80,4,2,0,100,0,0
41164,-133.333333333333,4,2,0,100,0,0
43073,-80,4,2,0,100,0,0
43345,-133.333333333333,4,2,0,100,0,0
44573,-400,4,2,0,100,0,0
44709,-133.333333333333,4,2,0,100,0,0
45254,-80,4,2,0,100,0,0
45527,-100,4,2,0,100,0,0
49618,-66.6666666666667,4,2,0,100,0,0
49823,-80,4,2,0,100,0,0
50164,-100,4,2,0,100,0,0
63254,-80,4,2,0,100,0,0
63527,-133.333333333333,4,2,0,100,0,0
64209,-100,4,2,0,100,0,0
71982,-80,4,2,0,100,0,0
72254,-133.333333333333,4,2,0,100,0,0
72936,-100,4,2,0,100,0,0
100345,-133.333333333333,4,2,0,100,0,0
101982,-66.6666666666667,4,2,0,100,0,0
102391,-80,4,2,0,100,0,0
102732,-100,4,2,0,100,0,0
104164,-80,4,2,0,100,0,0
104982,-100,4,2,0,100,0,0
106345,-80,4,2,0,100,0,0
111254,-66.6666666666667,4,2,0,100,0,0
111459,-100,4,2,0,100,0,0
111800,-80,4,2,0,100,0,0
113709,-100,4,2,0,100,0,0
113982,-80,4,2,0,100,0,0
120527,-100,4,2,0,100,0,0
121618,-80,4,2,0,100,0,0
122709,-100,4,2,0,100,0,0
123186,-80,4,2,0,100,0,0
128709,-66.6666666666667,4,2,0,100,0,0
128914,-100,4,2,0,100,0,0
129254,-80,4,2,0,100,0,0
131164,-100,4,2,0,100,0,0
131436,-80,4,2,0,100,0,0
155436,-1000,4,2,0,100,0,0

[HitObjects]
69,92,19618,6,0,P|216:96|249:101,1,150.000005722046
223,246,20164,2,0,P|171:191|114:143,1,150.000005722046
72,287,20709,2,0,P|146:293|221:291,1,150.000005722046
352,217,21254,2,0,P|303:159|249:108,1,150.000005722046
121,187,21800,2,0,P|172:241|229:289,1,150.000005722046
362,218,22345,2,0,P|287:211|212:213,1,150.000005722046
120,333,22891,5,0,0:0:0:0:
344,311,23164,1,0,0:0:0:0:
30,107,23436,1,0,0:0:0:0:
403,71,23709,1,0,0:0:0:0:
403,71,23982,6,0,P|345:119|293:173,1,150.000005722046
441,200,24527,2,0,P|377:159|310:127,1,150.000005722046
211,240,25073,2,0,P|285:239|360:229,1,150.000005722046
243,134,25618,2,0,P|168:144|93:144,1,150.000005722046
198,253,26164,2,0,P|268:277|341:293,1,150.000005722046
399,155,26709,2,0,P|335:195|268:227,1,150.000005722046
181,105,27254,5,0,0:0:0:0:
396,39,27527,1,0,0:0:0:0:
266,359,27800,1,0,0:0:0:0:
73,72,28073,1,0,0:0:0:0:
73,72,28345,6,0,P|105:139|145:203,1,150.000005722046
255,305,28754,5,0,0:0:0:0:
359,197,28891,1,0,0:0:0:0:
400,343,29027,1,0,0:0:0:0:
254,270,29164,5,0,0:0:0:0:
392,213,29300,1,0,0:0:0:0:
377,367,29436,2,0,P|309:337|244:299,1,150.000005722046
171,167,29845,5,0,0:0:0:0:
67,59,29982,1,0,0:0:0:0:
26,205,30118,1,0,0:0:0:0:
172,132,30255,5,0,0:0:0:0:
34,75,30391,1,0,0:0:0:0:
62,221,30527,2,0,P|126:183|195:152,1,150.000005722046
352,165,30936,5,0,0:0:0:0:
460,49,31073,1,0,0:0:0:0:
483,234,31209,1,0,0:0:0:0:
344,107,31345,1,0,0:0:0:0:
342,295,31482,1,0,0:0:0:0:
469,144,31618,2,0,P|396:124|322:113,1,150.000005722046
229,231,32027,5,0,0:0:0:0:
100,93,32164,1,0,0:0:0:0:
51,273,32300,1,0,0:0:0:0:
193,151,32436,1,0,0:0:0:0:
165,337,32573,1,0,0:0:0:0:
70,174,32709,2,0,P|104:208|146:237,1,100
317,158,32982,6,0,P|313:108|300:59,1,100
160,229,33254,2,0,P|165:280|176:327,1,100
369,151,33527,6,0,P|331:118|287:93,1,100
138,331,33800,2,0,P|186:343|236:347,1,100
455,112,34073,6,0,P|429:68|397:30,1,100
100,194,34345,2,0,P|103:243|116:292,1,100
397,30,34618,6,0,P|347:67|306:112,1,100
237,219,34891,1,0,0:0:0:0:
367,145,35027,1,0,0:0:0:0:
302,280,35164,1,0,0:0:0:0:
447,175,35300,1,0,0:0:0:0:
462,348,35436,5,0,0:0:0:0:
365,173,35573,1,0,0:0:0:0:
273,346,35709,1,0,0:0:0:0:
484,230,35845,5,0,0:0:0:0:
250,136,35982,1,0,0:0:0:0:
370,353,36118,1,0,0:0:0:0:
438,129,36254,5,0,0:0:0:0:
258,304,36391,1,0,0:0:0:0:
191,63,36527,1,10,0:0:0:0:
191,63,36800,5,10,0:0:0:0:
57,141,37073,2,0,B|69:237|280:206,1,225.000008583069,4|0,0:0|0:0,0:0:0:0:
346,51,37618,2,0,B|345:154|345:154|376:200|348:251|348:251|350:294,1,225.000008583069
123,283,38164,5,0,0:0:0:0:
208,75,38300,1,0,0:0:0:0:
349,249,38436,2,0,B|390:302|390:302|395:311,1,75.0000028610231
118,186,38709,2,0,B|207:100|198:88|198:88|211:97|332:81,1,250
341,323,39118,5,0,0:0:0:0:
221,233,39254,2,0,P|289:188|375:184,1,150.000005722046,4|0,0:0|0:0,0:0:0:0:
491,254,39664,1,0,0:0:0:0:
353,313,39800,2,0,B|274:322|204:285|102:313,1,225.000008583069
239,111,40345,1,0,0:0:0:0:
259,336,40482,1,0,0:0:0:0:
137,193,40618,1,0,0:0:0:0:
383,264,40891,2,0,B|371:140|386:137|386:137|370:136|298:55,1,250
185,205,41300,5,0,0:0:0:0:
295,305,41436,2,0,P|363:334|437:329,1,150.000005722046,4|0,0:0|0:0,0:0:0:0:
467,181,41845,1,0,0:0:0:0:
317,197,41982,2,0,B|240:211|194:276|120:304,1,225.000008583069,0|0,0:0|0:3,0:3:0:0:
92,111,42527,1,0,0:0:0:0:
308,177,42664,1,0,0:0:0:0:
88,228,42800,2,0,B|22:230|22:230|14:229,1,75.0000028610231
278,111,43073,2,0,B|401:113|403:98|403:98|406:113|492:179,1,250
391,338,43482,5,0,0:0:0:0:
312,170,43618,2,0,P|380:198|428:255,1,150.000005722046,4|0,0:0|0:0,0:0:0:0:
253,308,44027,1,0,0:0:0:0:
266,105,44164,2,0,B|308:171|306:243|322:258,1,150.000005722046
133,160,44573,2,0,L|143:129,1,25,4|0,0:0|0:0,0:0:0:0:
51,342,44845,1,0,0:0:0:0:
246,229,44982,1,0,0:0:0:0:
193,55,45254,2,0,B|317:67|320:52|320:52|321:68|402:140,1,250
158,225,45800,5,0,0:0:0:0:
345,60,45936,1,0,0:0:0:0:
162,229,46072,1,0,0:0:0:0:
408,178,46209,1,0,0:0:0:0:
168,107,46345,2,0,P|115:130|70:172,1,100
283,308,46618,5,0,0:0:0:0:
347,87,46754,1,0,0:0:0:0:
127,160,46891,1,0,0:0:0:0:
358,67,47027,1,0,0:0:0:0:
373,317,47164,1,0,0:0:0:0:
217,122,47300,1,0,0:0:0:0:
453,114,47436,2,0,P|467:162|467:212,1,100
315,201,47709,2,0,P|279:166|255:123,1,100
237,54,47982,6,0,P|196:30|147:41,1,100
110,105,48254,2,0,P|96:152|97:202,1,100
137,269,48527,2,0,P|184:282|234:281,3,100
391,273,49073,5,0,0:0:0:0:
159,181,49209,1,0,0:0:0:0:
396,104,49345,1,0,0:0:0:0:
265,316,49481,1,0,0:0:0:0:
281,152,49618,2,0,B|274:36|274:36|218:76,1,150.000005722046
355,151,49891,2,0,B|371:79|371:79|415:113|415:113|453:76|453:76|483:141,1,250
382,312,50436,6,0,P|331:312|284:299,1,100
151,148,50709,1,0,0:0:0:0:
347,183,50845,1,0,0:0:0:0:
210,305,50982,6,0,P|166:280|131:244,1,100
55,60,51254,1,0,0:0:0:0:
240,136,51391,1,0,0:0:0:0:
54,208,51527,1,0,0:0:0:0:
126,92,51664,6,0,P|175:93|222:110,1,100
281,247,51936,2,0,P|231:245|184:228,1,100
69,200,52345,2,0,P|227:200|251:203,1,150
414,212,52618,5,0,0:0:0:0:
204,328,52754,1,0,0:0:0:0:
257,96,52891,1,0,0:0:0:0:
366,319,53027,5,0,0:0:0:0:
148,192,53164,1,0,0:0:0:0:
387,132,53300,1,0,0:0:0:0:
136,81,54527,1,0,0:0:0:0:
58,131,54664,2,0,P|94:165|139:186,1,100
302,219,54936,1,0,0:0:0:0:
279,60,55073,2,0,B|253:127|253:127|249:126|249:126|253:128|253:128|236:166|236:166|239:168|239:168|235:168|235:168|216:203|216:203|213:201|213:201|215:204|215:204|197:241,1,200
377,303,55482,5,0,0:0:0:0:
258,155,55618,1,0,0:0:0:0:
130,295,55754,2,0,P|179:293|226:276,1,100
244,137,56027,1,0,0:0:0:0:
348,220,56164,1,0,0:0:0:0:
278,246,56436,5,0,0:0:0:0:
469,167,56573,1,0,0:0:0:0:
241,171,56709,1,0,0:0:0:0:
432,92,56846,1,0,0:0:0:0:
293,276,56982,5,0,0:0:0:0:
338,40,57119,1,0,0:0:0:0:
405,262,57254,2,0,P|403:311|386:358,1,100
199,279,57527,6,0,P|243:257|292:250,1,100
453,270,57800,1,0,0:0:0:0:
335,107,57936,2,0,P|296:137|269:179,1,100
265,336,58209,2,0,P|314:341|362:331,1,100
434,300,58618,5,0,0:0:0:0:
326,132,58754,1,0,0:0:0:0:
201,289,58891,2,0,P|159:316|129:355,1,100
116,121,59164,1,0,0:0:0:0:
248,269,59300,1,0,0:0:0:0:
205,74,59436,1,0,0:0:0:0:
156,268,59573,1,0,0:0:0:0:
171,55,59709,6,0,P|220:48|268:59,1,100
399,133,59982,1,0,0:0:0:0:
302,246,60118,2,0,P|253:256|204:250,1,100
267,162,60391,2,0,P|315:172|364:166,1,100
442,138,60800,5,0,0:0:0:0:
297,98,60936,1,0,0:0:0:0:
458,43,61073,1,0,0:0:0:0:
355,213,61209,1,0,0:0:0:0:
260,37,61345,1,0,0:0:0:0:
455,140,61482,1,0,0:0:0:0:
213,155,61618,5,0,0:0:0:0:
406,20,61754,1,0,0:0:0:0:
326,284,61891,1,0,0:0:0:0:
219,48,62027,1,0,0:0:0:0:
437,228,62164,1,0,0:0:0:0:
144,151,62300,1,0,0:0:0:0:
411,85,62436,5,0,0:0:0:0:
274,332,62573,1,0,0:0:0:0:
172,44,62709,1,0,0:0:0:0:
85,330,62845,1,0,0:0:0:0:
296,78,62982,2,0,P|338:104|369:143,1,100
411,211,63254,2,0,B|314:290|323:302|323:302|311:292|203:298,1,250
85,243,63664,1,0,0:0:0:0:
191,158,63800,2,0,B|268:172|314:237|388:265,1,225.000008583069,0|0,0:0|0:3,0:3:0:0:
458,301,64345,5,0,0:0:0:0:
327,225,64482,1,0,0:0:0:0:
463,164,64618,1,0,0:0:0:0:
430,338,64754,5,0,0:0:0:0:
312,242,64891,1,0,0:0:0:0:
456,203,65027,1,0,0:0:0:0:
334,340,65164,5,0,0:0:0:0:
287,195,65301,1,0,0:0:0:0:
429,240,65437,1,0,0:0:0:0:
277,347,65573,5,0,0:0:0:0:
254,197,65710,1,0,0:0:0:0:
387,263,65846,1,0,0:0:0:0:
162,343,65982,5,0,0:0:0:0:
237,174,66119,1,0,0:0:0:0:
329,328,66255,1,0,0:0:0:0:
123,321,66391,5,0,0:0:0:0:
224,166,66528,1,0,0:0:0:0:
290,332,66664,1,0,0:0:0:0:
88,294,66800,5,0,0:0:0:0:
212,156,66937,1,0,0:0:0:0:
251,330,67073,1,0,0:0:0:0:
68,170,67209,5,0,0:0:0:0:
265,115,67346,1,0,0:0:0:0:
136,271,67482,1,0,0:0:0:0:
151,66,67619,1,0,0:0:0:0:
273,226,67754,1,0,0:0:0:0:
66,202,67891,1,0,0:0:0:0:
270,105,68027,5,0,0:0:0:0:
163,305,68164,1,0,0:0:0:0:
283,110,68300,5,0,0:0:0:0:
176,310,68437,1,0,0:0:0:0:
171,94,68573,1,0,0:0:0:0:
319,265,68710,1,0,0:0:0:0:
102,217,68845,1,0,0:0:0:0:
347,312,68982,5,0,0:0:0:0:
270,105,69118,1,0,0:0:0:0:
163,305,69255,1,0,0:0:0:0:
396,192,69391,5,0,0:0:0:0:
176,53,69527,1,0,0:0:0:0:
255,301,69664,1,0,0:0:0:0:
392,80,69800,1,0,0:0:0:0:
134,47,69936,1,0,0:0:0:0:
406,85,70073,5,0,0:0:0:0:
120,41,70209,1,0,0:0:0:0:
425,91,70345,5,0,0:0:0:0:
170,185,70482,1,0,0:0:0:0:
386,344,70618,1,0,0:0:0:0:
286,93,70754,5,0,0:0:0:0:
191,347,70891,1,0,0:0:0:0:
406,185,71027,1,0,0:0:0:0:
164,309,71164,5,0,0:0:0:0:
255,55,71300,1,0,0:0:0:0:
400,316,71436,1,0,0:0:0:0:
104,256,71573,1,0,0:0:0:0:
352,55,71709,1,0,0:0:0:0:
224,369,71845,1,0,0:0:0:0:
44,71,71982,2,0,B|164:38|161:23|161:23|168:37|269:76,1,250
335,130,72391,1,0,0:0:0:0:
335,130,72527,2,0,B|352:206|310:274|313:353,1,225.000008583069,0|0,0:0|0:3,0:3:0:0:
449,225,73073,6,0,P|400:215|350:222,1,100
220,264,73345,2,0,P|221:313|238:360,1,100
348,250,73618,2,0,P|349:200|335:152,1,100
214,171,73891,5,0,0:0:0:0:
71,212,74027,1,0,0:0:0:0:
195,77,74164,1,0,0:0:0:0:
50,115,74300,1,0,0:0:0:0:
137,46,74436,2,0,P|178:102|171:151,1,100
30,174,74709,2,0,P|63:137|107:113,1,100
200,81,74982,5,0,0:0:0:0:
328,60,75118,1,0,0:0:0:0:
349,187,75254,1,0,0:0:0:0:
219,205,75391,1,0,0:0:0:0:
157,151,75527,6,0,P|142:198|144:248,1,100
260,84,75800,2,0,P|274:131|272:181,1,100
145,203,76073,5,0,0:0:0:0:
261,54,76209,1,0,0:0:0:0:
416,133,76345,2,0,P|392:176|355:210,1,100,4|0,0:0|0:0,0:0:0:0:
233,298,76618,1,0,0:0:0:0:
149,173,76754,1,0,0:0:0:0:
289,118,76891,6,0,P|284:167|264:212,1,100
146,307,77164,1,0,0:0:0:0:
62,182,77300,1,0,0:0:0:0:
202,127,77437,6,0,P|197:176|177:221,1,100,4|0,0:0|0:0,0:0:0:0:
87,247,77709,2,0,P|91:296|111:341,2,100
236,267,78118,5,0,0:0:0:0:
283,125,78254,1,0,0:0:0:0:
146,189,78391,1,0,0:0:0:0:
339,191,78527,5,4,0:0:0:0:
141,227,78664,1,0,0:0:0:0:
338,197,78800,5,0,0:0:0:0:
140,233,78937,1,0,0:0:0:0:
322,77,79073,5,4,0:0:0:0:
204,285,79209,1,0,0:0:0:0:
328,80,79345,5,0,0:0:0:0:
210,290,79482,2,4,L|178:345,1,50
211,35,79618,5,4,0:0:0:0:
306,297,79754,1,4,0:0:0:0:
53,190,79891,5,0,0:0:0:0:
315,95,80027,1,0,0:0:0:0:
163,325,80164,5,4,0:0:0:0:
247,16,80300,1,0,0:0:0:0:
169,328,80436,5,0,0:0:0:0:
253,18,80572,1,0,0:0:0:0:
460,326,80709,1,4,0:0:0:0:
186,192,82891,5,0,0:0:0:0:
326,192,85073,5,0,0:0:0:0:
127,192,87254,5,0,0:0:0:0:
384,192,89436,5,0,0:0:0:0:
127,192,90527,1,0,0:0:0:0:
384,192,91618,1,0,0:0:0:0:
127,192,92709,1,0,0:0:0:0:
384,192,93800,5,0,0:0:0:0:
127,192,94345,1,0,0:0:0:0:
384,192,94891,1,0,0:0:0:0:
127,192,95436,1,0,0:0:0:0:
384,192,95982,5,0,0:0:0:0:
128,192,96254,1,0,0:0:0:0:
366,256,96527,1,0,0:0:0:0:
164,111,96799,1,0,0:0:0:0:
320,302,97073,1,0,0:0:0:0:
252,71,97345,1,0,0:0:0:0:
256,320,97618,1,0,0:0:0:0:
352,80,97890,1,0,0:0:0:0:
362,102,98164,6,0,P|374:161|375:221,1,100
375,270,98436,1,0,0:0:0:0:
370,340,98573,1,0,0:0:0:0:
150,282,98709,6,0,P|137:222|136:162,1,100
137,114,98981,1,0,0:0:0:0:
142,44,99118,1,0,0:0:0:0:
376,103,99254,6,0,P|349:145|317:183,1,100
117,135,99527,5,0,0:0:0:0:
397,121,99664,1,0,0:0:0:0:
143,237,99800,1,0,0:0:0:0:
346,45,99936,1,0,0:0:0:0:
375,324,100073,5,0,0:0:0:0:
166,138,100209,1,0,0:0:0:0:
389,75,100345,1,0,0:0:0:0:
402,117,100413,1,0,0:0:0:0:
403,162,100481,1,0,0:0:0:0:
390,205,100549,1,0,0:0:0:0:
364,242,100618,6,0,L|327:293,3,37.5000014305115
176,305,100891,1,0,0:0:0:0:
131,277,100959,1,0,0:0:0:0:
101,234,101027,1,0,0:0:0:0:
91,183,101095,1,0,0:0:0:0:
101,132,101164,6,0,L|121:79,3,37.5000014305115
211,86,101436,1,0,0:0:0:0:
236,140,101504,1,0,0:0:0:0:
285,175,101573,1,0,0:0:0:0:
343,185,101641,1,0,0:0:0:0:
371,132,101709,1,0,0:0:0:0:
316,157,101777,1,0,0:0:0:0:
299,214,101845,1,0,0:0:0:0:
316,272,101914,1,0,0:0:0:0:
354,319,101982,6,0,B|432:296|462:215,1,150.000005722046
371,139,102254,2,0,B|293:162|261:240,1,150.000005722046
359,249,102527,6,0,P|382:158|291:149,1,187.5
177,278,102800,2,0,L|193:343,1,50
89,65,102936,2,0,L|26:23,1,50
275,109,103073,2,0,B|324:123|397:207,1,150
150,323,103345,2,0,B|169:276|255:218,1,150
408,149,103618,1,0,0:0:0:0:
252,317,103754,1,0,0:0:0:0:
335,101,103891,5,0,0:0:0:0:
389,323,104027,1,0,0:0:0:0:
385,80,104164,2,0,B|358:132|297:143|281:141|281:141|295:147|322:212|306:279,1,250
451,178,104573,1,0,0:0:0:0:
193,115,104709,2,0,P|115:165|200:209,1,187.5
405,302,104982,2,0,L|415:353,1,50
357,87,105118,2,0,L|343:31,1,50
250,240,105254,2,0,B|223:283|123:332,1,150
52,212,105527,2,0,B|78:168|171:122,1,150
370,173,105800,5,0,0:0:0:0:
197,324,105936,1,0,0:0:0:0:
131,70,106073,1,0,0:0:0:0:
414,136,106209,1,0,0:0:0:0:
152,131,106345,2,0,B|143:188|89:219|74:222|74:222|89:223|135:276|142:344,1,250
314,340,106754,1,0,0:0:0:0:
438,237,106891,2,0,P|404:202|271:148,1,187.5
173,231,107164,5,0,0:0:0:0:
412,126,107300,1,0,0:0:0:0:
168,227,107436,1,0,0:0:0:0:
335,23,107573,5,0,0:0:0:0:
349,284,107709,1,0,0:0:0:0:
342,22,107845,1,0,0:0:0:0:
474,205,107982,6,0,P|402:264|313:292,1,187.5
182,291,108254,5,0,0:0:0:0:
75,49,108391,1,0,0:0:0:0:
285,204,108527,1,0,0:0:0:0:
24,166,108664,5,0,0:0:0:0:
266,59,108801,1,0,0:0:0:0:
111,269,108937,1,0,0:0:0:0:
198,22,109073,6,0,P|283:58|349:125,1,187.5
245,288,109345,1,0,0:0:0:0:
139,46,109482,1,0,0:0:0:0:
374,159,109618,6,0,P|337:244|270:310,1,187.5
108,205,109890,1,0,0:0:0:0:
350,99,110027,1,0,0:0:0:0:
217,327,110164,6,0,P|131:290|65:223,1,187.5
171,61,110436,1,0,0:0:0:0:
277,303,110573,1,0,0:0:0:0:
52,168,110709,6,0,P|98:112|173:154,1,125
351,296,110982,2,0,P|308:338|250:325,1,125
148,195,111254,2,0,P|218:153|363:233,1,225.000008583069
429,322,111527,2,0,L|485:342,1,50
193,247,111664,2,0,L|137:267,1,50
437,107,111800,2,0,B|380:52|380:52|350:52|350:52|274:126,1,187.5
206,288,112073,2,0,B|262:342|262:342|292:342|292:342|349:287,1,187.5
353,150,112345,5,0,0:0:0:0:
218,332,112482,1,0,0:0:0:0:
227,107,112618,1,0,0:0:0:0:
349,294,112754,1,0,0:0:0:0:
348,67,112891,2,0,B|277:103|226:72|226:72|242:133|184:191,1,250
98,298,113300,5,0,0:0:0:0:
195,144,113436,2,0,P|265:109|275:195,1,187.5
214,333,113709,2,0,L|171:374,1,50
440,185,113845,2,0,L|484:208,1,50
207,71,113982,2,0,B|127:72|127:72|106:93|106:93|105:199,1,187.5
305,313,114254,2,0,B|384:311|384:311|405:290|405:290|406:184,1,187.5
364,99,114527,5,0,0:0:0:0:
134,164,114664,1,0,0:0:0:0:
410,271,114800,1,0,0:0:0:0:
180,336,114937,1,0,0:0:0:0:
323,75,115073,2,0,P|419:66|448:145,1,187.5
434,331,115345,5,0,0:0:0:0:
215,235,115482,1,0,0:0:0:0:
410,191,115618,2,0,P|359:263|280:324,1,187.5
81,262,115891,5,0,0:0:0:0:
348,202,116027,1,0,0:0:0:0:
83,120,116164,1,0,0:0:0:0:
271,318,116300,1,0,0:0:0:0:
22,203,116436,1,0,0:0:0:0:
283,114,116573,1,0,0:0:0:0:
116,331,116709,2,0,P|202:345|301:333,1,187.5
386,135,116982,5,0,0:0:0:0:
150,273,117118,1,0,0:0:0:0:
427,270,117255,1,0,0:0:0:0:
187,140,117391,1,0,0:0:0:0:
460,172,117527,1,0,0:0:0:0:
200,280,117664,1,0,0:0:0:0:
302,48,117800,6,0,P|335:135|342:228,1,187.5
209,164,118073,1,0,0:0:0:0:
209,164,118209,1,0,0:0:0:0:
340,48,118345,6,0,P|373:135|380:228,1,187.5
148,164,118618,1,0,0:0:0:0:
148,164,118754,1,0,0:0:0:0:
408,48,118891,6,0,P|441:135|448:228,1,187.5
64,164,119164,1,0,0:0:0:0:
64,164,119300,1,0,0:0:0:0:
64,164,119436,6,0,B|140:172|220:164,1,125
312,264,119709,2,0,B|263:269|187:261,1,125
88,250,119982,6,0,P|30:197|94:131,1,187.5
241,85,120255,2,0,L|217:25,1,62.5
456,139,120391,2,0,L|504:78,1,62.5
356,294,120528,2,0,B|313:322|202:324,1,150
257,40,120800,2,0,B|280:84|269:187,1,150
187,329,121073,5,0,0:0:0:0:
158,102,121209,1,0,0:0:0:0:
285,290,121346,1,0,0:0:0:0:
69,196,121482,1,0,0:0:0:0:
254,356,121619,2,0,B|231:301|262:248|274:237|274:237|260:243|193:222|152:167,1,250
137,344,122028,5,0,0:0:0:0:
351,186,122164,2,0,P|362:94|274:130,1,187.5
71,229,122437,2,0,L|13:250,1,62.5
266,317,122573,2,0,L|304:376,1,62.5
192,159,122709,2,0,B|200:109|275:26,1,150
423,95,122982,2,0,B|417:145|350:225,1,150
193,285,123255,5,0,0:0:0:0:
182,40,123391,1,0,0:0:0:0:
355,301,123528,1,0,0:0:0:0:
73,191,123664,1,0,0:0:0:0:
365,145,123800,2,0,B|327:101|338:40|345:26|345:26|335:37|264:38|208:0,1,250
101,135,124209,1,0,0:0:0:0:
100,296,124346,2,0,P|148:292|275:225,1,187.5
303,68,124618,5,0,0:0:0:0:
409,310,124755,1,0,0:0:0:0:
200,155,124891,1,0,0:0:0:0:
461,193,125028,5,0,0:0:0:0:
219,300,125165,1,0,0:0:0:0:
374,90,125301,1,0,0:0:0:0:
344,354,125436,2,0,P|274:292|233:208,1,187.5
335,34,125709,5,0,0:0:0:0:
347,294,125845,1,0,0:0:0:0:
340,30,125981,1,0,0:0:0:0:
479,185,126118,5,0,0:0:0:0:
209,289,126254,1,0,0:0:0:0:
469,266,126390,1,0,0:0:0:0:
213,224,126527,2,0,P|41:163|34:159,1,187.5
160,106,126800,2,0,P|247:138|293:161,1,125
272,273,127073,6,0,P|100:212|93:208,1,187.5
234,104,127346,2,0,P|321:136|367:159,1,125
364,344,127618,6,0,P|192:283|185:279,1,187.5
325,84,127891,2,0,P|412:116|458:139,1,125
470,345,128164,2,0,L|359:254,1,125
294,204,128436,2,0,L|183:113,1,125
99,57,128709,2,0,P|86:137|214:242,1,225.000008583069
384,307,128982,2,0,L|405:361,1,50
376,62,129119,2,0,L|401:2,1,50
143,208,129255,2,0,B|151:286|151:286|173:305|173:305|253:300,1,187.5
368,175,129527,2,0,B|360:97|360:97|338:78|338:78|259:84,1,187.5
137,232,129800,5,0,0:0:0:0:
272,50,129937,1,0,0:0:0:0:
263,275,130073,1,0,0:0:0:0:
141,88,130209,1,0,0:0:0:0:
142,315,130346,2,0,B|213:279|264:310|264:310|248:249|298:198,1,250
392,84,130755,5,0,0:0:0:0:
443,269,130891,2,0,P|414:344|349:295,1,187.5
335,66,131164,2,0,L|371:31,1,50
91,223,131300,2,0,L|47:200,1,50
342,328,131437,2,0,B|422:327|422:327|443:306|443:306|443:228,1,187.5
244,86,131709,2,0,B|165:88|165:88|144:109|144:109|143:187,1,187.5
372,337,131982,5,0,0:0:0:0:
289,46,132119,1,0,0:0:0:0:
204,277,132255,1,0,0:0:0:0:
426,59,132392,1,0,0:0:0:0:
404,276,132528,2,0,P|353:347|269:320,1,187.5
217,241,132800,2,0,P|190:166|221:109,1,125
337,54,133073,5,4,0:0:0:0:
331,278,133209,1,0,0:0:0:0:
144,152,133345,5,0,0:0:0:0:
368,120,133482,1,0,0:0:0:0:
152,68,133618,1,0,0:0:0:0:
308,232,133754,1,0,0:0:0:0:
84,244,133891,1,0,0:0:0:0:
304,196,134027,1,0,0:0:0:0:
136,44,134164,5,4,0:0:0:0:
132,304,134300,1,0,0:0:0:0:
352,164,134436,5,0,0:0:0:0:
88,140,134573,1,0,0:0:0:0:
320,264,134709,1,0,0:0:0:0:
60,240,134845,1,0,0:0:0:0:
308,152,134982,1,0,0:0:0:0:
104,320,135118,1,0,0:0:0:0:
225,45,135254,5,4,0:0:0:0:
230,332,135391,1,0,0:0:0:0:
414,166,135527,5,0,0:0:0:0:
125,159,135664,1,0,0:0:0:0:
329,19,135800,5,4,0:0:0:0:
325,319,135936,1,0,0:0:0:0:
94,131,136073,5,0,0:0:0:0:
383,138,136210,1,0,0:0:0:0:
167,13,136345,5,4,0:0:0:0:
163,341,136482,1,0,0:0:0:0:
424,124,136618,5,0,0:0:0:0:
92,236,136754,1,0,0:0:0:0:
404,28,136891,1,0,0:0:0:0:
224,356,137027,1,0,0:0:0:0:
52,20,137164,1,0,0:0:0:0:
500,204,137300,1,0,0:0:0:0:
24,348,137436,1,0,0:0:0:0:
