osu file format v14

[General]
AudioFilename: audio.ogg
AudioLeadIn: 0
PreviewTime:62786
Countdown: 0
SampleSet: Soft
StackLeniency: 0.7
Mode: 0
LetterboxInBreaks: 0
WidescreenStoryboard: 1
EpilepsyWarning: 1

[Editor]
Bookmarks: 44165
DistanceSpacing: 0.6
BeatDivisor: 8
GridSize: 16
TimelineZoom: 2

[Metadata]
Title:Try This (Cut Ver.)
TitleUnicode:Try This (Cut Ver.)
Artist:Pegboard Nerds
ArtistUnicode:Pegboard Nerds
Creator:AJT
Version:Zer0's Insane
Source:
Tags:electronic drumstep instrumental monstercat fa featured artist mappers' guild mpg zer0- fsjallink jojajim just shapes & and beats
BeatmapID:3832763
BeatmapSetID:1862574

[Difficulty]
HPDrainRate:5
CircleSize:4.2
OverallDifficulty:8
ApproachRate:9
SliderMultiplier:2.39999990463257
SliderTickRate:1

[Events]
//Background and Video events
0,0,"wp4599443.jpg",0,0
//Break Periods
2,8503,10417
2,44968,46324
2,47727,49083
2,50486,51841
//Storyboard Layer 0 (Background)
//Storyboard Layer 1 (Fail)
//Storyboard Layer 2 (Pass)
//Storyboard Layer 3 (Foreground)
Sprite,Foreground,Centre,"sb\p.png",0,0 M,0,66234,,425,96 C,0,66234,,255,0,0 P,0,66234,,A F,2,66234,66634,1,0 S,4,66234,66984,0.7,0.2
Sprite,Foreground,Centre,"sb\p.png",0,0 M,0,66262,,444.2284,92.914 C,0,66262,,255,0,0 P,0,66262,,A F,2,66262,66662,1,0 S,4,66262,67012,0.7,0.2
Sprite,Foreground,Centre,"sb\p.png",0,0 M,0,66290,,463.6809,91.99731 C,0,66290,,255,0,0 P,0,66290,,A F,2,66290,66690,1,0 S,4,66290,67040,0.7,0.2
Sprite,Foreground,Centre,"sb\p.png",0,0 M,0,66318,,483.1241,93.15656 C,0,66318,,255,0,0 P,0,66318,,A F,2,66318,66718,1,0 S,4,66318,67068,0.7,0.2
Sprite,Foreground,Centre,"sb\p.png",0,0 M,0,66346,,502.37,96.16164 C,0,66346,,255,0,0 P,0,66346,,A F,2,66346,66746,1,0 S,4,66346,67096,0.7,0.2
Sprite,Foreground,Centre,"sb\p.png",0,0 M,0,66374,,521.3083,100.7318 C,0,66374,,255,0,0 P,0,66374,,A F,2,66374,66774,1,0 S,4,66374,67124,0.7,0.2
Sprite,Foreground,Centre,"sb\p.png",0,0 M,0,66402,,523.7024,104.3935 C,0,66402,,255,0,0 P,0,66402,,A F,2,66402,66802,1,0 S,4,66402,67152,0.7,0.2
Sprite,Foreground,Centre,"sb\p.png",0,0 M,0,66430,,504.2723,105.8674 C,0,66430,,255,0,0 P,0,66430,,A F,2,66430,66830,1,0 S,4,66430,67180,0.7,0.2
Sprite,Foreground,Centre,"sb\p.png",0,0 M,0,66458,,484.9273,108.2066 C,0,66458,,255,0,0 P,0,66458,,A F,2,66458,66858,1,0 S,4,66458,67208,0.7,0.2
Sprite,Foreground,Centre,"sb\p.png",0,0 M,0,66486,,465.7128,111.4448 C,0,66486,,255,0,0 P,0,66486,,A F,2,66486,66886,1,0 S,4,66486,67236,0.7,0.2
Sprite,Foreground,Centre,"sb\p.png",0,0 M,0,66514,,446.6728,115.5882 C,0,66514,,255,0,0 P,0,66514,,A F,2,66514,66914,1,0 S,4,66514,67264,0.7,0.2
Sprite,Foreground,Centre,"sb\p.png",0,0 M,0,66542,,427.8726,120.71 C,0,66542,,255,0,0 P,0,66542,,A F,2,66542,66942,1,0 S,4,66542,67292,0.7,0.2
Sprite,Foreground,Centre,"sb\p.png",0,0 M,0,66570,,409.3541,126.7704 C,0,66570,,255,0,0 P,0,66570,,A F,2,66570,66970,1,0 S,4,66570,67320,0.7,0.2
Sprite,Foreground,Centre,"sb\p.png",0,0 M,0,66598,,391.1828,133.8041 C,0,66598,,255,0,0 P,0,66598,,A F,2,66598,66998,1,0 S,4,66598,67348,0.7,0.2
Sprite,Foreground,Centre,"sb\p.png",0,0 M,0,66626,,373.4128,141.7968 C,0,66626,,255,0,0 P,0,66626,,A F,2,66626,67026,1,0 S,4,66626,67376,0.7,0.2
Sprite,Foreground,Centre,"sb\p.png",0,0 M,0,66654,,356.0854,150.7092 C,0,66654,,255,0,0 P,0,66654,,A F,2,66654,67054,1,0 S,4,66654,67404,0.7,0.2
Sprite,Foreground,Centre,"sb\p.png",0,0 M,0,66682,,339.2729,160.5588 C,0,66682,,255,0,0 P,0,66682,,A F,2,66682,67082,1,0 S,4,66682,67432,0.7,0.2
Sprite,Foreground,Centre,"sb\p.png",0,0 M,0,66710,,322.9877,171.2572 C,0,66710,,255,0,0 P,0,66710,,A F,2,66710,67110,1,0 S,4,66710,67460,0.7,0.2
Sprite,Foreground,Centre,"sb\p.png",0,0 M,0,66738,,307.2796,182.787 C,0,66738,,255,0,0 P,0,66738,,A F,2,66738,67138,1,0 S,4,66738,67488,0.7,0.2
Sprite,Foreground,Centre,"sb\p.png",0,0 M,0,71752,,185,391 C,0,71752,,0,147,255 P,0,71752,,A F,2,71752,72152,1,0 S,4,71752,72502,0.7,0.2
Sprite,Foreground,Centre,"sb\p.png",0,0 M,0,71780,,199.8271,403.6467 C,0,71780,,0,147,255 P,0,71780,,A F,2,71780,72180,1,0 S,4,71780,72530,0.7,0.2
Sprite,Foreground,Centre,"sb\p.png",0,0 M,0,71808,,214.6671,416.2386 C,0,71808,,0,147,255 P,0,71808,,A F,2,71808,72208,1,0 S,4,71808,72558,0.7,0.2
Sprite,Foreground,Centre,"sb\p.png",0,0 M,0,71836,,232.3649,416.6588 C,0,71836,,0,147,255 P,0,71836,,A F,2,71836,72236,1,0 S,4,71836,72586,0.7,0.2
Sprite,Foreground,Centre,"sb\p.png",0,0 M,0,71864,,251.271,411.9323 C,0,71864,,0,147,255 P,0,71864,,A F,2,71864,72264,1,0 S,4,71864,72614,0.7,0.2
Sprite,Foreground,Centre,"sb\p.png",0,0 M,0,71892,,270.1772,407.2057 C,0,71892,,0,147,255 P,0,71892,,A F,2,71892,72292,1,0 S,4,71892,72642,0.7,0.2
Sprite,Foreground,Centre,"sb\p.png",0,0 M,0,71920,,289.0833,402.4792 C,0,71920,,0,147,255 P,0,71920,,A F,2,71920,72320,1,0 S,4,71920,72670,0.7,0.2
Sprite,Foreground,Centre,"sb\p.png",0,0 M,0,71948,,307.9894,397.7527 C,0,71948,,0,147,255 P,0,71948,,A F,2,71948,72348,1,0 S,4,71948,72698,0.7,0.2
Sprite,Foreground,Centre,"sb\p.png",0,0 M,0,71976,,326.8956,393.0261 C,0,71976,,0,147,255 P,0,71976,,A F,2,71976,72376,1,0 S,4,71976,72726,0.7,0.2
Sprite,Foreground,Centre,"sb\p.png",0,0 M,0,72004,,345.8017,388.2996 C,0,72004,,0,147,255 P,0,72004,,A F,2,72004,72404,1,0 S,4,72004,72754,0.7,0.2
Sprite,Foreground,Centre,"sb\p.png",0,0 M,0,72032,,364.7078,383.5731 C,0,72032,,0,147,255 P,0,72032,,A F,2,72032,72432,1,0 S,4,72032,72782,0.7,0.2
Sprite,Foreground,Centre,"sb\p.png",0,0 M,0,72060,,383.614,378.8465 C,0,72060,,0,147,255 P,0,72060,,A F,2,72060,72460,1,0 S,4,72060,72810,0.7,0.2
Sprite,Foreground,Centre,"sb\p.png",0,0 M,0,72088,,402.5201,374.12 C,0,72088,,0,147,255 P,0,72088,,A F,2,72088,72488,1,0 S,4,72088,72838,0.7,0.2
Sprite,Foreground,Centre,"sb\p.png",0,0 M,0,72116,,415.0774,370.6371 C,0,72116,,0,147,255 P,0,72116,,A F,2,72116,72516,1,0 S,4,72116,72866,0.7,0.2
Sprite,Foreground,Centre,"sb\p.png",0,0 M,0,72144,,397.2321,373.1097 C,0,72144,,0,147,255 P,0,72144,,A F,2,72144,72544,1,0 S,4,72144,72894,0.7,0.2
Sprite,Foreground,Centre,"sb\p.png",0,0 M,0,72172,,377.94,375.8657 C,0,72172,,0,147,255 P,0,72172,,A F,2,72172,72572,1,0 S,4,72172,72922,0.7,0.2
Sprite,Foreground,Centre,"sb\p.png",0,0 M,0,72200,,358.6478,378.6217 C,0,72200,,0,147,255 P,0,72200,,A F,2,72200,72600,1,0 S,4,72200,72950,0.7,0.2
Sprite,Foreground,Centre,"sb\p.png",0,0 M,0,72228,,339.3557,381.3778 C,0,72228,,0,147,255 P,0,72228,,A F,2,72228,72628,1,0 S,4,72228,72978,0.7,0.2
Sprite,Foreground,Centre,"sb\p.png",0,0 M,0,72256,,320.0636,384.1338 C,0,72256,,0,147,255 P,0,72256,,A F,2,72256,72656,1,0 S,4,72256,73006,0.7,0.2
Sprite,Foreground,Centre,"sb\p.png",0,0 M,0,77269,,160,366 C,0,77269,,0,147,255 P,0,77269,,A F,2,77269,77669,1,0 S,4,77269,78019,0.7,0.2
Sprite,Foreground,Centre,"sb\p.png",0,0 M,0,77297,,143.3432,376.1092 C,0,77297,,0,147,255 P,0,77297,,A F,2,77297,77697,1,0 S,4,77297,78047,0.7,0.2
Sprite,Foreground,Centre,"sb\p.png",0,0 M,0,77325,,127.3476,387.2323 C,0,77325,,0,147,255 P,0,77325,,A F,2,77325,77725,1,0 S,4,77325,78075,0.7,0.2
Sprite,Foreground,Centre,"sb\p.png",0,0 M,0,77353,,112.1936,399.4762 C,0,77353,,0,147,255 P,0,77353,,A F,2,77353,77753,1,0 S,4,77353,78103,0.7,0.2
Sprite,Foreground,Centre,"sb\p.png",0,0 M,0,77381,,98.07601,412.8986 C,0,77381,,0,147,255 P,0,77381,,A F,2,77381,77781,1,0 S,4,77381,78131,0.7,0.2
Sprite,Foreground,Centre,"sb\p.png",0,0 M,0,77409,,85.16996,427.4894 C,0,77409,,0,147,255 P,0,77409,,A F,2,77409,77809,1,0 S,4,77409,78159,0.7,0.2
Sprite,Foreground,Centre,"sb\p.png",0,0 M,0,77437,,84.3935,432.937 C,0,77437,,0,147,255 P,0,77437,,A F,2,77437,77837,1,0 S,4,77437,78187,0.7,0.2
Sprite,Foreground,Centre,"sb\p.png",0,0 M,0,77465,,101.2464,423.1603 C,0,77465,,0,147,255 P,0,77465,,A F,2,77465,77865,1,0 S,4,77465,78215,0.7,0.2
Sprite,Foreground,Centre,"sb\p.png",0,0 M,0,77493,,118.6974,414.4954 C,0,77493,,0,147,255 P,0,77493,,A F,2,77493,77893,1,0 S,4,77493,78243,0.7,0.2
Sprite,Foreground,Centre,"sb\p.png",0,0 M,0,77521,,136.6765,406.9893 C,0,77521,,0,147,255 P,0,77521,,A F,2,77521,77921,1,0 S,4,77521,78271,0.7,0.2
Sprite,Foreground,Centre,"sb\p.png",0,0 M,0,77549,,155.098,400.6436 C,0,77549,,0,147,255 P,0,77549,,A F,2,77549,77949,1,0 S,4,77549,78299,0.7,0.2
Sprite,Foreground,Centre,"sb\p.png",0,0 M,0,77577,,173.9007,395.5363 C,0,77577,,0,147,255 P,0,77577,,A F,2,77577,77977,1,0 S,4,77577,78327,0.7,0.2
Sprite,Foreground,Centre,"sb\p.png",0,0 M,0,77605,,192.9805,391.5895 C,0,77605,,0,147,255 P,0,77605,,A F,2,77605,78005,1,0 S,4,77605,78355,0.7,0.2
Sprite,Foreground,Centre,"sb\p.png",0,0 M,0,77633,,212.2667,388.8174 C,0,77633,,0,147,255 P,0,77633,,A F,2,77633,78033,1,0 S,4,77633,78383,0.7,0.2
Sprite,Foreground,Centre,"sb\p.png",0,0 M,0,77661,,231.6812,387.1685 C,0,77661,,0,147,255 P,0,77661,,A F,2,77661,78061,1,0 S,4,77661,78411,0.7,0.2
Sprite,Foreground,Centre,"sb\p.png",0,0 M,0,77689,,251.1571,386.5662 C,0,77689,,0,147,255 P,0,77689,,A F,2,77689,78089,1,0 S,4,77689,78439,0.7,0.2
Sprite,Foreground,Centre,"sb\p.png",0,0 M,0,77717,,270.6377,387.0029 C,0,77717,,0,147,255 P,0,77717,,A F,2,77717,78117,1,0 S,4,77717,78467,0.7,0.2
Sprite,Foreground,Centre,"sb\p.png",0,0 M,0,77745,,290.0762,388.3575 C,0,77745,,0,147,255 P,0,77745,,A F,2,77745,78145,1,0 S,4,77745,78495,0.7,0.2
Sprite,Foreground,Centre,"sb\p.png",0,0 M,0,77773,,309.4332,390.5966 C,0,77773,,0,147,255 P,0,77773,,A F,2,77773,78173,1,0 S,4,77773,78523,0.7,0.2
Sprite,Foreground,Centre,"sb\p.png",0,0 M,0,82441,,487,181 C,0,82441,,0,147,255 P,0,82441,,A F,2,82441,82841,1,0 S,4,82441,83191,0.7,0.2
Sprite,Foreground,Centre,"sb\p.png",0,0 M,0,82469,,490.3476,164.1709 C,0,82469,,0,147,255 P,0,82469,,A F,2,82469,82869,1,0 S,4,82469,83219,0.7,0.2
Sprite,Foreground,Centre,"sb\p.png",0,0 M,0,82497,,499.9573,150.065 C,0,82497,,0,147,255 P,0,82497,,A F,2,82497,82897,1,0 S,4,82497,83247,0.7,0.2
Sprite,Foreground,Centre,"sb\p.png",0,0 M,0,82525,,515.325,142.6054 C,0,82525,,0,147,255 P,0,82525,,A F,2,82525,82925,1,0 S,4,82525,83275,0.7,0.2
Sprite,Foreground,Centre,"sb\p.png",0,0 M,0,82553,,532.396,142.151 C,0,82553,,0,147,255 P,0,82553,,A F,2,82553,82953,1,0 S,4,82553,83303,0.7,0.2
Sprite,Foreground,Centre,"sb\p.png",0,0 M,0,82581,,547.4334,150.2304 C,0,82581,,0,147,255 P,0,82581,,A F,2,82581,82981,1,0 S,4,82581,83331,0.7,0.2
Sprite,Foreground,Centre,"sb\p.png",0,0 M,0,82609,,557.6252,163.8876 C,0,82609,,0,147,255 P,0,82609,,A F,2,82609,83009,1,0 S,4,82609,83359,0.7,0.2
Sprite,Foreground,Centre,"sb\p.png",0,0 M,0,82637,,559.8582,180.7684 C,0,82637,,0,147,255 P,0,82637,,A F,2,82637,83037,1,0 S,4,82637,83387,0.7,0.2
Sprite,Foreground,Centre,"sb\p.png",0,0 M,0,82665,,554.791,196.9755 C,0,82665,,0,147,255 P,0,82665,,A F,2,82665,83065,1,0 S,4,82665,83415,0.7,0.2
Sprite,Foreground,Centre,"sb\p.png",0,0 M,0,82693,,542.8297,209.3573 C,0,82693,,0,147,255 P,0,82693,,A F,2,82693,83093,1,0 S,4,82693,83443,0.7,0.2
Sprite,Foreground,Centre,"sb\p.png",0,0 M,0,82786,,473,261 C,0,82786,,255,0,0 P,0,82786,,A F,2,82786,83186,1,0 S,4,82786,83536,0.7,0.2
Sprite,Foreground,Centre,"sb\p.png",0,0 M,0,82814,,457.592,272.8847 C,0,82814,,255,0,0 P,0,82814,,A F,2,82814,83214,1,0 S,4,82814,83564,0.7,0.2
Sprite,Foreground,Centre,"sb\p.png",0,0 M,0,82842,,440.3433,281.8621 C,0,82842,,255,0,0 P,0,82842,,A F,2,82842,83242,1,0 S,4,82842,83592,0.7,0.2
Sprite,Foreground,Centre,"sb\p.png",0,0 M,0,82870,,421.6487,287.2077 C,0,82870,,255,0,0 P,0,82870,,A F,2,82870,83270,1,0 S,4,82870,83620,0.7,0.2
Sprite,Foreground,Centre,"sb\p.png",0,0 M,0,82898,,402.2568,288.5551 C,0,82898,,255,0,0 P,0,82898,,A F,2,82898,83298,1,0 S,4,82898,83648,0.7,0.2
Sprite,Foreground,Centre,"sb\p.png",0,0 M,0,82926,,382.975,286.0193 C,0,82926,,255,0,0 P,0,82926,,A F,2,82926,83326,1,0 S,4,82926,83676,0.7,0.2
Sprite,Foreground,Centre,"sb\p.png",0,0 M,0,82954,,364.5824,279.6828 C,0,82954,,255,0,0 P,0,82954,,A F,2,82954,83354,1,0 S,4,82954,83704,0.7,0.2
Sprite,Foreground,Centre,"sb\p.png",0,0 M,0,82982,,347.5201,270.3257 C,0,82982,,255,0,0 P,0,82982,,A F,2,82982,83382,1,0 S,4,82982,83732,0.7,0.2
Sprite,Foreground,Centre,"sb\p.png",0,0 M,0,83010,,331.7931,258.8322 C,0,83010,,255,0,0 P,0,83010,,A F,2,83010,83410,1,0 S,4,83010,83760,0.7,0.2
Sprite,Foreground,Centre,"sb\p.png",0,0 M,0,83038,,316.5373,246.7072 C,0,83038,,255,0,0 P,0,83038,,A F,2,83038,83438,1,0 S,4,83038,83788,0.7,0.2
Sprite,Foreground,Centre,"sb\p.png",0,0 M,0,83066,,300.6299,235.4658 C,0,83066,,255,0,0 P,0,83066,,A F,2,83066,83466,1,0 S,4,83066,83816,0.7,0.2
Sprite,Foreground,Centre,"sb\p.png",0,0 M,0,83094,,283.4473,226.3119 C,0,83094,,255,0,0 P,0,83094,,A F,2,83094,83494,1,0 S,4,83094,83844,0.7,0.2
Sprite,Foreground,Centre,"sb\p.png",0,0 M,0,83122,,265.1638,219.6367 C,0,83122,,255,0,0 P,0,83122,,A F,2,83122,83522,1,0 S,4,83122,83872,0.7,0.2
Sprite,Foreground,Centre,"sb\p.png",0,0 M,0,83150,,246.0905,215.7502 C,0,83150,,255,0,0 P,0,83150,,A F,2,83150,83550,1,0 S,4,83150,83900,0.7,0.2
Sprite,Foreground,Centre,"sb\p.png",0,0 M,0,83178,,226.6531,214.8194 C,0,83178,,255,0,0 P,0,83178,,A F,2,83178,83578,1,0 S,4,83178,83928,0.7,0.2
Sprite,Foreground,Centre,"sb\p.png",0,0 M,0,83206,,207.3142,216.9854 C,0,83206,,255,0,0 P,0,83206,,A F,2,83206,83606,1,0 S,4,83206,83956,0.7,0.2
Sprite,Foreground,Centre,"sb\p.png",0,0 M,0,83234,,188.6791,222.5722 C,0,83234,,255,0,0 P,0,83234,,A F,2,83234,83634,1,0 S,4,83234,83984,0.7,0.2
Sprite,Foreground,Centre,"sb\p.png",0,0 M,0,83262,,171.3376,231.377 C,0,83262,,255,0,0 P,0,83262,,A F,2,83262,83662,1,0 S,4,83262,84012,0.7,0.2
Sprite,Foreground,Centre,"sb\p.png",0,0 M,0,83290,,155.8937,243.2077 C,0,83290,,255,0,0 P,0,83290,,A F,2,83290,83690,1,0 S,4,83290,84040,0.7,0.2
Sprite,Foreground,Centre,"sb\p.png",0,0 M,0,88303,,411,270 C,0,88303,,0,147,255 P,0,88303,,A F,2,88303,88703,1,0 S,4,88303,89053,0.7,0.2
Sprite,Foreground,Centre,"sb\p.png",0,0 M,0,88331,,415.5934,251.0898 C,0,88331,,0,147,255 P,0,88331,,A F,2,88331,88731,1,0 S,4,88331,89081,0.7,0.2
Sprite,Foreground,Centre,"sb\p.png",0,0 M,0,88359,,423.5263,233.3407 C,0,88359,,0,147,255 P,0,88359,,A F,2,88359,88759,1,0 S,4,88359,89109,0.7,0.2
Sprite,Foreground,Centre,"sb\p.png",0,0 M,0,88387,,435.0869,217.715 C,0,88387,,0,147,255 P,0,88387,,A F,2,88387,88787,1,0 S,4,88387,89137,0.7,0.2
Sprite,Foreground,Centre,"sb\p.png",0,0 M,0,88415,,449.7944,205.0071 C,0,88415,,0,147,255 P,0,88415,,A F,2,88415,88815,1,0 S,4,88415,89165,0.7,0.2
Sprite,Foreground,Centre,"sb\p.png",0,0 M,0,88443,,466.6818,195.3458 C,0,88443,,0,147,255 P,0,88443,,A F,2,88443,88843,1,0 S,4,88443,89193,0.7,0.2
Sprite,Foreground,Centre,"sb\p.png",0,0 M,0,88471,,484.9427,188.595 C,0,88471,,0,147,255 P,0,88471,,A F,2,88471,88871,1,0 S,4,88471,89221,0.7,0.2
Sprite,Foreground,Centre,"sb\p.png",0,0 M,0,88499,,503.8916,184.1018 C,0,88499,,0,147,255 P,0,88499,,A F,2,88499,88899,1,0 S,4,88499,89249,0.7,0.2
Sprite,Foreground,Centre,"sb\p.png",0,0 M,0,88527,,519.325,187.1782 C,0,88527,,0,147,255 P,0,88527,,A F,2,88527,88927,1,0 S,4,88527,89277,0.7,0.2
Sprite,Foreground,Centre,"sb\p.png",0,0 M,0,88555,,523.7473,206.0147 C,0,88555,,0,147,255 P,0,88555,,A F,2,88555,88955,1,0 S,4,88555,89305,0.7,0.2
Sprite,Foreground,Centre,"sb\p.png",0,0 M,0,88583,,526.069,225.3498 C,0,88583,,0,147,255 P,0,88583,,A F,2,88583,88983,1,0 S,4,88583,89333,0.7,0.2
Sprite,Foreground,Centre,"sb\p.png",0,0 M,0,88611,,525.6542,244.8096 C,0,88611,,0,147,255 P,0,88611,,A F,2,88611,89011,1,0 S,4,88611,89361,0.7,0.2
Sprite,Foreground,Centre,"sb\p.png",0,0 M,0,88639,,522.0212,263.9163 C,0,88639,,0,147,255 P,0,88639,,A F,2,88639,89039,1,0 S,4,88639,89389,0.7,0.2
Sprite,Foreground,Centre,"sb\p.png",0,0 M,0,88667,,514.6407,281.9043 C,0,88667,,0,147,255 P,0,88667,,A F,2,88667,89067,1,0 S,4,88667,89417,0.7,0.2
Sprite,Foreground,Centre,"sb\p.png",0,0 M,0,88695,,503.6472,297.9359 C,0,88695,,0,147,255 P,0,88695,,A F,2,88695,89095,1,0 S,4,88695,89445,0.7,0.2
Sprite,Foreground,Centre,"sb\p.png",0,0 M,0,88723,,489.7679,311.5681 C,0,88723,,0,147,255 P,0,88723,,A F,2,88723,89123,1,0 S,4,88723,89473,0.7,0.2
Sprite,Foreground,Centre,"sb\p.png",0,0 M,0,88751,,484,316 C,0,88751,,0,147,255 P,0,88751,,A F,2,88751,89151,1,0 S,4,88751,89501,0.7,0.2
Sprite,Foreground,Centre,"sb\p.png",0,0 M,0,93476,,332,365 C,0,93476,,255,0,0 P,0,93476,,A F,2,93476,93876,1,0 S,4,93476,94226,0.7,0.2
Sprite,Foreground,Centre,"sb\p.png",0,0 M,0,93504,,328.7222,349.7581 C,0,93504,,255,0,0 P,0,93504,,A F,2,93504,93904,1,0 S,4,93504,94254,0.7,0.2
Sprite,Foreground,Centre,"sb\p.png",0,0 M,0,93532,,325.4443,334.5161 C,0,93532,,255,0,0 P,0,93532,,A F,2,93532,93932,1,0 S,4,93532,94282,0.7,0.2
Sprite,Foreground,Centre,"sb\p.png",0,0 M,0,93560,,322.1665,319.2742 C,0,93560,,255,0,0 P,0,93560,,A F,2,93560,93960,1,0 S,4,93560,94310,0.7,0.2
Sprite,Foreground,Centre,"sb\p.png",0,0 M,0,93588,,318.8887,304.0323 C,0,93588,,255,0,0 P,0,93588,,A F,2,93588,93988,1,0 S,4,93588,94338,0.7,0.2
Sprite,Foreground,Centre,"sb\p.png",0,0 M,0,93616,,315.6108,288.7904 C,0,93616,,255,0,0 P,0,93616,,A F,2,93616,94016,1,0 S,4,93616,94366,0.7,0.2
Sprite,Foreground,Centre,"sb\p.png",0,0 M,0,93644,,312.4414,274.0528 C,0,93644,,255,0,0 P,0,93644,,A F,2,93644,94044,1,0 S,4,93644,94394,0.7,0.2
Sprite,Foreground,Centre,"sb\p.png",0,0 M,0,93672,,312,272 C,0,93672,,255,0,0 P,0,93672,,A F,2,93672,94072,1,0 S,4,93672,94422,0.7,0.2
Sprite,Foreground,Centre,"sb\p.png",0,0 M,0,93821,,295,435 C,0,93821,,0,147,255 P,0,93821,,A F,2,93821,94221,1,0 S,4,93821,94571,0.7,0.2
Sprite,Foreground,Centre,"sb\p.png",0,0 M,0,93849,,299.2104,415.9723 C,0,93849,,0,147,255 P,0,93849,,A F,2,93849,94249,1,0 S,4,93849,94599,0.7,0.2
Sprite,Foreground,Centre,"sb\p.png",0,0 M,0,93877,,303.4208,396.9445 C,0,93877,,0,147,255 P,0,93877,,A F,2,93877,94277,1,0 S,4,93877,94627,0.7,0.2
Sprite,Foreground,Centre,"sb\p.png",0,0 M,0,93905,,307.6312,377.9168 C,0,93905,,0,147,255 P,0,93905,,A F,2,93905,94305,1,0 S,4,93905,94655,0.7,0.2
Sprite,Foreground,Centre,"sb\p.png",0,0 M,0,93933,,311.8416,358.8891 C,0,93933,,0,147,255 P,0,93933,,A F,2,93933,94333,1,0 S,4,93933,94683,0.7,0.2
Sprite,Foreground,Centre,"sb\p.png",0,0 M,0,93961,,316.052,339.8613 C,0,93961,,0,147,255 P,0,93961,,A F,2,93961,94361,1,0 S,4,93961,94711,0.7,0.2
Sprite,Foreground,Centre,"sb\p.png",0,0 M,0,93989,,320.2623,320.8336 C,0,93989,,0,147,255 P,0,93989,,A F,2,93989,94389,1,0 S,4,93989,94739,0.7,0.2
Sprite,Foreground,Centre,"sb\p.png",0,0 M,0,94017,,324.4727,301.8058 C,0,94017,,0,147,255 P,0,94017,,A F,2,94017,94417,1,0 S,4,94017,94767,0.7,0.2
Sprite,Foreground,Centre,"sb\p.png",0,0 M,0,94045,,328.6831,282.7781 C,0,94045,,0,147,255 P,0,94045,,A F,2,94045,94445,1,0 S,4,94045,94795,0.7,0.2
Sprite,Foreground,Centre,"sb\p.png",0,0 M,0,94073,,332.8935,263.7504 C,0,94073,,0,147,255 P,0,94073,,A F,2,94073,94473,1,0 S,4,94073,94823,0.7,0.2
Sprite,Foreground,Centre,"sb\p.png",0,0 M,0,94101,,337.1039,244.7227 C,0,94101,,0,147,255 P,0,94101,,A F,2,94101,94501,1,0 S,4,94101,94851,0.7,0.2
Sprite,Foreground,Centre,"sb\p.png",0,0 M,0,94129,,341.3143,225.6949 C,0,94129,,0,147,255 P,0,94129,,A F,2,94129,94529,1,0 S,4,94129,94879,0.7,0.2
Sprite,Foreground,Centre,"sb\p.png",0,0 M,0,94157,,345.5247,206.6672 C,0,94157,,0,147,255 P,0,94157,,A F,2,94157,94557,1,0 S,4,94157,94907,0.7,0.2
Sprite,Foreground,Centre,"sb\p.png",0,0 M,0,94185,,346.8521,200.6683 C,0,94185,,0,147,255 P,0,94185,,A F,2,94185,94585,1,0 S,4,94185,94935,0.7,0.2
Sprite,Foreground,Centre,"sb\p.png",0,0 M,0,98993,,325,294 C,0,98993,,255,0,0 P,0,98993,,A F,2,98993,99393,1,0 S,4,98993,99743,0.7,0.2
Sprite,Foreground,Centre,"sb\p.png",0,0 M,0,99021,,339.9595,298.3903 C,0,99021,,255,0,0 P,0,99021,,A F,2,99021,99421,1,0 S,4,99021,99771,0.7,0.2
Sprite,Foreground,Centre,"sb\p.png",0,0 M,0,99049,,354.919,302.7806 C,0,99049,,255,0,0 P,0,99049,,A F,2,99049,99449,1,0 S,4,99049,99799,0.7,0.2
Sprite,Foreground,Centre,"sb\p.png",0,0 M,0,99077,,369.8784,307.1708 C,0,99077,,255,0,0 P,0,99077,,A F,2,99077,99477,1,0 S,4,99077,99827,0.7,0.2
Sprite,Foreground,Centre,"sb\p.png",0,0 M,0,99105,,384.8379,311.5611 C,0,99105,,255,0,0 P,0,99105,,A F,2,99105,99505,1,0 S,4,99105,99855,0.7,0.2
Sprite,Foreground,Centre,"sb\p.png",0,0 M,0,99133,,399.7974,315.9514 C,0,99133,,255,0,0 P,0,99133,,A F,2,99133,99533,1,0 S,4,99133,99883,0.7,0.2
Sprite,Foreground,Centre,"sb\p.png",0,0 M,0,99161,,414.689,320.3218 C,0,99161,,255,0,0 P,0,99161,,A F,2,99161,99561,1,0 S,4,99161,99911,0.7,0.2
Sprite,Foreground,Centre,"sb\p.png",0,0 M,0,99189,,417,321 C,0,99189,,255,0,0 P,0,99189,,A F,2,99189,99589,1,0 S,4,99189,99939,0.7,0.2
Sprite,Foreground,Centre,"sb\p.png",0,0 M,0,99338,,492,291 C,0,99338,,0,147,255 P,0,99338,,A F,2,99338,99738,1,0 S,4,99338,100088,0.7,0.2
Sprite,Foreground,Centre,"sb\p.png",0,0 M,0,99366,,472.7689,294.1514 C,0,99366,,0,147,255 P,0,99366,,A F,2,99366,99766,1,0 S,4,99366,100116,0.7,0.2
Sprite,Foreground,Centre,"sb\p.png",0,0 M,0,99394,,453.5827,297.5642 C,0,99394,,0,147,255 P,0,99394,,A F,2,99394,99794,1,0 S,4,99394,100144,0.7,0.2
Sprite,Foreground,Centre,"sb\p.png",0,0 M,0,99422,,434.4512,301.2715 C,0,99422,,0,147,255 P,0,99422,,A F,2,99422,99822,1,0 S,4,99422,100172,0.7,0.2
Sprite,Foreground,Centre,"sb\p.png",0,0 M,0,99450,,415.3787,305.2721 C,0,99450,,0,147,255 P,0,99450,,A F,2,99450,99850,1,0 S,4,99450,100200,0.7,0.2
Sprite,Foreground,Centre,"sb\p.png",0,0 M,0,99478,,396.368,309.5569 C,0,99478,,0,147,255 P,0,99478,,A F,2,99478,99878,1,0 S,4,99478,100228,0.7,0.2
Sprite,Foreground,Centre,"sb\p.png",0,0 M,0,99506,,377.4312,314.1573 C,0,99506,,0,147,255 P,0,99506,,A F,2,99506,99906,1,0 S,4,99506,100256,0.7,0.2
Sprite,Foreground,Centre,"sb\p.png",0,0 M,0,99534,,358.5658,319.0417 C,0,99534,,0,147,255 P,0,99534,,A F,2,99534,99934,1,0 S,4,99534,100284,0.7,0.2
Sprite,Foreground,Centre,"sb\p.png",0,0 M,0,99562,,339.7752,324.2062 C,0,99562,,0,147,255 P,0,99562,,A F,2,99562,99962,1,0 S,4,99562,100312,0.7,0.2
Sprite,Foreground,Centre,"sb\p.png",0,0 M,0,99590,,321.066,329.6583 C,0,99590,,0,147,255 P,0,99590,,A F,2,99590,99990,1,0 S,4,99590,100340,0.7,0.2
Sprite,Foreground,Centre,"sb\p.png",0,0 M,0,99618,,302.4402,335.3894 C,0,99618,,0,147,255 P,0,99618,,A F,2,99618,100018,1,0 S,4,99618,100368,0.7,0.2
Sprite,Foreground,Centre,"sb\p.png",0,0 M,0,99646,,283.9072,341.4137 C,0,99646,,0,147,255 P,0,99646,,A F,2,99646,100046,1,0 S,4,99646,100396,0.7,0.2
Sprite,Foreground,Centre,"sb\p.png",0,0 M,0,99674,,265.4734,347.7353 C,0,99674,,0,147,255 P,0,99674,,A F,2,99674,100074,1,0 S,4,99674,100424,0.7,0.2
Sprite,Foreground,Centre,"sb\p.png",0,0 M,0,99702,,259.6734,349.7621 C,0,99702,,0,147,255 P,0,99702,,A F,2,99702,100102,1,0 S,4,99702,100452,0.7,0.2
Sprite,Foreground,Centre,"sb\p.png",0,0 M,0,104510,,378,95 C,0,104510,,255,0,0 P,0,104510,,A F,2,104510,104910,1,0 S,4,104510,105260,0.7,0.2
Sprite,Foreground,Centre,"sb\p.png",0,0 M,0,104538,,362.99,90.9931 C,0,104538,,255,0,0 P,0,104538,,A F,2,104538,104938,1,0 S,4,104538,105288,0.7,0.2
Sprite,Foreground,Centre,"sb\p.png",0,0 M,0,104566,,347.5217,90.09686 C,0,104566,,255,0,0 P,0,104566,,A F,2,104566,104966,1,0 S,4,104566,105316,0.7,0.2
Sprite,Foreground,Centre,"sb\p.png",0,0 M,0,104594,,332.217,92.413 C,0,104594,,255,0,0 P,0,104594,,A F,2,104594,104994,1,0 S,4,104594,105344,0.7,0.2
Sprite,Foreground,Centre,"sb\p.png",0,0 M,0,104622,,317.7345,97.83404 C,0,104622,,255,0,0 P,0,104622,,A F,2,104622,105022,1,0 S,4,104622,105372,0.7,0.2
Sprite,Foreground,Centre,"sb\p.png",0,0 M,0,104650,,304.6481,106.0638 C,0,104650,,255,0,0 P,0,104650,,A F,2,104650,105050,1,0 S,4,104650,105400,0.7,0.2
Sprite,Foreground,Centre,"sb\p.png",0,0 M,0,104678,,293.4775,116.3367 C,0,104678,,255,0,0 P,0,104678,,A F,2,104678,105078,1,0 S,4,104678,105428,0.7,0.2
Sprite,Foreground,Centre,"sb\p.png",0,0 M,0,104706,,292,118 C,0,104706,,255,0,0 P,0,104706,,A F,2,104706,105106,1,0 S,4,104706,105456,0.7,0.2
Sprite,Foreground,Centre,"sb\p.png",0,0 M,0,104855,,177,61 C,0,104855,,0,147,255 P,0,104855,,A F,2,104855,105255,1,0 S,4,104855,105605,0.7,0.2
Sprite,Foreground,Centre,"sb\p.png",0,0 M,0,104883,,180.4006,80.18901 C,0,104883,,0,147,255 P,0,104883,,A F,2,104883,105283,1,0 S,4,104883,105633,0.7,0.2
Sprite,Foreground,Centre,"sb\p.png",0,0 M,0,104911,,183.8012,99.37802 C,0,104911,,0,147,255 P,0,104911,,A F,2,104911,105311,1,0 S,4,104911,105661,0.7,0.2
Sprite,Foreground,Centre,"sb\p.png",0,0 M,0,104939,,187.2018,118.567 C,0,104939,,0,147,255 P,0,104939,,A F,2,104939,105339,1,0 S,4,104939,105689,0.7,0.2
Sprite,Foreground,Centre,"sb\p.png",0,0 M,0,104967,,190.0471,137.6755 C,0,104967,,0,147,255 P,0,104967,,A F,2,104967,105367,1,0 S,4,104967,105717,0.7,0.2
Sprite,Foreground,Centre,"sb\p.png",0,0 M,0,104995,,185.6712,155.7386 C,0,104995,,0,147,255 P,0,104995,,A F,2,104995,105395,1,0 S,4,104995,105745,0.7,0.2
Sprite,Foreground,Centre,"sb\p.png",0,0 M,0,105023,,189.0092,174.9329 C,0,105023,,0,147,255 P,0,105023,,A F,2,105023,105423,1,0 S,4,105023,105773,0.7,0.2
Sprite,Foreground,Centre,"sb\p.png",0,0 M,0,105051,,192.3653,194.1297 C,0,105051,,0,147,255 P,0,105051,,A F,2,105051,105451,1,0 S,4,105051,105801,0.7,0.2
Sprite,Foreground,Centre,"sb\p.png",0,0 M,0,105079,,195.7214,213.3265 C,0,105079,,0,147,255 P,0,105079,,A F,2,105079,105479,1,0 S,4,105079,105829,0.7,0.2
Sprite,Foreground,Centre,"sb\p.png",0,0 M,0,105107,,199.0775,232.5234 C,0,105107,,0,147,255 P,0,105107,,A F,2,105107,105507,1,0 S,4,105107,105857,0.7,0.2
Sprite,Foreground,Centre,"sb\p.png",0,0 M,0,105135,,202.4336,251.7202 C,0,105135,,0,147,255 P,0,105135,,A F,2,105135,105535,1,0 S,4,105135,105885,0.7,0.2
Sprite,Foreground,Centre,"sb\p.png",0,0 M,0,105163,,205.7897,270.9171 C,0,105163,,0,147,255 P,0,105163,,A F,2,105163,105563,1,0 S,4,105163,105913,0.7,0.2
Sprite,Foreground,Centre,"sb\p.png",0,0 M,0,105191,,209.1089,289.9031 C,0,105191,,0,147,255 P,0,105191,,A F,2,105191,105591,1,0 S,4,105191,105941,0.7,0.2
Sprite,Foreground,Centre,"sb\p.png",0,0 M,0,105219,,210,295 C,0,105219,,0,147,255 P,0,105219,,A F,2,105219,105619,1,0 S,4,105219,105969,0.7,0.2
Sprite,Foreground,Centre,"sb\c_3.png",0,0 F,0,2959,3159,0,1 M,0,2959,5372,120,240 S,0,2959,5372,0.3 F,0,5172,5372,1,0
//Storyboard Layer 4 (Overlay)
//Storyboard Sound Samples

[TimingPoints]
28,689.655172413793,4,2,1,50,1,0
2786,-100,4,2,1,50,0,0
3993,-500,4,2,1,50,0,0
5545,-100,4,2,1,60,0,0
6752,-500,4,2,1,60,0,0
11062,-100,4,2,1,80,0,0
22096,-83.3333333333333,4,2,1,90,0,0
27269,-55.5555555555556,4,2,1,90,0,0
27614,-83.3333333333333,4,2,1,90,0,0
38303,-55.5555555555556,4,2,1,90,0,0
38648,-83.3333333333333,4,2,1,90,0,0
44165,-62.5,4,2,1,80,0,0
44769,-62.5,4,2,1,5,0,0
46924,-62.5,4,2,1,80,0,0
47528,-62.5,4,2,1,5,0,0
49683,-62.5,4,2,1,80,0,0
50287,-62.5,4,2,1,5,0,0
52441,-62.5,4,2,1,80,0,0
53045,-62.5,4,2,1,5,0,0
53821,-62.5,4,2,1,80,0,0
54425,-62.5,4,2,1,5,0,0
54510,-250,4,2,1,80,0,0
55200,-71.4285714285714,4,2,1,85,0,0
57959,-71.4285714285714,4,2,1,90,0,0
62096,-71.4285714285714,4,2,1,95,0,0
66234,-50,4,2,1,100,0,1
67441,-62.5,4,2,1,100,0,1
68993,-50,4,2,1,100,0,1
70200,-62.5,4,2,1,100,0,1
71407,-55.5555555555556,4,2,1,100,0,1
71752,-50,4,2,1,100,0,1
72441,-62.5,4,2,1,100,0,1
77269,-50,4,2,1,100,0,1
78476,-62.5,4,2,1,100,0,1
80027,-50,4,2,1,100,0,1
81234,-62.5,4,2,1,100,0,1
82441,-55.5555555555556,4,2,1,100,0,1
82786,-50,4,2,1,100,0,1
83821,-62.5,4,2,1,100,0,1
88303,-50,4,2,1,100,0,1
89683,-62.5,4,2,1,100,0,1
93821,-50,4,2,1,100,0,1
95200,-62.5,4,2,1,100,0,1
96234,-55.5555555555556,4,2,1,100,0,1
96579,-62.5,4,2,1,100,0,1
99338,-50,4,2,1,100,0,1
100717,-62.5,4,2,1,100,0,1
104855,-50,4,2,1,100,0,1
106234,-62.5,4,2,1,100,0,1
107614,-66.6666666666667,4,2,1,80,0,0

[Colours]
Combo1 : 255,30,30
Combo2 : 0,64,128
Combo3 : 255,13,13
Combo4 : 0,128,192

[HitObjects]
183,167,2786,6,0,P|186:197|180:227,2,59.9999976158142,2|2|0,0:0|0:0|0:0,0:0:0:0:
103,136,3303,2,0,P|97:106|100:76,2,59.9999976158142,2|2|0,0:0|0:0|0:0,0:0:0:0:
45,192,3821,1,2,0:0:0:0:
179,77,3993,2,0,P|226:81|262:111,1,95.9999961853028,2|0,0:0|0:0,0:0:0:0:
448,172,5545,6,0,L|390:187,2,59.9999976158142,2|2|0,0:0|0:0|0:0,0:0:0:0:
328,257,6062,2,0,L|270:241,2,59.9999976158142,2|2|0,0:0|0:0|0:0,0:0:0:0:
242,164,6579,1,2,0:0:0:0:
129,217,6752,2,0,P|166:255|163:307,1,107.999995708466,2|0,0:0|0:0,0:0:0:0:
435,182,11062,6,0,P|373:157|318:144,1,119.999995231628,6|0,1:0|0:0,0:0:0:0:
198,175,11579,2,0,B|189:188|189:188|192:202,1,29.9999988079071,8|0,0:0|0:0,0:0:0:0:
190,174,12096,2,0,B|181:187|181:187|184:201,1,29.9999988079071,8|0,0:0|0:0,0:0:0:0:
274,299,12441,5,4,1:1:0:0:
274,299,12959,1,8,0:0:0:0:
293,222,13131,1,0,0:0:0:0:
312,145,13303,1,2,0:0:0:0:
241,48,13476,5,2,0:0:0:0:
241,48,13648,1,2,0:0:0:0:
381,23,13821,6,0,P|446:43|446:135,1,119.999995231629,6|0,1:0|0:0,0:0:0:0:
453,204,14338,2,0,B|439:212|439:212|425:209,1,29.9999988079071,8|0,0:0|0:0,0:0:0:0:
454,212,14855,2,0,B|440:220|440:220|426:217,1,29.9999988079071,8|0,0:0|0:0,0:0:0:0:
363,323,15200,5,4,1:0:0:0:
363,323,15717,1,8,0:0:0:0:
289,340,15890,1,0,0:0:0:0:
215,357,16062,1,0,0:0:0:0:
133,281,16234,5,2,1:2:0:0:
133,281,16407,1,0,0:0:0:0:
33,339,16579,6,0,P|22:279|3:223,1,119.999995231629,6|0,1:0|0:0,0:0:0:0:
32,112,17096,2,0,B|46:104|46:104|60:107,1,29.9999988079071,8|0,0:0|0:0,0:0:0:0:
31,104,17613,2,0,B|45:96|45:96|59:99,1,29.9999988079071,8|0,0:0|0:0,0:0:0:0:
169,27,17959,5,6,1:0:0:0:
169,27,18476,1,8,0:0:0:0:
241,52,18648,1,0,0:0:0:0:
313,77,18821,1,8,0:0:0:0:
406,24,18993,5,8,0:0:0:0:
406,24,19165,1,8,0:0:0:0:
484,125,19338,6,0,P|456:133|433:152,2,59.9999976158143,12|0|0,0:2|0:0|0:0,0:0:0:0:
360,216,19855,2,0,P|331:207|308:188,2,59.9999976158143,2|0|0,0:0|0:0|0:0,0:0:0:0:
223,155,20372,2,0,P|194:163|171:182,1,59.9999976158143,2|0,0:0|0:0,0:0:0:0:
107,285,20717,2,0,L|284:315,1,179.999992847443,2|0,0:0|0:0,0:0:0:0:
287,322,21579,5,0,1:0:0:0:
290,330,21665,1,0,1:0:0:0:
293,338,21752,1,0,1:0:0:0:
177,380,21924,1,0,3:0:0:0:
374,377,22096,6,0,B|391:356|391:356|402:193|402:193|419:173,1,215.999984825135,4|0,1:0|0:0,0:0:0:0:
468,62,22786,5,8,0:0:0:0:
390,80,22959,1,0,0:0:0:0:
312,98,23131,1,2,0:0:0:0:
176,70,23303,6,0,L|188:0,1,71.9999949417116,2|0,0:0|1:0,0:0:0:0:
262,166,23648,2,0,P|193:182|131:219,1,143.999989883423,2|2,0:0|0:0,0:0:0:0:
76,313,24165,5,8,0:0:0:0:
173,368,24338,1,12,1:0:0:0:
268,289,24510,1,8,1:0:0:0:
365,344,24683,1,8,1:0:0:0:
493,182,24855,6,0,P|428:259|335:219,1,215.999984825135,4|0,1:0|0:0,0:0:0:0:
229,174,25545,5,8,0:0:0:0:
243,99,25717,1,0,0:0:0:0:
257,24,25890,1,2,0:0:0:0:
60,47,26062,6,0,P|73:79|103:98,1,71.9999949417116,2|0,0:0|1:0,0:0:0:0:
229,174,26407,2,0,L|371:150,1,143.999989883423,2|2,0:0|0:0,0:0:0:0:
265,259,26924,1,8,0:0:0:0:
265,259,27269,6,0,P|214:317|136:312,1,161.999988618851,4|0,1:0|0:0,0:0:0:0:
127,313,27614,6,0,L|167:84,1,215.999984825135,4|0,1:0|0:0,0:0:0:0:
247,14,28303,5,8,0:0:0:0:
318,41,28476,1,0,0:0:0:0:
331,115,28648,1,2,0:0:0:0:
445,164,28821,6,0,P|468:138|476:103,1,71.9999949417116,2|0,0:0|1:0,0:0:0:0:
282,196,29165,2,0,P|329:249|350:317,1,143.999989883423,2|2,0:0|0:0,0:0:0:0:
188,373,29683,5,8,0:0:0:0:
105,288,29855,1,12,1:0:0:0:
282,196,30027,5,8,1:0:0:0:
197,279,30199,1,8,1:0:0:0:
48,204,30372,6,0,B|25:143|89:95|89:95|147:149|121:207,1,251.999982295991,4|0,1:0|0:0,0:0:0:0:
163,278,31062,2,0,B|227:267|236:187|236:187|161:164|123:216,1,251.999982295991,8|0,0:0|0:0,0:0:0:0:
20,258,31752,6,0,B|65:284|75:346|75:346|102:290|156:283,1,215.999984825135,0|2,1:0|0:0,0:0:0:0:
236,187,32441,2,0,B|281:161|291:98|291:98|318:155|372:161,1,215.999984825135,8|2,0:0|0:0,0:0:0:0:
476,314,33131,6,0,L|263:353,1,215.999984825135,4|0,1:0|0:0,0:0:0:0:
236,187,33821,5,8,0:0:0:0:
307,219,33993,1,0,0:0:0:0:
378,251,34165,1,2,0:0:0:0:
158,203,34338,6,0,P|154:168|172:138,1,71.9999949417116,2|0,0:0|1:0,0:0:0:0:
14,34,34683,2,0,P|38:101|47:172,1,143.999989883423,2|2,0:0|0:0,0:0:0:0:
28,348,35200,5,8,0:0:0:0:
128,382,35372,1,12,1:0:0:0:
164,283,35545,1,8,1:0:0:0:
64,249,35717,1,8,1:0:0:0:
139,384,35890,6,0,B|195:371|195:371|215:377|215:377|349:346,1,215.999984825135,4|0,1:0|0:0,0:0:0:0:
498,281,36579,5,8,0:0:0:0:
420,276,36752,1,0,0:0:0:0:
385,205,36924,1,2,0:0:0:0:
452,107,37096,6,0,L|437:22,1,71.9999949417116,2|0,0:0|1:0,0:0:0:0:
272,221,37441,2,0,L|298:80,1,143.999989883423,2|2,0:0|0:0,0:0:0:0:
163,122,37959,1,8,0:0:0:0:
163,122,38303,6,0,B|116:157|116:157|144:256,1,161.999988618851,12|0,0:1|0:0,0:0:0:0:
144,269,38648,6,0,P|249:249|356:261,1,215.999984825135,4|0,1:0|0:0,0:0:0:0:
506,232,39338,5,8,0:0:0:0:
488,308,39510,1,0,0:0:0:0:
470,384,39683,1,2,0:0:0:0:
353,271,39855,6,0,P|344:235|336:201,1,71.9999949417116,2|0,0:0|1:0,0:0:0:0:
458,12,40200,2,0,P|458:80|397:112,1,143.999989883423,2|2,0:0|0:0,0:0:0:0:
244,130,40717,5,8,0:0:0:0:
272,3,40890,1,8,1:0:0:0:
121,19,41062,5,8,1:0:0:0:
140,107,41235,1,8,1:0:0:0:
42,88,41407,5,4,1:0:0:0:
39,77,41579,1,2,0:0:0:0:
49,74,41751,1,2,0:1:0:0:
52,85,41924,1,2,0:0:0:0:
82,191,42096,5,8,0:0:0:0:
85,180,42268,1,2,0:0:0:0:
75,177,42440,1,2,0:1:0:0:
72,188,42613,1,2,0:0:0:0:
46,307,42786,6,0,L|116:292,1,71.9999949417116,4|0,1:0|3:0,0:0:0:0:
116,292,43045,1,0,3:0:0:0:
116,292,43131,1,2,3:1:0:0:
223,368,43303,1,0,0:0:0:0:
308,279,43476,2,0,L|319:208,1,71.9999949417116,8|0,0:0|0:0,0:0:0:0:
388,294,43821,2,0,L|399:223,1,71.9999949417116,2|0,0:1|0:0,0:0:0:0:
459,68,44165,6,0,B|417:61|417:61|364:96|364:96|326:88,1,143.999994277954,6|0,0:0|0:0,0:0:0:0:
330,97,44510,2,0,B|368:105|368:105|421:70|421:70|463:77,1,143.999994277954,2|0,0:0|0:0,0:0:0:0:
89,64,46924,6,0,B|122:90|122:90|108:191|108:191,1,143.999994277954,2|0,0:0|0:0,0:0:0:0:
115,189,47269,2,0,B|129:88|129:88|96:62,1,143.999994277954,2|0,0:0|0:0,0:0:0:0:
309,302,49683,6,0,B|289:299|289:299|191:341|191:341|183:357,1,143.999994277954,6|0,0:0|0:0,0:0:0:0:
180,349,50028,2,0,B|188:333|188:333|286:291|286:291|306:294,1,143.999994277954,2|0,0:0|0:0,0:0:0:0:
192,22,52441,6,0,L|220:163,1,143.999994277954,2|0,0:0|0:0,0:0:0:0:
214,165,52786,2,0,L|185:23,1,143.999994277954,2|0,0:0|0:0,0:0:0:0:
316,223,53821,6,0,L|287:364,1,143.999994277954,2|0,0:0|0:0,0:0:0:0:
294,366,54166,2,0,L|322:224,1,143.999994277954,2|0,0:0|0:0,0:0:0:0:
296,148,54510,6,0,P|260:169|246:208,1,83.9999966621399,2|0,0:0|0:0,0:0:0:0:
241,220,55200,5,6,0:0:0:0:
141,290,55372,1,2,0:0:0:0:
130,168,55545,1,0,3:0:0:0:
53,276,55717,6,0,P|94:282|134:295,1,83.9999940986636,2|0,0:0|3:0,0:0:0:0:
189,375,56062,1,0,0:0:0:0:
277,290,56234,2,0,P|318:283|358:270,1,83.9999940986636,2|0,3:2|0:0,0:0:0:0:
435,355,56579,5,0,3:0:0:0:
462,269,56752,1,2,0:2:0:0:
408,196,56924,1,0,3:0:0:0:
435,110,57097,1,0,0:0:0:0:
237,79,57269,6,0,P|250:117|286:136,1,83.9999940986636,2|0,3:2|0:0,0:0:0:0:
372,57,57614,2,0,P|358:18|322:0,1,83.9999940986636,2|0,3:2|0:0,0:0:0:0:
91,2,57959,5,0,3:0:0:0:
144,89,58131,1,2,0:0:0:0:
194,0,58303,1,0,3:0:0:0:
39,119,58476,6,0,P|56:157|70:196,1,83.9999940986636,2|0,0:0|3:2,0:0:0:0:
19,277,58821,1,0,0:0:0:0:
177,224,58993,2,0,P|159:262|145:301,1,83.9999940986636,2|0,3:2|0:0,0:0:0:0:
229,366,59338,5,0,3:0:0:0:
313,333,59510,1,2,0:0:0:0:
371,246,59683,1,0,3:0:0:0:
455,279,59855,1,0,0:0:0:0:
293,253,60027,6,0,L|277:155,1,83.9999940986636,2|0,3:2|0:0,0:0:0:0:
453,112,60372,2,0,L|439:194,1,83.9999940986636,2|0,3:2|0:0,0:0:0:0:
210,136,60717,5,0,3:0:0:0:
227,111,60803,1,0,3:0:0:0:
251,95,60889,1,0,3:0:0:0:
280,90,60975,1,0,3:0:0:0:
308,97,61062,2,0,L|342:137,3,41.9999970493318,0|0|0|0,3:0|3:0|3:0|3:0,0:0:0:0:
360,231,61407,5,0,3:0:0:0:
379,259,61493,1,0,3:0:0:0:
408,279,61579,1,0,3:0:0:0:
442,285,61665,1,0,3:0:0:0:
476,276,61752,2,0,L|515:228,3,41.9999970493318,0|0|0|0,3:0|3:0|3:0|3:0,0:0:0:0:
488,106,62096,5,0,3:0:0:0:
449,113,62182,1,0,3:0:0:0:
411,118,62268,1,0,3:0:0:0:
373,123,62354,1,0,3:0:0:0:
335,129,62441,2,0,L|285:121,3,41.9999970493318,0|0|0|0,3:0|3:0|3:0|3:0,0:0:0:0:
249,218,62786,5,2,3:0:0:0:
211,235,62872,1,2,3:0:0:0:
170,231,62958,1,2,3:0:0:0:
137,205,63044,1,2,3:0:0:0:
124,166,63130,1,2,3:0:0:0:
110,126,63217,1,2,3:0:0:0:
77,101,63303,1,2,3:0:0:0:
36,96,63389,1,2,3:0:0:0:
0,114,63475,1,12,3:1:0:0:
256,192,63562,12,0,66148,0:0:0:0:
361,40,66234,6,2,B|410:29|468:48|468:48|332:53|233:135,1,359.999985694885,14|0,1:0|0:0,0:1:0:0:
114,281,66924,5,8,1:2:0:0:
142,132,67096,1,2,0:0:0:0:
257,230,67269,1,2,0:0:0:0:
10,113,67441,6,0,P|22:159|30:206,1,95.9999961853028,2|0,0:0|1:0,0:0:0:0:
117,290,67786,2,0,P|79:320|46:354,1,95.9999961853028,2|0,0:0|0:0,0:0:0:0:
126,202,68131,1,2,0:0:0:0:
242,336,68303,6,0,P|264:327|285:316,1,47.9999980926514,8|0,1:2|0:0,0:0:0:0:
365,223,68476,2,0,P|387:231|408:242,1,47.9999980926514,8|0,1:0|0:0,0:0:0:0:
243,216,68648,6,0,P|265:224|286:235,1,47.9999980926514,8|0,1:0|0:0,0:0:0:0:
362,347,68821,2,0,P|384:338|405:327,1,47.9999980926514,8|0,1:0|0:0,0:0:0:0:
457,163,68993,6,0,B|466:154|466:154|450:46|450:46|382:125|382:125|386:138,1,239.999990463257,4|0,1:0|0:0,0:0:0:0:
401,221,69510,5,2,0:0:0:0:
228,133,69683,1,8,1:2:0:0:
386,138,69855,1,2,0:0:0:0:
243,216,70028,1,2,0:0:0:0:
309,310,70200,6,0,L|323:215,1,95.9999961853028,2|0,0:0|1:0,0:0:0:0:
222,142,70545,2,0,L|208:47,1,95.9999961853028,2|0,0:0|0:0,0:0:0:0:
283,5,70890,1,2,0:0:0:0:
133,104,71062,2,0,L|85:96,1,47.9999980926514,8|0,1:2|0:0,0:0:0:0:
252,211,71234,2,0,L|299:203,1,47.9999980926514,4|0,1:0|0:0,0:0:0:0:
81,271,71407,6,0,P|77:211|110:260,1,161.999988618851,2|0,0:0|0:0,0:0:0:0:
121,335,71752,6,2,B|155:364|155:364|355:314|355:314|236:331,1,359.999985694885,14|0,1:0|0:0,0:1:0:0:
295,228,72441,5,8,1:2:0:0:
400,146,72614,1,2,0:0:0:0:
454,316,72786,6,0,P|430:274|430:227,1,95.9999961853028,2|0,0:0|0:0,0:0:0:0:
327,111,73131,2,0,P|339:65|373:31,1,95.9999961853028,0|0,1:0|0:0,0:0:0:0:
494,22,73476,1,2,0:0:0:0:
400,146,73648,1,2,0:0:0:0:
274,34,73821,1,8,1:2:0:0:
396,155,73993,6,0,P|373:152|350:159,1,47.9999980926514,8|0,1:0|0:0,0:0:0:0:
262,174,74165,2,0,P|247:192|241:216,1,47.9999980926514,8|0,1:0|0:0,0:0:0:0:
210,299,74338,2,0,P|219:321|236:337,1,47.9999980926514,8|0,1:0|0:0,0:0:0:0:
347,353,74510,5,4,1:0:0:0:
487,249,74683,2,0,B|445:256|445:256|438:263|438:263|394:271,1,95.9999961853028,2|2,0:0|0:0,0:0:0:0:
333,193,75027,2,0,B|291:200|291:200|284:207|284:207|240:215,1,95.9999961853028,2|8,0:0|1:2,0:0:0:0:
241,214,75372,1,2,0:0:0:0:
445,91,75545,2,0,B|403:84|403:84|396:77|396:77|352:69,1,95.9999961853028,2|2,0:0|0:0,0:0:0:0:
512,1,75890,5,0,1:0:0:0:
344,76,76062,2,0,L|320:168,1,95.9999961853028,2|2,0:0|0:0,0:0:0:0:
285,304,76407,1,0,3:0:0:0:
417,178,76579,1,8,1:2:0:0:
215,176,76752,1,0,3:0:0:0:
211,190,76838,1,0,3:0:0:0:
207,204,76924,2,0,L|195:251,1,47.9999980926514,12|0,1:2|0:0,0:0:0:0:
379,298,77096,2,0,L|367:345,1,47.9999980926514,0|0,3:0|0:0,0:0:0:0:
96,310,77269,6,2,B|43:340|14:381|14:381|116:314|255:336,1,359.999985694885,14|0,1:0|0:0,0:1:0:0:
447,219,77959,5,8,1:2:0:0:
367,344,78131,1,2,0:0:0:0:
298,212,78303,1,2,0:0:0:0:
497,89,78476,6,0,P|470:128|426:143,1,95.9999961853028,2|0,0:0|1:0,0:0:0:0:
290,219,78821,2,0,P|286:171|256:135,1,95.9999961853028,2|0,0:0|0:0,0:0:0:0:
152,48,79165,1,2,0:0:0:0:
204,207,79338,6,0,P|183:219|159:223,1,47.9999980926514,8|0,1:2|0:0,0:0:0:0:
18,302,79510,2,0,P|41:309|60:323,1,47.9999980926514,8|0,1:0|0:0,0:0:0:0:
205,319,79683,6,0,P|184:306|160:302,1,47.9999980926514,8|0,1:0|0:0,0:0:0:0:
19,223,79855,2,0,P|42:216|61:202,1,47.9999980926514,8|0,1:0|0:0,0:0:0:0:
256,135,80027,6,0,B|172:118|172:118|162:123|162:123|20:97,1,239.999990463257,4|0,1:0|0:0,0:0:0:0:
98,24,80545,5,2,0:0:0:0:
217,209,80717,1,8,1:2:0:0:
200,32,80890,1,2,0:0:0:0:
115,201,81062,1,2,0:0:0:0:
369,10,81234,6,0,P|334:42|325:88,1,95.9999961853028,2|0,0:0|1:0,0:0:0:0:
409,205,81579,2,0,P|399:251|365:283,1,95.9999961853028,2|0,0:0|0:0,0:0:0:0:
270,329,81924,1,2,0:0:0:0:
310,160,82096,2,0,L|328:210,1,47.9999980926514,8|0,1:2|0:0,0:0:0:0:
449,343,82269,2,0,L|467:293,1,47.9999980926514,4|0,1:0|0:0,0:0:0:0:
423,125,82441,6,0,P|479:90|474:156,1,161.999988618851,2|0,0:0|0:0,0:0:0:0:
409,205,82786,6,2,B|335:273|259:211|260:194|261:178|159:114|85:194,1,359.999985694885,14|0,1:0|0:0,0:1:0:0:
20,333,83476,1,8,1:2:0:0:
170,288,83648,1,2,0:0:0:0:
35,121,83821,6,0,P|45:167|85:192,1,95.9999961853028,2|0,0:0|0:0,0:0:0:0:
176,299,84165,2,0,P|219:281|237:238,1,95.9999961853028,0|0,1:0|0:0,0:0:0:0:
337,150,84510,1,2,0:0:0:0:
212,84,84683,1,2,0:0:0:0:
325,0,84855,1,8,1:2:0:0:
209,96,85027,6,0,L|163:81,1,47.9999980926514,8|0,1:0|0:0,0:0:0:0:
87,99,85200,2,0,L|51:131,1,47.9999980926514,8|0,1:0|0:0,0:0:0:0:
28,206,85372,2,0,L|38:252,1,47.9999980926514,8|0,1:0|0:0,0:0:0:0:
101,301,85545,5,0,1:0:0:0:
219,349,85717,2,0,B|263:324|263:324|271:280,1,95.9999961853028,2|2,0:0|0:0,0:0:0:0:
381,127,86062,1,0,0:0:0:0:
263,175,86234,2,0,B|218:150|218:150|210:106,1,95.9999961853028,8|2,1:2|0:0,0:0:0:0:
255,0,86579,1,2,0:0:0:0:
255,0,86752,1,2,0:0:0:0:
113,63,86924,1,0,1:0:0:0:
113,63,87269,5,2,3:2:0:0:
156,194,87441,1,0,3:0:0:0:
21,165,87614,1,8,1:2:0:0:
73,302,87786,1,0,3:0:0:0:
86,298,87872,1,0,3:0:0:0:
100,294,87959,2,0,L|146:283,1,47.9999980926514,12|0,1:2|0:0,0:0:0:0:
244,378,88131,2,0,L|290:367,1,47.9999980926514,0|0,3:0|0:0,0:0:0:0:
347,214,88303,6,2,B|359:137|454:126|454:126|481:216|420:260,1,299.999988079071,14|0,1:0|0:0,0:1:0:0:
348,291,88821,1,2,0:0:0:0:
348,291,89165,5,8,0:1:0:0:
245,260,89338,1,8,0:1:0:0:
142,229,89510,1,8,0:1:0:0:
250,271,89683,2,0,P|263:317|271:365,1,95.9999961853028,0|0,1:0|0:0,0:0:0:0:
69,178,90027,1,8,0:1:0:0:
172,147,90199,1,8,0:1:0:0:
63,189,90372,2,0,P|49:235|42:282,1,95.9999961853028,8|2,1:2|0:1,0:0:0:0:
129,303,90717,2,0,P|142:256|149:209,1,95.9999961853028,2|2,0:1|0:1,0:0:0:0:
112,29,91062,5,8,1:0:0:0:
180,69,91234,1,2,0:0:0:0:
264,139,91407,5,2,0:0:0:0:
332,99,91579,1,8,1:0:0:0:
438,121,91752,5,8,1:2:0:0:
478,189,91924,1,2,0:0:0:0:
403,272,92096,5,8,1:0:0:0:
363,204,92268,1,2,0:0:0:0:
477,337,92441,5,8,1:0:0:0:
463,340,92613,1,2,0:0:0:0:
459,326,92786,1,2,0:0:0:0:
473,323,92958,1,8,1:0:0:0:
466,330,93131,5,8,1:2:0:0:
362,377,93303,1,2,0:0:0:0:
268,309,93476,2,0,L|248:216,1,95.9999961853028,12|0,1:0|0:0,0:0:0:0:
231,379,93821,6,2,L|283:144,1,239.999990463257,14|0,1:0|0:0,0:1:0:0:
231,88,94338,1,2,0:0:0:0:
231,88,94683,5,8,0:1:0:0:
335,67,94855,1,8,0:1:0:0:
439,46,95027,1,8,0:1:0:0:
335,80,95200,2,0,L|240:63,1,95.9999961853028,0|0,1:0|0:0,0:0:0:0:
181,161,95545,1,8,0:1:0:0:
77,140,95717,1,8,0:1:0:0:
181,174,95890,2,0,L|275:157,1,95.9999961853028,8|2,1:2|0:0,0:0:0:0:
392,256,96234,6,0,P|389:331|316:350,1,161.999988618851,14|0,1:0|0:0,0:0:0:0:
305,350,96579,6,0,P|295:303|276:259,1,95.9999961853028,8|2,1:0|0:0,0:0:0:0:
186,335,96924,1,2,0:0:0:0:
277,169,97096,2,0,P|231:154|183:148,1,95.9999961853028,8|8,1:0|1:2,0:0:0:0:
7,228,97441,1,2,0:0:0:0:
87,115,97614,1,8,1:0:0:0:
144,240,97786,1,2,0:0:0:0:
60,329,97959,5,8,1:0:0:0:
68,341,98131,1,2,0:0:0:0:
81,333,98304,1,2,0:0:0:0:
73,321,98476,1,8,1:0:0:0:
73,330,98649,5,8,1:2:0:0:
141,230,98821,1,2,0:0:0:0:
261,238,98993,2,0,L|353:265,1,95.9999961853028,12|0,1:0|0:0,0:0:0:0:
428,235,99338,6,2,P|310:259|195:294,1,239.999990463257,14|0,1:0|0:0,0:1:0:0:
180,371,99855,1,2,0:0:0:0:
180,371,100200,5,8,0:1:0:0:
120,298,100372,1,8,0:1:0:0:
153,209,100545,1,8,0:1:0:0:
117,310,100717,2,0,P|70:317|28:297,1,95.9999961853028,0|0,1:0|0:0,0:0:0:0:
214,117,101062,1,8,0:1:0:0:
247,206,101235,1,8,0:1:0:0:
211,105,101407,2,0,P|164:97|122:117,1,95.9999961853028,8|2,1:2|1:1,0:0:0:0:
102,12,101752,2,0,P|148:19|190:0,1,95.9999961853028,2|2,1:1|1:1,0:0:0:0:
334,7,102096,5,8,1:0:0:0:
315,85,102269,1,2,0:0:0:0:
427,81,102441,5,2,0:0:0:0:
446,159,102614,1,8,1:0:0:0:
502,245,102786,5,8,1:2:0:0:
443,300,102959,1,2,0:0:0:0:
380,384,103131,5,8,1:0:0:0:
303,360,103304,1,2,0:0:0:0:
246,226,103476,5,8,1:0:0:0:
233,219,103648,1,2,0:0:0:0:
226,232,103821,1,2,0:0:0:0:
239,238,103993,1,8,1:0:0:0:
236,229,104165,5,8,1:2:0:0:
330,162,104338,1,2,0:0:0:0:
314,39,104510,2,0,P|268:36|228:62,1,95.9999961853028,12|0,1:0|0:0,0:0:0:0:
113,5,104855,6,2,B|127:84|127:84|121:96|121:96|146:239,1,239.999990463257,14|0,1:0|0:0,0:1:0:0:
162,315,105372,1,2,0:0:0:0:
162,315,105717,5,8,0:1:0:0:
53,278,105890,1,8,0:1:0:0:
30,165,106062,1,8,0:1:0:0:
63,286,106234,2,0,L|39:379,1,95.9999961853028,0|0,1:0|0:0,0:0:0:0:
228,239,106579,1,8,0:1:0:0:
251,126,106751,1,8,0:1:0:0:
218,247,106924,2,0,L|241:340,1,95.9999961853028,8|2,1:2|0:0,0:0:0:0:
319,318,107269,2,0,L|295:224,1,95.9999961853028,12|2,1:2|0:0,0:0:0:0:
450,192,107614,5,4,0:0:0:0:
256,192,107786,12,4,110372,0:0:0:0:
