osu file format v14

[General]
AudioFilename: audio.ogg
AudioLeadIn: 0
PreviewTime:62786
Countdown: 0
SampleSet: Soft
StackLeniency: 0.7
Mode: 0
LetterboxInBreaks: 0
WidescreenStoryboard: 1
EpilepsyWarning: 1

[Editor]
Bookmarks: 44165
DistanceSpacing: 1
BeatDivisor: 4
GridSize: 16
TimelineZoom: 2

[Metadata]
Title:Try This (Cut Ver.)
TitleUnicode:Try This (Cut Ver.)
Artist:Pegboard Nerds
ArtistUnicode:Pegboard Nerds
Creator:AJT
Version:Normal
Source:
Tags:electronic drumstep instrumental monstercat fa featured artist mappers' guild mpg zer0- fsjallink jojajim just shapes & and beats
BeatmapID:3830014
BeatmapSetID:1862574

[Difficulty]
HPDrainRate:3
CircleSize:3
OverallDifficulty:4.5
ApproachRate:5.5
SliderMultiplier:2.19999990463257
SliderTickRate:1

[Events]
//Background and Video events
0,0,"wp4599443.jpg",0,0
//Break Periods
2,44709,45799
2,47468,48558
2,50227,51316
2,63676,65109
//Storyboard Layer 0 (Background)
//Storyboard Layer 1 (Fail)
//Storyboard Layer 2 (Pass)
//Storyboard Layer 3 (Foreground)
Sprite,Foreground,Centre,"sb\c_2.png",0,0 F,0,2959,3159,0,1 M,0,2959,5372,120,240 S,0,2959,5372,0.3 F,0,5172,5372,1,0
//Storyboard Layer 4 (Overlay)
//Storyboard Sound Samples

[TimingPoints]
28,689.655172413793,4,2,1,50,1,0
2786,-100,4,2,1,50,0,0
3993,-100,4,2,1,50,0,0
5545,-100,4,2,1,60,0,0
6752,-100,4,2,1,60,0,0
11062,-100,4,2,1,80,0,0
16234,-100,4,2,1,80,0,0
21579,-100,4,2,1,80,0,0
22096,-100,4,2,1,90,0,0
27269,-100,4,2,1,90,0,0
28131,-100,4,2,1,90,0,0
38303,-100,4,2,1,90,0,0
38648,-100,4,2,1,90,0,0
43476,-100,4,2,1,90,0,0
44165,-100,4,2,1,80,0,0
44855,-100,4,2,1,80,0,0
46924,-100,4,2,1,80,0,0
47614,-100,4,2,1,80,0,0
49683,-100,4,2,1,80,0,0
50372,-100,4,2,1,80,0,0
52441,-100,4,2,1,80,0,0
53131,-100,4,2,1,80,0,0
53821,-100,4,2,1,80,0,0
55200,-100,4,2,1,85,0,0
57959,-100,4,2,1,90,0,0
62096,-100,4,2,1,95,0,0
66234,-90.9090909090909,4,2,1,100,0,1
67441,-90.9090909090909,4,2,1,100,0,1
71752,-90.9090909090909,4,2,1,100,0,1
76752,-90.9090909090909,4,2,1,100,0,1
77269,-90.9090909090909,4,2,1,100,0,1
77959,-90.9090909090909,4,2,1,100,0,1
82441,-90.9090909090909,4,2,1,100,0,1
82786,-90.9090909090909,4,2,1,100,0,1
88303,-90.9090909090909,4,2,1,100,0,1
89683,-90.9090909090909,4,2,1,100,0,1
93821,-90.9090909090909,4,2,1,100,0,1
94510,-90.9090909090909,4,2,1,100,0,1
99338,-90.9090909090909,4,2,1,100,0,1
107614,-100,4,2,1,80,0,0

[Colours]
Combo1 : 255,30,30
Combo2 : 0,64,128
Combo3 : 255,13,13
Combo4 : 0,128,192

[HitObjects]
224,384,2786,5,2,0:0:0:0:
224,384,2959,1,2,0:0:0:0:
303,308,3303,5,2,0:0:0:0:
303,308,3476,1,2,0:0:0:0:
263,210,3821,5,2,0:0:0:0:
263,210,3993,2,0,P|268:125|5:139,1,439.999980926514,2|0,0:0|0:0,0:0:0:0:
49,162,5545,6,0,P|35:195|25:224,1,54.9999976158142,2|2,0:0|0:0,0:0:0:0:
92,303,6062,2,0,P|106:336|118:363,1,54.9999976158142,2|2,0:0|0:0,0:0:0:0:
223,348,6579,2,0,P|256:361|283:372,1,54.9999976158142,2|2,0:0|0:0,0:0:0:0:
256,192,6924,12,6,11062,1:0:0:0:
360,297,11579,6,0,L|187:260,1,164.999992847443,8|8,0:0|0:0,0:0:0:0:
132,350,12441,1,4,1:1:0:0:
36,214,12959,6,0,L|64:106,1,109.999995231628,8|2,0:0|0:0,0:0:0:0:
74,53,13476,2,0,B|71:24|71:24|43:-1,2,54.9999976158142,2|2|6,0:0|0:0|1:0,0:0:0:0:
206,152,14338,6,0,L|379:115,1,164.999992847443,8|8,0:0|0:0,0:0:0:0:
423,23,15200,1,4,1:0:0:0:
459,184,15718,6,0,L|431:292,1,109.999995231628,8|0,0:0|0:0,0:0:0:0:
429,345,16235,1,2,1:2:0:0:
323,374,16579,1,6,1:0:0:0:
249,226,17096,6,0,L|288:61,1,164.999992847443,8|8,0:0|0:0,0:0:0:0:
187,16,17959,1,6,1:0:0:0:
96,154,18477,6,0,L|124:262,1,109.999995231628,8|8,0:0|0:0,0:0:0:0:
120,315,18993,2,0,L|70:338,1,54.9999976158142,8|8,0:0|0:0,0:0:0:0:
20,361,19338,1,12,0:2:0:0:
256,192,19510,12,0,21407,3:0:0:0:
355,308,22096,5,4,1:0:0:0:
372,88,22786,2,0,P|340:78|292:78,1,54.9999976158142,8|0,0:0|0:0,0:0:0:0:
271,102,23131,1,2,0:0:0:0:
271,102,23303,2,0,P|263:75|233:-2,2,109.999995231628,2|2|2,0:0|0:0|0:0,0:0:0:0:
243,149,24165,2,0,P|217:169|172:186,1,54.9999976158142,8|12,0:0|1:0,0:0:0:0:
177,230,24510,2,0,P|174:262|156:307,2,54.9999976158142,8|8|4,1:0|1:0|1:0,0:0:0:0:
291,349,25372,6,0,P|323:339|371:339,1,54.9999976158142,2|8,0:0|0:0,0:0:0:0:
392,363,25717,1,0,0:0:0:0:
440,337,25890,2,0,P|450:305|450:257,1,54.9999976158142,2|2,0:0|0:0,0:0:0:0:
498,183,26407,1,2,0:0:0:0:
454,81,26752,2,0,P|430:57|387:35,1,54.9999976158142,2|8,0:0|0:0,0:0:0:0:
367,146,27269,1,4,1:0:0:0:
265,103,27614,5,4,1:0:0:0:
255,322,28303,2,0,P|223:332|175:332,1,54.9999976158142,8|0,0:0|0:0,0:0:0:0:
153,361,28648,2,0,P|121:371|73:371,1,54.9999976158142,2|2,0:0|0:0,0:0:0:0:
18,298,29165,1,2,0:0:0:0:
113,243,29510,2,0,P|123:211|123:163,1,54.9999976158142,2|8,0:0|0:0,0:0:0:0:
92,145,29855,2,0,P|82:113|82:65,1,54.9999976158142,12|8,1:0|1:0,0:0:0:0:
110,46,30200,1,8,1:0:0:0:
154,13,30372,6,0,B|216:56|292:-15|372:54,1,219.999990463257,4|8,1:0|0:0,0:0:0:0:
494,226,31752,2,0,B|432:269|356:198|276:267,1,219.999990463257,0|8,1:0|0:0,0:0:0:0:
243,363,32786,1,6,0:0:0:0:
141,321,33131,1,4,1:0:0:0:
20,136,33821,6,0,P|29:103|56:64,1,54.9999976158142,8|0,0:0|0:0,0:0:0:0:
84,52,34166,1,2,0:0:0:0:
129,20,34338,2,0,P|183:26|237:37,1,109.999995231628,2|2,0:0|0:0,0:0:0:0:
277,139,35028,1,2,0:0:0:0:
301,187,35200,2,0,P|285:216|252:250,1,54.9999976158142,8|12,0:0|1:0,0:0:0:0:
230,277,35545,2,0,P|233:309|251:354,1,54.9999976158142,8|8,1:0|1:0,0:0:0:0:
273,374,35890,1,4,1:0:0:0:
411,284,36407,6,0,P|401:252|401:204,2,54.9999976158142,2|8|0,0:0|0:0|0:0,0:0:0:0:
465,295,36925,1,2,0:0:0:0:
511,265,37097,1,2,0:0:0:0:
474,161,37442,1,2,0:0:0:0:
433,58,37787,2,0,P|454:41|479:29,2,54.9999976158142,2|8|0,0:0|0:0|3:0,0:0:0:0:
383,32,38304,1,12,0:1:0:0:
339,133,38649,5,4,1:0:0:0:
149,21,39338,2,0,P|117:11|69:11,1,54.9999976158142,8|0,0:0|0:0,0:0:0:0:
42,24,39683,2,0,P|32:56|32:104,1,54.9999976158142,2|2,0:0|0:0,0:0:0:0:
58,183,40200,1,2,0:0:0:0:
56,293,40545,2,0,P|88:303|136:303,1,54.9999976158142,2|8,0:0|0:0,0:0:0:0:
154,272,40890,2,0,P|186:262|234:262,1,54.9999976158142,8|8,1:0|1:0,0:0:0:0:
232,308,41235,1,8,1:0:0:0:
264,352,41407,6,0,B|329:313|296:215|393:171,1,219.999990463257,4|8,1:0|0:0,0:0:0:0:
421,71,42441,1,2,0:1:0:0:
324,18,42786,2,0,B|267:23|267:23|227:71,1,109.999995231628,4|2,1:0|3:1,0:0:0:0:
171,155,43476,2,0,L|107:132,1,54.9999976158142,8|0,0:0|0:0,0:0:0:0:
64,134,43821,1,2,0:1:0:0:
0,231,44165,6,0,B|-12:287|-12:287|9:341,1,109.999995231628,6|2,0:0|0:0,0:0:0:0:
512,231,46924,6,0,B|524:287|524:287|503:341,1,109.999995231628,2|2,0:0|0:0,0:0:0:0:
0,231,49683,5,6,0:0:0:0:
7,340,50027,1,2,0:0:0:0:
512,231,52441,5,2,0:0:0:0:
505,340,52785,1,2,0:0:0:0:
256,192,52959,12,6,55200,0:0:0:0:
339,315,55718,5,2,0:0:0:0:
339,315,55890,2,0,P|362:279|371:207,1,109.999995231628,0|2,3:0|3:2,0:0:0:0:
353,104,56579,2,0,P|317:81|245:72,3,109.999995231628,0|0|2|2,3:0|3:0|3:2|3:2,0:0:0:0:
238,235,58131,5,2,0:0:0:0:
159,311,58476,1,2,0:0:0:0:
44,192,58993,2,0,B|22:112|22:112|124:67,1,164.999992847443,2|2,3:2|0:0,0:0:0:0:
149,94,59683,1,0,3:0:0:0:
210,184,60027,5,2,3:2:0:0:
131,260,60372,1,2,3:2:0:0:
170,362,60717,1,0,3:0:0:0:
256,192,60890,12,12,63476,3:1:0:0:
256,384,66234,6,2,L|296:144,1,241.999996894836,14|8,1:0|1:2,0:1:0:0:
354,131,67096,1,2,0:0:0:0:
365,71,67269,1,2,0:0:0:0:
326,24,67441,1,2,0:0:0:0:
226,92,67786,1,2,0:0:0:0:
113,68,68131,5,2,0:0:0:0:
113,68,68303,2,0,P|90:94|86:128,1,60.4999992237091,8|8,1:2|1:0,0:0:0:0:
119,171,68648,1,8,1:0:0:0:
106,227,68820,1,8,1:0:0:0:
53,252,68993,1,4,1:0:0:0:
213,347,69510,5,2,0:0:0:0:
213,347,69683,2,0,P|239:370|273:374,2,60.4999992237091,8|2|2,1:2|0:0|0:0,0:0:0:0:
171,302,70200,1,2,0:0:0:0:
261,221,70545,1,2,0:0:0:0:
370,166,70890,1,2,0:0:0:0:
370,166,71062,2,0,P|364:131|341:106,1,60.4999992237091,8|4,1:2|1:0,0:0:0:0:
289,101,71407,1,2,0:0:0:0:
212,7,71752,6,2,B|303:-2|323:99|429:97,1,241.999996894836,14|8,1:0|1:2,0:1:0:0:
489,105,72614,2,0,P|504:143|498:177,1,60.4999992237091,2|2,0:0|0:0,0:0:0:0:
455,273,73131,1,0,1:0:0:0:
379,367,73476,2,0,P|338:373|306:359,1,60.4999992237091,2|2,0:0|0:0,0:0:0:0:
267,338,73821,1,8,1:2:0:0:
248,287,73993,1,8,1:0:0:0:
260,227,74165,2,0,P|232:196|199:187,1,60.4999992237091,8|8,1:0|1:0,0:0:0:0:
161,216,74510,6,0,B|199:178|199:178|186:29,1,181.499997671127,4|2,1:0|0:0,0:0:0:0:
247,37,75200,2,0,B|209:-1|209:-1|60:12,1,181.499997671127,8|2,1:2|0:0,0:0:0:0:
85,70,75890,2,0,B|47:108|47:108|60:257,1,181.499997671127,0|0,1:0|3:0,0:0:0:0:
88,287,76580,2,0,B|133:328|133:328|194:294,1,120.999998447418,8|12,1:2|1:2,0:0:0:0:
283,370,77269,5,14,1:0:0:0:
471,217,77959,2,0,L|490:131,1,60.4999992237091,8|2,1:2|0:0,0:0:0:0:
468,99,78303,1,2,0:0:0:0:
409,83,78475,1,2,0:0:0:0:
307,149,78820,1,2,0:0:0:0:
403,231,79165,5,2,0:0:0:0:
403,231,79337,2,0,P|426:257|430:291,1,60.4999992237091,8|8,1:2|1:0,0:0:0:0:
418,341,79682,1,8,1:0:0:0:
367,370,79854,1,8,1:0:0:0:
314,350,80027,1,4,1:0:0:0:
140,316,80544,5,2,0:0:0:0:
140,316,80717,2,0,P|105:317|78:338,2,60.4999992237091,8|2|2,1:2|0:0|0:0,0:0:0:0:
194,343,81234,1,2,0:0:0:0:
244,232,81579,1,2,0:0:0:0:
192,128,81924,1,2,0:0:0:0:
192,128,82096,2,0,P|169:100|137:89,1,60.4999992237091,8|4,1:2|1:0,0:0:0:0:
86,94,82441,1,2,0:0:0:0:
173,10,82786,6,2,B|264:1|284:102|390:100,1,241.999996894836,14|8,1:0|1:2,0:1:0:0:
449,84,83648,1,2,0:0:0:0:
481,134,83820,1,2,0:0:0:0:
374,191,84165,1,0,1:0:0:0:
256,160,84510,2,0,P|215:154|183:168,1,60.4999992237091,2|2,0:0|0:0,0:0:0:0:
157,205,84855,1,8,1:2:0:0:
134,260,85027,1,8,1:0:0:0:
159,314,85199,2,0,P|187:345|220:354,1,60.4999992237091,8|8,1:0|1:0,0:0:0:0:
264,354,85544,6,0,B|325:377|357:304|451:329,2,181.499997671127,0|2|2,1:0|0:0|0:0,0:0:0:0:
148,316,86924,2,0,B|107:274|107:274|127:213,1,120.999998447418,0|2,1:0|3:2,0:0:0:0:
183,108,87613,2,0,B|192:78|192:78|228:67,1,60.4999992237091,8|0,1:2|3:0,0:0:0:0:
280,76,87959,1,12,1:2:0:0:
397,50,88303,6,2,P|449:148|402:189,1,181.499997671127,14|2,1:0|0:0,0:1:0:0:
468,292,89165,2,0,B|498:283|498:283|509:247,2,60.4999992237091,8|8|8,0:1|0:1|0:1,0:0:0:0:
423,334,89683,2,0,L|256:349,1,120.999998447418,0|8,1:0|0:1,0:0:0:0:
253,309,90200,1,8,0:1:0:0:
253,309,90372,2,0,L|238:142,1,120.999998447418,8|2,1:2|0:1,0:0:0:0:
187,80,91062,6,0,B|134:48|134:48|63:56,3,120.999998447418,8|2|8|8,1:0|0:0|1:2|1:0,0:0:0:0:
9,156,92441,2,0,B|6:217|6:217|48:276,3,120.999998447418,8|2|8|12,1:0|0:0|1:2|1:0,0:0:0:0:
82,380,93821,6,2,L|287:353,1,181.499997671127,14|0,1:0|0:0,0:1:0:0:
281,299,94510,2,0,L|301:222,1,60.4999992237091,8|8,1:2|0:1,0:0:0:0:
251,198,94855,2,0,L|231:121,1,60.4999992237091,8|8,0:1|0:1,0:0:0:0:
281,99,95200,6,0,L|101:122,1,181.499997671127,0|8,1:0|0:1,0:0:0:0:
55,83,95889,1,8,1:2:0:0:
86,31,96062,1,2,0:0:0:0:
86,31,96234,1,14,1:0:0:0:
205,10,96579,6,0,L|264:2,1,60.4999992237091,8|2,1:0|0:0,0:0:0:0:
306,46,96924,2,0,B|364:52|364:52|417:20,2,120.999998447418,2|8|8,0:0|1:2|1:0,0:0:0:0:
248,152,97959,2,0,L|256:211,1,60.4999992237091,8|2,1:0|0:0,0:0:0:0:
212,253,98304,2,0,B|205:311|205:311|237:364,2,120.999998447418,2|8|12,0:0|1:2|1:0,0:0:0:0:
92,234,99338,5,14,1:0:0:0:
323,303,100027,2,0,L|409:316,1,60.4999992237091,8|8,1:2|0:1,0:0:0:0:
439,290,100372,2,0,L|452:204,1,60.4999992237091,8|8,0:1|0:1,0:0:0:0:
455,169,100717,2,0,L|327:132,1,120.999998447418,0|8,1:0|0:1,0:0:0:0:
293,95,101234,1,8,0:1:0:0:
336,52,101407,2,0,L|452:18,2,120.999998447418,8|2|8,1:2|1:1|1:0,0:0:0:0:
216,32,102441,6,0,B|163:0|163:0|92:8,3,120.999998447418,2|8|8|8,0:0|1:2|1:0|1:0,0:0:0:0:
31,103,103820,2,0,B|28:164|28:164|70:223,2,120.999998447418,2|8|12,0:0|1:2|1:0,0:0:0:0:
148,134,104855,5,14,1:0:0:0:
122,313,105372,2,0,B|162:354|162:354|231:344,1,120.999998447418,2|8,0:0|0:1,0:0:0:0:
284,360,105890,1,8,0:1:0:0:
317,310,106062,1,8,0:1:0:0:
317,310,106234,2,0,B|358:270|358:270|348:201,1,120.999998447418,0|8,1:0|0:1,0:0:0:0:
294,194,106752,1,8,0:1:0:0:
294,194,106924,2,0,L|270:110,1,60.4999992237091,8|2,1:2|0:0,0:0:0:0:
315,88,107269,1,12,1:2:0:0:
235,12,107614,5,4,0:0:0:0:
256,192,107786,12,4,110372,0:0:0:0:
