osu file format v14

[General]
AudioFilename: audio.ogg
AudioLeadIn: 0
PreviewTime:62786
Countdown: 0
SampleSet: Soft
StackLeniency: 0.7
Mode: 0
LetterboxInBreaks: 0
WidescreenStoryboard: 1
EpilepsyWarning: 1

[Editor]
Bookmarks: 44165
DistanceSpacing: 0.9
BeatDivisor: 8
GridSize: 4
TimelineZoom: 1.2

[Metadata]
Title:Try This (Cut Ver.)
TitleUnicode:Try This (Cut Ver.)
Artist:Pegboard Nerds
ArtistUnicode:Pegboard Nerds
Creator:AJT
Version:Fsjallink's Insane
Source:
Tags:electronic drumstep instrumental monstercat fa featured artist mappers' guild mpg zer0- fsjallink jojajim just shapes & and beats
BeatmapID:3832651
BeatmapSetID:1862574

[Difficulty]
HPDrainRate:5
CircleSize:4
OverallDifficulty:8
ApproachRate:9
SliderMultiplier:2.89999990463257
SliderTickRate:1

[Events]
//Background and Video events
0,0,"wp4599443.jpg",0,0
//Break Periods
//Storyboard Layer 0 (Background)
//Storyboard Layer 1 (Fail)
//Storyboard Layer 2 (Pass)
//Storyboard Layer 3 (Foreground)
Sprite,Foreground,Centre,"sb\p.png",0,0 M,0,66234,,536,272 C,0,66234,,255,0,0 P,0,66234,,A F,2,66234,66634,1,0 S,4,66234,66984,0.7,0.2
Sprite,Foreground,Centre,"sb\p.png",0,0 M,0,66262,,528.4279,267.4568 C,0,66262,,255,0,0 P,0,66262,,A F,2,66262,66662,1,0 S,4,66262,67012,0.7,0.2
Sprite,Foreground,Centre,"sb\p.png",0,0 M,0,66290,,520.8558,262.9135 C,0,66290,,255,0,0 P,0,66290,,A F,2,66290,66690,1,0 S,4,66290,67040,0.7,0.2
Sprite,Foreground,Centre,"sb\p.png",0,0 M,0,66318,,513.2837,258.3702 C,0,66318,,255,0,0 P,0,66318,,A F,2,66318,66718,1,0 S,4,66318,67068,0.7,0.2
Sprite,Foreground,Centre,"sb\p.png",0,0 M,0,66346,,505.7116,253.827 C,0,66346,,255,0,0 P,0,66346,,A F,2,66346,66746,1,0 S,4,66346,67096,0.7,0.2
Sprite,Foreground,Centre,"sb\p.png",0,0 M,0,66374,,498.1396,249.2837 C,0,66374,,255,0,0 P,0,66374,,A F,2,66374,66774,1,0 S,4,66374,67124,0.7,0.2
Sprite,Foreground,Centre,"sb\p.png",0,0 M,0,66402,,489.953,249.8897 C,0,66402,,255,0,0 P,0,66402,,A F,2,66402,66802,1,0 S,4,66402,67152,0.7,0.2
Sprite,Foreground,Centre,"sb\p.png",0,0 M,0,66430,,481.5244,252.5236 C,0,66430,,255,0,0 P,0,66430,,A F,2,66430,66830,1,0 S,4,66430,67180,0.7,0.2
Sprite,Foreground,Centre,"sb\p.png",0,0 M,0,66458,,473.0959,255.1575 C,0,66458,,255,0,0 P,0,66458,,A F,2,66458,66858,1,0 S,4,66458,67208,0.7,0.2
Sprite,Foreground,Centre,"sb\p.png",0,0 M,0,66486,,464.6674,257.7914 C,0,66486,,255,0,0 P,0,66486,,A F,2,66486,66886,1,0 S,4,66486,67236,0.7,0.2
Sprite,Foreground,Centre,"sb\p.png",0,0 M,0,66514,,456.2389,260.4254 C,0,66514,,255,0,0 P,0,66514,,A F,2,66514,66914,1,0 S,4,66514,67264,0.7,0.2
Sprite,Foreground,Centre,"sb\p.png",0,0 M,0,66542,,447.8103,263.0593 C,0,66542,,255,0,0 P,0,66542,,A F,2,66542,66942,1,0 S,4,66542,67292,0.7,0.2
Sprite,Foreground,Centre,"sb\p.png",0,0 M,0,66570,,439.3818,265.6932 C,0,66570,,255,0,0 P,0,66570,,A F,2,66570,66970,1,0 S,4,66570,67320,0.7,0.2
Sprite,Foreground,Centre,"sb\p.png",0,0 M,0,66598,,430.9532,268.3271 C,0,66598,,255,0,0 P,0,66598,,A F,2,66598,66998,1,0 S,4,66598,67348,0.7,0.2
Sprite,Foreground,Centre,"sb\p.png",0,0 M,0,66626,,422.5247,270.961 C,0,66626,,255,0,0 P,0,66626,,A F,2,66626,67026,1,0 S,4,66626,67376,0.7,0.2
Sprite,Foreground,Centre,"sb\p.png",0,0 M,0,66654,,414.0962,273.5949 C,0,66654,,255,0,0 P,0,66654,,A F,2,66654,67054,1,0 S,4,66654,67404,0.7,0.2
Sprite,Foreground,Centre,"sb\p.png",0,0 M,0,66682,,405.6676,276.2289 C,0,66682,,255,0,0 P,0,66682,,A F,2,66682,67082,1,0 S,4,66682,67432,0.7,0.2
Sprite,Foreground,Centre,"sb\p.png",0,0 M,0,66710,,397.2391,278.8628 C,0,66710,,255,0,0 P,0,66710,,A F,2,66710,67110,1,0 S,4,66710,67460,0.7,0.2
Sprite,Foreground,Centre,"sb\p.png",0,0 M,0,66738,,388.8106,281.4967 C,0,66738,,255,0,0 P,0,66738,,A F,2,66738,67138,1,0 S,4,66738,67488,0.7,0.2
Sprite,Foreground,Centre,"sb\p.png",0,0 M,0,71752,,72,216 C,0,71752,,255,0,0 P,0,71752,,A F,2,71752,72152,1,0 S,4,71752,72502,0.7,0.2
Sprite,Foreground,Centre,"sb\p.png",0,0 M,0,71780,,80.31605,213.03 C,0,71780,,255,0,0 P,0,71780,,A F,2,71780,72180,1,0 S,4,71780,72530,0.7,0.2
Sprite,Foreground,Centre,"sb\p.png",0,0 M,0,71808,,88.6321,210.06 C,0,71808,,255,0,0 P,0,71808,,A F,2,71808,72208,1,0 S,4,71808,72558,0.7,0.2
Sprite,Foreground,Centre,"sb\p.png",0,0 M,0,71836,,96.94815,207.0899 C,0,71836,,255,0,0 P,0,71836,,A F,2,71836,72236,1,0 S,4,71836,72586,0.7,0.2
Sprite,Foreground,Centre,"sb\p.png",0,0 M,0,71864,,105.2642,204.1199 C,0,71864,,255,0,0 P,0,71864,,A F,2,71864,72264,1,0 S,4,71864,72614,0.7,0.2
Sprite,Foreground,Centre,"sb\p.png",0,0 M,0,71892,,113.5803,201.1499 C,0,71892,,255,0,0 P,0,71892,,A F,2,71892,72292,1,0 S,4,71892,72642,0.7,0.2
Sprite,Foreground,Centre,"sb\p.png",0,0 M,0,71920,,121.8963,198.1799 C,0,71920,,255,0,0 P,0,71920,,A F,2,71920,72320,1,0 S,4,71920,72670,0.7,0.2
Sprite,Foreground,Centre,"sb\p.png",0,0 M,0,71948,,128.4607,193.6964 C,0,71948,,255,0,0 P,0,71948,,A F,2,71948,72348,1,0 S,4,71948,72698,0.7,0.2
Sprite,Foreground,Centre,"sb\p.png",0,0 M,0,71976,,130.1925,185.0374 C,0,71976,,255,0,0 P,0,71976,,A F,2,71976,72376,1,0 S,4,71976,72726,0.7,0.2
Sprite,Foreground,Centre,"sb\p.png",0,0 M,0,72004,,131.9243,176.3784 C,0,72004,,255,0,0 P,0,72004,,A F,2,72004,72404,1,0 S,4,72004,72754,0.7,0.2
Sprite,Foreground,Centre,"sb\p.png",0,0 M,0,72032,,133.6561,167.7193 C,0,72032,,255,0,0 P,0,72032,,A F,2,72032,72432,1,0 S,4,72032,72782,0.7,0.2
Sprite,Foreground,Centre,"sb\p.png",0,0 M,0,72060,,135.3879,159.0603 C,0,72060,,255,0,0 P,0,72060,,A F,2,72060,72460,1,0 S,4,72060,72810,0.7,0.2
Sprite,Foreground,Centre,"sb\p.png",0,0 M,0,72088,,137.1197,150.4013 C,0,72088,,255,0,0 P,0,72088,,A F,2,72088,72488,1,0 S,4,72088,72838,0.7,0.2
Sprite,Foreground,Centre,"sb\p.png",0,0 M,0,72116,,138.8515,141.7423 C,0,72116,,255,0,0 P,0,72116,,A F,2,72116,72516,1,0 S,4,72116,72866,0.7,0.2
Sprite,Foreground,Centre,"sb\p.png",0,0 M,0,72144,,140.5833,133.0833 C,0,72144,,255,0,0 P,0,72144,,A F,2,72144,72544,1,0 S,4,72144,72894,0.7,0.2
Sprite,Foreground,Centre,"sb\p.png",0,0 M,0,72172,,142.3152,124.4243 C,0,72172,,255,0,0 P,0,72172,,A F,2,72172,72572,1,0 S,4,72172,72922,0.7,0.2
Sprite,Foreground,Centre,"sb\p.png",0,0 M,0,72200,,144.047,115.7652 C,0,72200,,255,0,0 P,0,72200,,A F,2,72200,72600,1,0 S,4,72200,72950,0.7,0.2
Sprite,Foreground,Centre,"sb\p.png",0,0 M,0,72228,,145.7788,107.1062 C,0,72228,,255,0,0 P,0,72228,,A F,2,72228,72628,1,0 S,4,72228,72978,0.7,0.2
Sprite,Foreground,Centre,"sb\p.png",0,0 M,0,72256,,147.5106,98.4472 C,0,72256,,255,0,0 P,0,72256,,A F,2,72256,72656,1,0 S,4,72256,73006,0.7,0.2
Sprite,Foreground,Centre,"sb\p.png",0,0 M,0,77269,,492,264 C,0,77269,,255,0,0 P,0,77269,,A F,2,77269,77669,1,0 S,4,77269,78019,0.7,0.2
Sprite,Foreground,Centre,"sb\p.png",0,0 M,0,77297,,483.2648,265.2941 C,0,77297,,255,0,0 P,0,77297,,A F,2,77297,77697,1,0 S,4,77297,78047,0.7,0.2
Sprite,Foreground,Centre,"sb\p.png",0,0 M,0,77325,,474.5297,266.5882 C,0,77325,,255,0,0 P,0,77325,,A F,2,77325,77725,1,0 S,4,77325,78075,0.7,0.2
Sprite,Foreground,Centre,"sb\p.png",0,0 M,0,77353,,465.7945,267.8823 C,0,77353,,255,0,0 P,0,77353,,A F,2,77353,77753,1,0 S,4,77353,78103,0.7,0.2
Sprite,Foreground,Centre,"sb\p.png",0,0 M,0,77381,,457.0594,269.1764 C,0,77381,,255,0,0 P,0,77381,,A F,2,77381,77781,1,0 S,4,77381,78131,0.7,0.2
Sprite,Foreground,Centre,"sb\p.png",0,0 M,0,77409,,448.3242,270.4705 C,0,77409,,255,0,0 P,0,77409,,A F,2,77409,77809,1,0 S,4,77409,78159,0.7,0.2
Sprite,Foreground,Centre,"sb\p.png",0,0 M,0,77437,,439.5891,271.7646 C,0,77437,,255,0,0 P,0,77437,,A F,2,77437,77837,1,0 S,4,77437,78187,0.7,0.2
Sprite,Foreground,Centre,"sb\p.png",0,0 M,0,77465,,430.8539,273.0587 C,0,77465,,255,0,0 P,0,77465,,A F,2,77465,77865,1,0 S,4,77465,78215,0.7,0.2
Sprite,Foreground,Centre,"sb\p.png",0,0 M,0,77493,,422.1187,274.3528 C,0,77493,,255,0,0 P,0,77493,,A F,2,77493,77893,1,0 S,4,77493,78243,0.7,0.2
Sprite,Foreground,Centre,"sb\p.png",0,0 M,0,77521,,413.3835,275.6469 C,0,77521,,255,0,0 P,0,77521,,A F,2,77521,77921,1,0 S,4,77521,78271,0.7,0.2
Sprite,Foreground,Centre,"sb\p.png",0,0 M,0,77549,,404.9395,273.8789 C,0,77549,,255,0,0 P,0,77549,,A F,2,77549,77949,1,0 S,4,77549,78299,0.7,0.2
Sprite,Foreground,Centre,"sb\p.png",0,0 M,0,77577,,396.6048,270.9617 C,0,77577,,255,0,0 P,0,77577,,A F,2,77577,77977,1,0 S,4,77577,78327,0.7,0.2
Sprite,Foreground,Centre,"sb\p.png",0,0 M,0,77605,,388.2701,268.0445 C,0,77605,,255,0,0 P,0,77605,,A F,2,77605,78005,1,0 S,4,77605,78355,0.7,0.2
Sprite,Foreground,Centre,"sb\p.png",0,0 M,0,77633,,379.9353,265.1273 C,0,77633,,255,0,0 P,0,77633,,A F,2,77633,78033,1,0 S,4,77633,78383,0.7,0.2
Sprite,Foreground,Centre,"sb\p.png",0,0 M,0,77661,,371.6006,262.2102 C,0,77661,,255,0,0 P,0,77661,,A F,2,77661,78061,1,0 S,4,77661,78411,0.7,0.2
Sprite,Foreground,Centre,"sb\p.png",0,0 M,0,77689,,363.2659,259.2931 C,0,77689,,255,0,0 P,0,77689,,A F,2,77689,78089,1,0 S,4,77689,78439,0.7,0.2
Sprite,Foreground,Centre,"sb\p.png",0,0 M,0,77717,,354.9311,256.3759 C,0,77717,,255,0,0 P,0,77717,,A F,2,77717,78117,1,0 S,4,77717,78467,0.7,0.2
Sprite,Foreground,Centre,"sb\p.png",0,0 M,0,77745,,346.5963,253.4587 C,0,77745,,255,0,0 P,0,77745,,A F,2,77745,78145,1,0 S,4,77745,78495,0.7,0.2
Sprite,Foreground,Centre,"sb\p.png",0,0 M,0,77773,,338.2616,250.5416 C,0,77773,,255,0,0 P,0,77773,,A F,2,77773,78173,1,0 S,4,77773,78523,0.7,0.2
Sprite,Foreground,Centre,"sb\p.png",0,0 M,0,82441,,292,260 C,0,82441,,0,147,255 P,0,82441,,A F,2,82441,82841,1,0 S,4,82441,83191,0.7,0.2
Sprite,Foreground,Centre,"sb\p.png",0,0 M,0,82469,,290.4011,242.4115 C,0,82469,,0,147,255 P,0,82469,,A F,2,82469,82869,1,0 S,4,82469,83219,0.7,0.2
Sprite,Foreground,Centre,"sb\p.png",0,0 M,0,82497,,288.8021,224.8231 C,0,82497,,0,147,255 P,0,82497,,A F,2,82497,82897,1,0 S,4,82497,83247,0.7,0.2
Sprite,Foreground,Centre,"sb\p.png",0,0 M,0,82525,,296.3966,218.6389 C,0,82525,,0,147,255 P,0,82525,,A F,2,82525,82925,1,0 S,4,82525,83275,0.7,0.2
Sprite,Foreground,Centre,"sb\p.png",0,0 M,0,82553,,313.2451,223.9342 C,0,82553,,0,147,255 P,0,82553,,A F,2,82553,82953,1,0 S,4,82553,83303,0.7,0.2
Sprite,Foreground,Centre,"sb\p.png",0,0 M,0,82581,,330.0936,229.2294 C,0,82581,,0,147,255 P,0,82581,,A F,2,82581,82981,1,0 S,4,82581,83331,0.7,0.2
Sprite,Foreground,Centre,"sb\p.png",0,0 M,0,82609,,346.9421,234.5247 C,0,82609,,0,147,255 P,0,82609,,A F,2,82609,83009,1,0 S,4,82609,83359,0.7,0.2
Sprite,Foreground,Centre,"sb\p.png",0,0 M,0,82637,,363.7906,239.8199 C,0,82637,,0,147,255 P,0,82637,,A F,2,82637,83037,1,0 S,4,82637,83387,0.7,0.2
Sprite,Foreground,Centre,"sb\p.png",0,0 M,0,82665,,380.639,245.1151 C,0,82665,,0,147,255 P,0,82665,,A F,2,82665,83065,1,0 S,4,82665,83415,0.7,0.2
Sprite,Foreground,Centre,"sb\p.png",0,0 M,0,82693,,397.4875,250.4104 C,0,82693,,0,147,255 P,0,82693,,A F,2,82693,83093,1,0 S,4,82693,83443,0.7,0.2
Sprite,Foreground,Centre,"sb\p.png",0,0 M,0,82786,,508,308 C,0,82786,,255,0,0 P,0,82786,,A F,2,82786,83186,1,0 S,4,82786,83536,0.7,0.2
Sprite,Foreground,Centre,"sb\p.png",0,0 M,0,82814,,516.3774,310.7924 C,0,82814,,255,0,0 P,0,82814,,A F,2,82814,83214,1,0 S,4,82814,83564,0.7,0.2
Sprite,Foreground,Centre,"sb\p.png",0,0 M,0,82842,,524.7547,313.5849 C,0,82842,,255,0,0 P,0,82842,,A F,2,82842,83242,1,0 S,4,82842,83592,0.7,0.2
Sprite,Foreground,Centre,"sb\p.png",0,0 M,0,82870,,533.1321,316.3773 C,0,82870,,255,0,0 P,0,82870,,A F,2,82870,83270,1,0 S,4,82870,83620,0.7,0.2
Sprite,Foreground,Centre,"sb\p.png",0,0 M,0,82898,,541.5094,319.1698 C,0,82898,,255,0,0 P,0,82898,,A F,2,82898,83298,1,0 S,4,82898,83648,0.7,0.2
Sprite,Foreground,Centre,"sb\p.png",0,0 M,0,82926,,541.8638,314.1741 C,0,82926,,255,0,0 P,0,82926,,A F,2,82926,83326,1,0 S,4,82926,83676,0.7,0.2
Sprite,Foreground,Centre,"sb\p.png",0,0 M,0,82954,,538.8239,305.8834 C,0,82954,,255,0,0 P,0,82954,,A F,2,82954,83354,1,0 S,4,82954,83704,0.7,0.2
Sprite,Foreground,Centre,"sb\p.png",0,0 M,0,82982,,535.784,297.5926 C,0,82982,,255,0,0 P,0,82982,,A F,2,82982,83382,1,0 S,4,82982,83732,0.7,0.2
Sprite,Foreground,Centre,"sb\p.png",0,0 M,0,83010,,532.744,289.3019 C,0,83010,,255,0,0 P,0,83010,,A F,2,83010,83410,1,0 S,4,83010,83760,0.7,0.2
Sprite,Foreground,Centre,"sb\p.png",0,0 M,0,83038,,529.7041,281.0111 C,0,83038,,255,0,0 P,0,83038,,A F,2,83038,83438,1,0 S,4,83038,83788,0.7,0.2
Sprite,Foreground,Centre,"sb\p.png",0,0 M,0,83066,,526.6641,272.7204 C,0,83066,,255,0,0 P,0,83066,,A F,2,83066,83466,1,0 S,4,83066,83816,0.7,0.2
Sprite,Foreground,Centre,"sb\p.png",0,0 M,0,83094,,523.6242,264.4296 C,0,83094,,255,0,0 P,0,83094,,A F,2,83094,83494,1,0 S,4,83094,83844,0.7,0.2
Sprite,Foreground,Centre,"sb\p.png",0,0 M,0,83122,,520.5842,256.1389 C,0,83122,,255,0,0 P,0,83122,,A F,2,83122,83522,1,0 S,4,83122,83872,0.7,0.2
Sprite,Foreground,Centre,"sb\p.png",0,0 M,0,83150,,517.5443,247.8481 C,0,83150,,255,0,0 P,0,83150,,A F,2,83150,83550,1,0 S,4,83150,83900,0.7,0.2
Sprite,Foreground,Centre,"sb\p.png",0,0 M,0,83178,,514.5044,239.5574 C,0,83178,,255,0,0 P,0,83178,,A F,2,83178,83578,1,0 S,4,83178,83928,0.7,0.2
Sprite,Foreground,Centre,"sb\p.png",0,0 M,0,83206,,511.4644,231.2666 C,0,83206,,255,0,0 P,0,83206,,A F,2,83206,83606,1,0 S,4,83206,83956,0.7,0.2
Sprite,Foreground,Centre,"sb\p.png",0,0 M,0,83234,,508.4245,222.9759 C,0,83234,,255,0,0 P,0,83234,,A F,2,83234,83634,1,0 S,4,83234,83984,0.7,0.2
Sprite,Foreground,Centre,"sb\p.png",0,0 M,0,83262,,505.3846,214.6852 C,0,83262,,255,0,0 P,0,83262,,A F,2,83262,83662,1,0 S,4,83262,84012,0.7,0.2
Sprite,Foreground,Centre,"sb\p.png",0,0 M,0,83290,,502.3446,206.3944 C,0,83290,,255,0,0 P,0,83290,,A F,2,83290,83690,1,0 S,4,83290,84040,0.7,0.2
Sprite,Foreground,Centre,"sb\p.png",0,0 M,0,88303,,240,236 C,0,88303,,255,0,0 P,0,88303,,A F,2,88303,88703,1,0 S,4,88303,89053,0.7,0.2
Sprite,Foreground,Centre,"sb\p.png",0,0 M,0,88331,,246.8344,230.4082 C,0,88331,,255,0,0 P,0,88331,,A F,2,88331,88731,1,0 S,4,88331,89081,0.7,0.2
Sprite,Foreground,Centre,"sb\p.png",0,0 M,0,88359,,253.6689,224.8164 C,0,88359,,255,0,0 P,0,88359,,A F,2,88359,88759,1,0 S,4,88359,89109,0.7,0.2
Sprite,Foreground,Centre,"sb\p.png",0,0 M,0,88387,,260.5033,219.2246 C,0,88387,,255,0,0 P,0,88387,,A F,2,88387,88787,1,0 S,4,88387,89137,0.7,0.2
Sprite,Foreground,Centre,"sb\p.png",0,0 M,0,88415,,267.3377,213.6328 C,0,88415,,255,0,0 P,0,88415,,A F,2,88415,88815,1,0 S,4,88415,89165,0.7,0.2
Sprite,Foreground,Centre,"sb\p.png",0,0 M,0,88443,,274.1721,208.041 C,0,88443,,255,0,0 P,0,88443,,A F,2,88443,88843,1,0 S,4,88443,89193,0.7,0.2
Sprite,Foreground,Centre,"sb\p.png",0,0 M,0,88471,,281.0066,202.4492 C,0,88471,,255,0,0 P,0,88471,,A F,2,88471,88871,1,0 S,4,88471,89221,0.7,0.2
Sprite,Foreground,Centre,"sb\p.png",0,0 M,0,88499,,288.947,199.6042 C,0,88499,,255,0,0 P,0,88499,,A F,2,88499,88899,1,0 S,4,88499,89249,0.7,0.2
Sprite,Foreground,Centre,"sb\p.png",0,0 M,0,88527,,297.7494,198.9001 C,0,88527,,255,0,0 P,0,88527,,A F,2,88527,88927,1,0 S,4,88527,89277,0.7,0.2
Sprite,Foreground,Centre,"sb\p.png",0,0 M,0,88555,,306.5518,198.1959 C,0,88555,,255,0,0 P,0,88555,,A F,2,88555,88955,1,0 S,4,88555,89305,0.7,0.2
Sprite,Foreground,Centre,"sb\p.png",0,0 M,0,88583,,315.3541,197.4917 C,0,88583,,255,0,0 P,0,88583,,A F,2,88583,88983,1,0 S,4,88583,89333,0.7,0.2
Sprite,Foreground,Centre,"sb\p.png",0,0 M,0,88611,,324.1565,196.7875 C,0,88611,,255,0,0 P,0,88611,,A F,2,88611,89011,1,0 S,4,88611,89361,0.7,0.2
Sprite,Foreground,Centre,"sb\p.png",0,0 M,0,88639,,332.9589,196.0833 C,0,88639,,255,0,0 P,0,88639,,A F,2,88639,89039,1,0 S,4,88639,89389,0.7,0.2
Sprite,Foreground,Centre,"sb\p.png",0,0 M,0,88667,,341.7613,195.3791 C,0,88667,,255,0,0 P,0,88667,,A F,2,88667,89067,1,0 S,4,88667,89417,0.7,0.2
Sprite,Foreground,Centre,"sb\p.png",0,0 M,0,88695,,350.5637,194.6749 C,0,88695,,255,0,0 P,0,88695,,A F,2,88695,89095,1,0 S,4,88695,89445,0.7,0.2
Sprite,Foreground,Centre,"sb\p.png",0,0 M,0,88723,,359.366,193.9707 C,0,88723,,255,0,0 P,0,88723,,A F,2,88723,89123,1,0 S,4,88723,89473,0.7,0.2
Sprite,Foreground,Centre,"sb\p.png",0,0 M,0,88751,,362.835,193.6932 C,0,88751,,255,0,0 P,0,88751,,A F,2,88751,89151,1,0 S,4,88751,89501,0.7,0.2
Sprite,Foreground,Centre,"sb\p.png",0,0 M,0,93476,,320,240 S,0,93476,,0 F,2,93476,93876,1,0
Sprite,Foreground,Centre,"sb\p.png",0,0 M,0,93821,,80,184 C,0,93821,,0,147,255 P,0,93821,,A F,2,93821,94221,1,0 S,4,93821,94571,0.7,0.2
Sprite,Foreground,Centre,"sb\p.png",0,0 M,0,93849,,87.0644,178.7017 C,0,93849,,0,147,255 P,0,93849,,A F,2,93849,94249,1,0 S,4,93849,94599,0.7,0.2
Sprite,Foreground,Centre,"sb\p.png",0,0 M,0,93877,,94.1288,173.4034 C,0,93877,,0,147,255 P,0,93877,,A F,2,93877,94277,1,0 S,4,93877,94627,0.7,0.2
Sprite,Foreground,Centre,"sb\p.png",0,0 M,0,93905,,101.1932,168.1051 C,0,93905,,0,147,255 P,0,93905,,A F,2,93905,94305,1,0 S,4,93905,94655,0.7,0.2
Sprite,Foreground,Centre,"sb\p.png",0,0 M,0,93933,,108.2576,162.8068 C,0,93933,,0,147,255 P,0,93933,,A F,2,93933,94333,1,0 S,4,93933,94683,0.7,0.2
Sprite,Foreground,Centre,"sb\p.png",0,0 M,0,93961,,116.0603,160.8701 C,0,93961,,0,147,255 P,0,93961,,A F,2,93961,94361,1,0 S,4,93961,94711,0.7,0.2
Sprite,Foreground,Centre,"sb\p.png",0,0 M,0,93989,,124.6948,162.7203 C,0,93989,,0,147,255 P,0,93989,,A F,2,93989,94389,1,0 S,4,93989,94739,0.7,0.2
Sprite,Foreground,Centre,"sb\p.png",0,0 M,0,94017,,133.3293,164.5706 C,0,94017,,0,147,255 P,0,94017,,A F,2,94017,94417,1,0 S,4,94017,94767,0.7,0.2
Sprite,Foreground,Centre,"sb\p.png",0,0 M,0,94045,,141.9638,166.4208 C,0,94045,,0,147,255 P,0,94045,,A F,2,94045,94445,1,0 S,4,94045,94795,0.7,0.2
Sprite,Foreground,Centre,"sb\p.png",0,0 M,0,94073,,150.5983,168.2711 C,0,94073,,0,147,255 P,0,94073,,A F,2,94073,94473,1,0 S,4,94073,94823,0.7,0.2
Sprite,Foreground,Centre,"sb\p.png",0,0 M,0,94101,,159.2327,170.1213 C,0,94101,,0,147,255 P,0,94101,,A F,2,94101,94501,1,0 S,4,94101,94851,0.7,0.2
Sprite,Foreground,Centre,"sb\p.png",0,0 M,0,94129,,167.8672,171.9715 C,0,94129,,0,147,255 P,0,94129,,A F,2,94129,94529,1,0 S,4,94129,94879,0.7,0.2
Sprite,Foreground,Centre,"sb\p.png",0,0 M,0,94157,,176.5017,173.8218 C,0,94157,,0,147,255 P,0,94157,,A F,2,94157,94557,1,0 S,4,94157,94907,0.7,0.2
Sprite,Foreground,Centre,"sb\p.png",0,0 M,0,94185,,185.1362,175.672 C,0,94185,,0,147,255 P,0,94185,,A F,2,94185,94585,1,0 S,4,94185,94935,0.7,0.2
Sprite,Foreground,Centre,"sb\p.png",0,0 M,0,94213,,193.7707,177.5223 C,0,94213,,0,147,255 P,0,94213,,A F,2,94213,94613,1,0 S,4,94213,94963,0.7,0.2
Sprite,Foreground,Centre,"sb\p.png",0,0 M,0,94241,,202.4052,179.3725 C,0,94241,,0,147,255 P,0,94241,,A F,2,94241,94641,1,0 S,4,94241,94991,0.7,0.2
Sprite,Foreground,Centre,"sb\p.png",0,0 M,0,94269,,205.8079,180.1017 C,0,94269,,0,147,255 P,0,94269,,A F,2,94269,94669,1,0 S,4,94269,95019,0.7,0.2
Sprite,Foreground,Centre,"sb\p.png",0,0 M,0,98993,,320,240 S,0,98993,,0 F,2,98993,99393,1,0
Sprite,Foreground,Centre,"sb\p.png",0,0 M,0,99338,,280,108 C,0,99338,,0,147,255 P,0,99338,,A F,2,99338,99738,1,0 S,4,99338,100088,0.7,0.2
Sprite,Foreground,Centre,"sb\p.png",0,0 M,0,99366,,271.2,107.2667 C,0,99366,,0,147,255 P,0,99366,,A F,2,99366,99766,1,0 S,4,99366,100116,0.7,0.2
Sprite,Foreground,Centre,"sb\p.png",0,0 M,0,99394,,262.4,106.5333 C,0,99394,,0,147,255 P,0,99394,,A F,2,99394,99794,1,0 S,4,99394,100144,0.7,0.2
Sprite,Foreground,Centre,"sb\p.png",0,0 M,0,99422,,253.6,105.8 C,0,99422,,0,147,255 P,0,99422,,A F,2,99422,99822,1,0 S,4,99422,100172,0.7,0.2
Sprite,Foreground,Centre,"sb\p.png",0,0 M,0,99450,,244.8,105.0667 C,0,99450,,0,147,255 P,0,99450,,A F,2,99450,99850,1,0 S,4,99450,100200,0.7,0.2
Sprite,Foreground,Centre,"sb\p.png",0,0 M,0,99478,,236,104.3333 C,0,99478,,0,147,255 P,0,99478,,A F,2,99478,99878,1,0 S,4,99478,100228,0.7,0.2
Sprite,Foreground,Centre,"sb\p.png",0,0 M,0,99506,,227.2769,104.9446 C,0,99506,,0,147,255 P,0,99506,,A F,2,99506,99906,1,0 S,4,99506,100256,0.7,0.2
Sprite,Foreground,Centre,"sb\p.png",0,0 M,0,99534,,218.6179,106.6764 C,0,99534,,0,147,255 P,0,99534,,A F,2,99534,99934,1,0 S,4,99534,100284,0.7,0.2
Sprite,Foreground,Centre,"sb\p.png",0,0 M,0,99562,,209.9589,108.4082 C,0,99562,,0,147,255 P,0,99562,,A F,2,99562,99962,1,0 S,4,99562,100312,0.7,0.2
Sprite,Foreground,Centre,"sb\p.png",0,0 M,0,99590,,201.2999,110.14 C,0,99590,,0,147,255 P,0,99590,,A F,2,99590,99990,1,0 S,4,99590,100340,0.7,0.2
Sprite,Foreground,Centre,"sb\p.png",0,0 M,0,99618,,192.6408,111.8718 C,0,99618,,0,147,255 P,0,99618,,A F,2,99618,100018,1,0 S,4,99618,100368,0.7,0.2
Sprite,Foreground,Centre,"sb\p.png",0,0 M,0,99646,,183.8862,110.9858 C,0,99646,,0,147,255 P,0,99646,,A F,2,99646,100046,1,0 S,4,99646,100396,0.7,0.2
Sprite,Foreground,Centre,"sb\p.png",0,0 M,0,99674,,175.1239,109.8905 C,0,99674,,0,147,255 P,0,99674,,A F,2,99674,100074,1,0 S,4,99674,100424,0.7,0.2
Sprite,Foreground,Centre,"sb\p.png",0,0 M,0,99702,,166.3616,108.7952 C,0,99702,,0,147,255 P,0,99702,,A F,2,99702,100102,1,0 S,4,99702,100452,0.7,0.2
Sprite,Foreground,Centre,"sb\p.png",0,0 M,0,99730,,157.5992,107.6999 C,0,99730,,0,147,255 P,0,99730,,A F,2,99730,100130,1,0 S,4,99730,100480,0.7,0.2
Sprite,Foreground,Centre,"sb\p.png",0,0 M,0,99758,,148.8369,106.6046 C,0,99758,,0,147,255 P,0,99758,,A F,2,99758,100158,1,0 S,4,99758,100508,0.7,0.2
Sprite,Foreground,Centre,"sb\p.png",0,0 M,0,99786,,145.3838,106.173 C,0,99786,,0,147,255 P,0,99786,,A F,2,99786,100186,1,0 S,4,99786,100536,0.7,0.2
Sprite,Foreground,Centre,"sb\p.png",0,0 M,0,104510,,320,240 S,0,104510,,0 F,2,104510,104910,1,0
Sprite,Foreground,Centre,"sb\p.png",0,0 M,0,104855,,208,100 C,0,104855,,255,0,0 P,0,104855,,A F,2,104855,105255,1,0 S,4,104855,105605,0.7,0.2
Sprite,Foreground,Centre,"sb\p.png",0,0 M,0,104883,,205.2076,108.3773 C,0,104883,,255,0,0 P,0,104883,,A F,2,104883,105283,1,0 S,4,104883,105633,0.7,0.2
Sprite,Foreground,Centre,"sb\p.png",0,0 M,0,104911,,202.4151,116.7547 C,0,104911,,255,0,0 P,0,104911,,A F,2,104911,105311,1,0 S,4,104911,105661,0.7,0.2
Sprite,Foreground,Centre,"sb\p.png",0,0 M,0,104939,,199.6227,125.132 C,0,104939,,255,0,0 P,0,104939,,A F,2,104939,105339,1,0 S,4,104939,105689,0.7,0.2
Sprite,Foreground,Centre,"sb\p.png",0,0 M,0,104967,,196.8302,133.5094 C,0,104967,,255,0,0 P,0,104967,,A F,2,104967,105367,1,0 S,4,104967,105717,0.7,0.2
Sprite,Foreground,Centre,"sb\p.png",0,0 M,0,104995,,194.0378,141.8867 C,0,104995,,255,0,0 P,0,104995,,A F,2,104995,105395,1,0 S,4,104995,105745,0.7,0.2
Sprite,Foreground,Centre,"sb\p.png",0,0 M,0,105023,,192.507,150.3321 C,0,105023,,255,0,0 P,0,105023,,A F,2,105023,105423,1,0 S,4,105023,105773,0.7,0.2
Sprite,Foreground,Centre,"sb\p.png",0,0 M,0,105051,,194.3828,158.961 C,0,105051,,255,0,0 P,0,105051,,A F,2,105051,105451,1,0 S,4,105051,105801,0.7,0.2
Sprite,Foreground,Centre,"sb\p.png",0,0 M,0,105079,,196.2587,167.59 C,0,105079,,255,0,0 P,0,105079,,A F,2,105079,105479,1,0 S,4,105079,105829,0.7,0.2
Sprite,Foreground,Centre,"sb\p.png",0,0 M,0,105107,,198.1346,176.2189 C,0,105107,,255,0,0 P,0,105107,,A F,2,105107,105507,1,0 S,4,105107,105857,0.7,0.2
Sprite,Foreground,Centre,"sb\p.png",0,0 M,0,105135,,200.0104,184.8479 C,0,105135,,255,0,0 P,0,105135,,A F,2,105135,105535,1,0 S,4,105135,105885,0.7,0.2
Sprite,Foreground,Centre,"sb\p.png",0,0 M,0,105163,,201.8863,193.4769 C,0,105163,,255,0,0 P,0,105163,,A F,2,105163,105563,1,0 S,4,105163,105913,0.7,0.2
Sprite,Foreground,Centre,"sb\p.png",0,0 M,0,105191,,203.7621,202.1058 C,0,105191,,255,0,0 P,0,105191,,A F,2,105191,105591,1,0 S,4,105191,105941,0.7,0.2
Sprite,Foreground,Centre,"sb\p.png",0,0 M,0,105219,,205.638,210.7348 C,0,105219,,255,0,0 P,0,105219,,A F,2,105219,105619,1,0 S,4,105219,105969,0.7,0.2
Sprite,Foreground,Centre,"sb\p.png",0,0 M,0,105247,,207.5139,219.3637 C,0,105247,,255,0,0 P,0,105247,,A F,2,105247,105647,1,0 S,4,105247,105997,0.7,0.2
Sprite,Foreground,Centre,"sb\p.png",0,0 M,0,105275,,209.3897,227.9927 C,0,105275,,255,0,0 P,0,105275,,A F,2,105275,105675,1,0 S,4,105275,106025,0.7,0.2
Sprite,Foreground,Centre,"sb\p.png",0,0 M,0,105303,,210.129,231.3932 C,0,105303,,255,0,0 P,0,105303,,A F,2,105303,105703,1,0 S,4,105303,106053,0.7,0.2
Sprite,Foreground,Centre,"sb\c_4.png",0,0 F,0,2959,3159,0,1 M,0,2959,5372,120,240 S,0,2959,5372,0.3 F,0,5172,5372,1,0
//Storyboard Layer 4 (Overlay)
//Storyboard Sound Samples

[TimingPoints]
28,689.655172413793,4,2,1,50,1,0
5372,-100,4,2,1,50,0,0
5545,-100,4,2,1,60,0,0
11062,-100,4,2,1,80,0,0
22096,-100,4,2,1,90,0,0
27269,-66.6666666666667,4,2,1,90,0,0
27959,-100,4,2,1,90,0,0
38303,-66.6666666666667,4,2,1,90,0,0
38648,-100,4,2,1,90,0,0
44165,-100,4,2,1,80,0,0
55200,-100,4,2,1,85,0,0
57959,-100,4,2,1,90,0,0
62096,-100,4,2,1,95,0,0
66234,-133.333333333333,4,2,1,100,0,1
66924,-100,4,2,1,100,0,1
71407,-66.6666666666667,4,2,1,100,0,1
71752,-133.333333333333,4,2,1,100,0,1
72441,-100,4,2,1,100,0,1
76924,-66.6666666666667,4,2,1,100,0,1
77269,-133.333333333333,4,2,1,100,0,1
77959,-100,4,2,1,100,0,1
82441,-66.6666666666667,4,2,1,100,0,1
82786,-133.333333333333,4,2,1,100,0,1
83476,-100,4,2,1,100,0,1
88303,-133.333333333333,4,2,1,100,0,1
88821,-100,4,2,1,100,0,1
93821,-133.333333333333,4,2,1,100,0,1
94338,-100,4,2,1,100,0,1
99338,-133.333333333333,4,2,1,100,0,1
99855,-100,4,2,1,100,0,1
104855,-133.333333333333,4,2,1,100,0,1
105372,-100,4,2,1,100,0,1
107614,-66.6666666666667,4,2,1,80,0,0

[Colours]
Combo1 : 255,30,30
Combo2 : 0,64,128
Combo3 : 255,13,13
Combo4 : 0,128,192

[HitObjects]
360,212,2786,6,0,L|484:196,1,72.4999976158143,2|2,0:0|0:0,0:0:0:0:
220,136,3303,2,0,L|340:152,1,72.4999976158143,2|2,0:0|0:0,0:0:0:0:
104,228,3821,2,0,L|224:212,1,72.4999976158143,2|2,0:0|0:0,0:0:0:0:
256,192,4036,12,0,5372,0:0:0:0:
396,64,5545,6,0,L|400:164,1,72.4999976158143,2|2,0:0|0:0,0:0:0:0:
116,320,6062,2,0,L|112:220,1,72.4999976158143,2|2,0:0|0:0,0:0:0:0:
256,104,6579,1,2,0:0:0:0:
256,192,6752,1,2,0:0:0:0:
256,192,6795,12,0,8303,0:0:0:0:
256,192,8346,12,6,11062,1:0:0:0:
108,244,11407,5,0,3:0:0:0:
108,244,11579,2,0,P|88:156|104:80,1,144.999995231629,8|0,0:0|0:0,0:0:0:0:
220,16,12096,2,0,P|240:104|224:180,1,144.999995231629,8|4,0:0|1:1,0:0:0:0:
420,308,12786,5,0,3:0:0:0:
344,268,12959,2,0,P|272:252|236:256,1,72.4999976158143,8|0,0:0|0:0,0:0:0:0:
204,344,13303,1,2,0:0:0:0:
344,268,13476,1,2,0:0:0:0:
248,160,13648,1,2,0:0:0:0:
340,176,13821,6,0,P|412:168|488:112,1,144.999995231629,6|0,1:0|0:0,0:0:0:0:
276,236,14338,2,0,P|246:302|253:394,1,144.999995231629,8|0,0:0|0:0,0:0:0:0:
248,160,14855,2,0,P|205:101|122:61,1,144.999995231629,8|4,0:0|1:0,0:0:0:0:
147,68,15545,5,0,3:0:0:0:
208,244,15717,2,0,P|278:235|310:223,1,72.4999976158143,8|0,0:0|0:0,0:0:0:0:
336,300,16062,1,0,0:0:0:0:
388,164,16234,1,2,1:2:0:0:
280,80,16407,1,0,0:0:0:0:
160,100,16579,6,0,P|68:120|8:148,1,144.999995231629,6|0,1:0|0:0,0:0:0:0:
16,336,17096,2,0,P|72:324|104:312,1,72.4999976158143,8|0,0:0|0:0,0:0:0:0:
168,288,17441,1,0,0:0:0:0:
180,136,17614,2,0,P|172:192|172:244,1,72.4999976158143,8|0,0:0|0:0,0:0:0:0:
240,332,17959,6,0,P|340:356|428:352,1,144.999995231629,6|0,1:0|0:0,0:0:0:0:
504,264,18476,2,0,P|440:236|420:212,1,72.4999976158143,8|0,0:0|0:0,0:0:0:0:
424,144,18821,1,8,0:0:0:0:
356,272,18993,1,8,0:0:0:0:
228,216,19165,1,8,0:0:0:0:
296,88,19338,1,12,0:2:0:0:
256,192,19381,12,0,21407,3:0:0:0:
296,60,21579,5,0,1:0:0:0:
296,60,21665,1,0,1:0:0:0:
296,60,21752,1,0,1:0:0:0:
312,228,21924,1,0,3:0:0:0:
240,148,22096,6,0,L|96:140,1,144.999995231629,4|0,1:0|0:0,0:0:0:0:
216,236,22614,2,0,L|124:252,2,72.4999976158143,0|8|0,0:0|0:0|0:0,0:0:0:0:
360,148,23131,1,2,0:0:0:0:
224,64,23303,2,0,L|148:52,1,72.4999976158143,2|0,0:0|1:0,0:0:0:0:
212,208,23648,2,0,P|220:260|244:328,1,108.749996423721,2|0,0:0|0:0,0:0:0:0:
244,328,23993,1,2,0:0:0:0:
344,272,24165,5,8,0:0:0:0:
412,372,24338,1,12,1:0:0:0:
444,208,24510,1,8,1:0:0:0:
284,164,24683,1,8,1:0:0:0:
244,328,24855,6,0,P|296:312|336:296,1,72.4999976158143,4|0,1:0|0:0,0:0:0:0:
444,208,25200,2,0,P|444:168|440:112,1,72.4999976158143
368,40,25545,1,8,0:0:0:0:
260,20,25717,1,0,0:0:0:0:
288,124,25890,1,2,0:0:0:0:
368,40,26062,2,0,P|428:32|464:36,1,72.4999976158143,2|0,0:0|1:0,0:0:0:0:
404,240,26407,2,0,B|372:148|440:112|440:112,1,144.999995231629,2|2,0:0|0:0,0:0:0:0:
292,248,26924,2,0,P|304:316|296:348,1,72.4999976158143,8|0,0:0|0:0,0:0:0:0:
88,360,27269,2,0,B|-24:260|76:132|76:132,1,217.500001144409,4|4,1:0|1:0,0:0:0:0:
312,108,27959,6,0,P|304:172|296:208,1,72.4999976158143
336,8,28303,1,8,0:0:0:0:
240,36,28476,2,0,P|196:44|152:52,1,72.4999976158143,0|2,0:0|0:0,0:0:0:0:
416,176,28821,2,0,P|404:112|400:88,1,72.4999976158143,2|0,0:0|1:0,0:0:0:0:
300,289,29165,2,0,P|304:233|312:133,1,144.999995231629,2|2,0:0|0:0,0:0:0:0:
311,144,29683,5,8,0:0:0:0:
213,316,29855,1,12,1:0:0:0:
117,300,30027,1,8,1:0:0:0:
21,284,30200,1,8,1:0:0:0:
117,300,30372,6,0,P|125:220|105:136,1,144.999995231629,4|0,1:0|0:0,0:0:0:0:
63,29,30890,1,2,0:0:0:0:
194,0,31062,1,8,0:0:0:0:
226,114,31234,1,0,0:0:0:0:
226,114,31407,2,0,B|310:90|310:90|366:106,1,144.999995231629,2|0,0:0|1:0,0:0:0:0:
246,262,31924,2,0,B|162:286|162:286|106:270,1,144.999995231629,2|2,0:0|0:0,0:0:0:0:
344,212,32441,2,0,L|440:224,1,72.4999976158143,8|0,0:0|0:0,0:0:0:0:
500,236,32786,1,6,0:0:0:0:
296,116,33131,6,0,P|204:136|144:132,1,144.999995231629,4|2,1:0|0:0,0:0:0:0:
152,28,33648,2,0,P|96:32|60:44,1,72.4999976158143,0|8,0:0|0:0,0:0:0:0:
200,232,33993,2,0,P|256:228|292:216,1,72.4999976158143,2|2,0:0|0:0,0:0:0:0:
392,116,34338,1,2,0:0:0:0:
408,232,34510,2,0,L|420:312,1,72.4999976158143,0|2,1:0|0:0,0:0:0:0:
308,176,34855,1,0,0:0:0:0:
216,120,35028,1,2,0:0:0:0:
200,232,35200,5,8,0:0:0:0:
308,176,35372,2,0,L|300:80,1,72.4999976158143,12|8,1:0|1:0,0:0:0:0:
320,336,35717,1,8,1:0:0:0:
184,220,35890,6,0,P|132:192|36:208,1,144.999995231629,4|2,1:0|0:0,0:0:0:0:
96,100,36407,1,0,0:0:0:0:
156,20,36579,1,8,0:0:0:0:
204,104,36752,1,0,0:0:0:0:
260,184,36924,1,2,0:0:0:0:
308,104,37096,6,0,P|328:56|336:28,1,72.4999976158143,2|0,0:0|1:0,0:0:0:0:
464,72,37441,1,2,0:0:0:0:
464,72,37786,1,2,0:0:0:0:
444,192,37959,1,8,0:0:0:0:
344,48,38131,1,0,3:0:0:0:
320,168,38303,2,0,L|296:352,1,163.125000858307,12|0,0:1|0:0,0:0:0:0:
380,368,38648,1,4,1:0:0:0:
380,368,38993,6,0,L|392:276,1,72.4999976158143
320,168,39338,1,8,0:0:0:0:
244,104,39510,1,0,0:0:0:0:
188,192,39683,1,2,0:0:0:0:
272,264,39855,1,2,0:0:0:0:
320,168,40028,1,0,1:0:0:0:
152,184,40200,2,0,P|148:232|156:320,1,108.749996423721,2|0,0:0|0:0,0:0:0:0:
156,312,40545,1,2,0:0:0:0:
96,64,40717,5,8,0:0:0:0:
236,84,40890,1,8,1:0:0:0:
152,184,41062,1,8,1:0:0:0:
20,172,41234,1,8,1:0:0:0:
224,248,41407,6,0,P|288:260|340:264,1,108.749996423721,4|0,1:0|0:0,0:0:0:0:
356,280,41752,2,0,P|352:332|352:372,1,72.4999976158143,2|0,0:1|0:0,0:0:0:0:
464,256,42096,2,0,P|480:188|448:132,1,108.749996423721,8|0,0:0|0:0,0:0:0:0:
432,136,42441,2,0,P|388:140|348:140,1,72.4999976158143,2|0,0:1|0:0,0:0:0:0:
232,80,42786,1,4,1:0:0:0:
176,212,42959,1,0,3:0:0:0:
332,296,43131,6,0,P|336:244|336:204,1,72.4999976158143,2|0,3:1|0:0,0:0:0:0:
232,80,43476,2,0,P|228:132|228:172,1,72.4999976158143,8|0,0:0|0:0,0:0:0:0:
80,344,43821,2,0,P|84:292|84:252,1,72.4999976158143,2|0,0:1|0:0,0:0:0:0:
40,56,44165,1,6,0:0:0:0:
40,56,44510,6,0,P|96:64|144:72,1,72.4999976158143,2|0,0:0|0:0,0:0:0:0:
240,72,44855,2,0,L|320:60,2,72.4999976158143,0|0|0,3:0|0:0|3:0,0:0:0:0:
160,136,45372,1,0,0:0:0:0:
236,204,45545,2,0,L|244:284,2,72.4999976158143,0|0|0,3:0|0:0|3:0,0:0:0:0:
368,232,46062,2,0,L|375:304,2,72.4999976158143,0|0|0,0:0|3:0|0:0,0:0:0:0:
480,204,46579,1,0,3:0:0:0:
460,324,46752,1,0,0:0:0:0:
296,332,46924,6,0,P|280:288|292:216,1,72.4999976158143,2|0,0:0|0:0,0:0:0:0:
364,84,47269,2,0,P|336:160|324:176,1,72.4999976158143,2|0,0:0|0:0,0:0:0:0:
208,220,47614,2,0,P|164:236|112:240,2,72.4999976158143,0|0|0,3:0|0:0|3:0,0:0:0:0:
264,116,48131,1,0,0:0:0:0:
336,168,48303,2,0,P|380:184|432:188,2,72.4999976158143,0|2|0,3:0|0:3|3:0,0:0:0:0:
264,116,48821,1,0,0:0:0:0:
176,136,48993,1,2,3:0:0:0:
236,216,49165,1,0,0:0:0:0:
144,236,49338,1,0,3:0:0:0:
52,252,49510,1,0,0:0:0:0:
8,164,49683,6,0,P|8:116|20:72,1,72.4999976158143,6|0,0:0|0:0,0:0:0:0:
152,252,50028,2,0,P|152:300|140:344,1,72.4999976158143,2|0,0:0|0:0,0:0:0:0:
92,152,50372,2,0,P|168:140|264:172,1,144.999995231629,0|0,3:0|3:0,0:0:0:0:
220,64,50890,1,0,0:0:0:0:
160,0,51062,2,0,L|60:16,1,72.4999976158143,0|2,3:0|0:3,0:0:0:0:
232,64,51407,2,0,L|332:48,1,72.4999976158143,0|0,3:0|0:0,0:0:0:0:
396,92,51752,1,2,3:0:0:0:
484,136,51924,1,0,0:0:0:0:
472,28,52096,1,0,3:0:0:0:
396,92,52269,1,0,0:0:0:0:
336,160,52441,6,0,P|344:240|348:272,1,72.4999976158143,2|0,0:0|0:0,0:0:0:0:
240,360,52786,2,0,P|232:280|228:248,1,72.4999976158143,2|0,0:0|0:0,0:0:0:0:
128,184,53131,2,0,P|112:260|180:340,1,144.999995231629
320,304,53648,1,0,0:0:0:0:
260,192,53821,6,0,L|276:76,1,72.4999976158143,2|0,0:0|0:0,0:0:0:0:
384,20,54165,2,0,L|393:91,1,72.4999976158143,2|0,0:0|0:0,0:0:0:0:
416,288,54510,1,2,0:0:0:0:
256,44,54855,1,0,0:0:0:0:
96,288,55200,5,6,0:0:0:0:
96,288,55372,2,0,P|80:204|88:120,1,144.999995231629,2|2,0:0|0:0,0:0:0:0:
168,40,55890,1,0,3:0:0:0:
168,40,56234,6,0,P|76:48|24:52,1,144.999995231629,2|0,3:2|3:0,0:0:0:0:
168,132,56752,2,0,P|260:124|312:120,1,144.999995231629,2|0,0:2|0:0,0:0:0:0:
312,284,57269,2,0,L|216:276,1,72.4999976158143,2|0,3:2|0:0,0:0:0:0:
460,180,57614,2,0,L|364:172,1,72.4999976158143,2|0,3:2|0:0,0:0:0:0:
184,148,57959,5,0,3:0:0:0:
296,200,58131,2,0,P|312:280|288:356,1,144.999995231629,2|2,0:0|0:0,0:0:0:0:
220,276,58648,2,0,L|128:268,1,72.4999976158143,0|0,3:2|0:0,0:0:0:0:
56,116,58993,6,0,L|216:180,1,144.999995231629,2|0,3:2|3:0,0:0:0:0:
228,56,59510,2,0,L|365:159,1,144.999995231629,2|0,0:0|0:0,0:0:0:0:
469,209,60027,2,0,L|377:233,1,72.4999976158143,2|0,3:2|0:0,0:0:0:0:
141,268,60372,2,0,L|233:292,1,72.4999976158143,2|0,3:2|0:0,0:0:0:0:
308,240,60717,6,0,L|301:205,3,36.2499988079071,0|0|0|0,3:0|3:0|3:0|3:0,0:0:0:0:
295,187,61062,1,0,3:0:0:0:
290,169,61148,1,0,3:0:0:0:
287,151,61234,1,0,3:0:0:0:
285,132,61321,1,0,3:0:0:0:
285,113,61407,1,0,3:0:0:0:
286,94,61493,1,0,3:0:0:0:
289,76,61579,1,0,3:0:0:0:
292,58,61665,1,0,3:0:0:0:
298,40,61752,2,0,L|346:45,3,36.2499988079071,0|0|0|0,3:0|3:0|3:0|3:0,0:0:0:0:
372,55,62096,5,0,3:0:0:0:
395,77,62183,1,0,3:0:0:0:
410,105,62269,1,0,3:0:0:0:
412,137,62355,1,0,3:0:0:0:
400,167,62441,1,0,3:0:0:0:
380,192,62527,1,0,3:0:0:0:
349,204,62614,1,0,3:0:0:0:
316,205,62700,1,0,3:0:0:0:
286,191,62786,1,2,3:0:0:0:
255,178,62872,1,2,3:0:0:0:
222,170,62959,1,2,3:0:0:0:
189,167,63045,1,2,3:0:0:0:
156,172,63131,1,2,3:0:0:0:
126,185,63217,1,2,3:0:0:0:
104,209,63303,1,2,3:0:0:0:
89,238,63390,1,2,3:0:0:0:
87,270,63476,1,12,3:1:0:0:
256,192,63519,12,0,65890,0:0:0:0:
472,216,66234,6,2,B|432:192|432:192|304:232,1,163.125000858307,14|0,1:0|0:0,0:1:0:0:
256,124,66924,2,0,L|344:96,1,72.4999976158143,8|2,1:2|0:0,0:0:0:0:
452,68,67269,1,2,0:0:0:0:
188,12,67441,2,0,L|280:40,1,72.4999976158143,2|0,0:0|1:0,0:0:0:0:
240,224,67786,2,0,P|248:296|236:356,1,108.749996423721,2|0,0:0|0:0,0:0:0:0:
236,356,68131,1,2,0:0:0:0:
80,316,68303,5,8,1:2:0:0:
156,212,68476,1,8,1:0:0:0:
256,368,68648,1,8,1:0:0:0:
328,200,68821,1,8,1:0:0:0:
412,316,68993,5,4,1:0:0:0:
412,316,69165,2,0,B|444:272|444:272|436:164,1,144.999995231629,2|2,0:0|0:0,0:0:0:0:
312,68,69683,1,8,1:2:0:0:
328,240,69855,1,2,0:0:0:0:
208,172,70027,1,2,0:0:0:0:
112,196,70200,2,0,P|56:216|24:228,1,72.4999976158143,2|0,0:0|1:0,0:0:0:0:
280,364,70545,2,0,P|296:284|276:192,1,144.999995231629,2|2,0:0|0:0,0:0:0:0:
120,88,71062,5,8,1:2:0:0:
276,124,71234,1,4,1:0:0:0:
160,244,71407,2,0,B|104:228|104:228|4:264,1,163.125000858307,2|0,0:0|0:0,0:0:0:0:
8,160,71752,6,2,B|64:140|64:140|88:20,1,163.125000858307,14|0,1:0|0:0,0:1:0:0:
168,76,72441,2,0,L|152:182,1,72.4999976158143,8|2,1:2|0:0,0:0:0:0:
132,344,72786,1,2,0:0:0:0:
324,272,73131,1,0,1:0:0:0:
184,188,73476,5,2,0:0:0:0:
316,192,73648,1,2,0:0:0:0:
300,320,73821,1,8,1:2:0:0:
176,320,73993,1,8,1:0:0:0:
188,176,74165,1,8,1:0:0:0:
328,176,74338,1,8,1:0:0:0:
468,180,74510,5,4,1:0:0:0:
468,180,74683,2,0,P|480:260|460:328,1,144.999995231629,2|2,0:0|0:0,0:0:0:0:
364,292,75200,5,8,1:2:0:0:
264,264,75372,1,2,0:0:0:0:
384,204,75545,5,2,0:0:0:0:
468,180,75717,1,2,0:0:0:0:
320,96,75890,5,0,1:0:0:0:
228,76,76062,2,0,P|220:148|236:228,1,144.999995231629,2|0,0:0|3:0,0:0:0:0:
172,352,76579,2,0,L|88:364,1,72.4999976158143,8|0,1:2|3:0,0:0:0:0:
80,340,76838,1,0,3:0:0:0:
64,316,76924,2,0,L|228:292,1,163.125000858307,12|0,1:2|0:0,0:0:0:0:
428,208,77269,6,2,B|347:220|347:220|267:192,1,163.125000858307,14|0,1:0|0:0,0:1:0:0:
160,104,77959,1,8,1:2:0:0:
120,244,78131,1,2,0:0:0:0:
270,193,78303,1,2,0:0:0:0:
64,144,78476,2,0,P|64:76|80:44,1,72.4999976158143,2|0,0:0|1:0,0:0:0:0:
212,24,78821,2,0,L|380:36,1,144.999995231629,2|2,0:0|0:0,0:0:0:0:
452,176,79338,5,8,1:2:0:0:
328,140,79510,1,8,1:0:0:0:
340,264,79683,1,8,1:0:0:0:
456,296,79855,1,8,1:0:0:0:
240,320,80027,5,4,1:0:0:0:
240,320,80200,2,0,B|216:292|216:292|224:152,1,144.999995231629,2|2,0:0|0:0,0:0:0:0:
148,52,80717,2,0,L|144:140,1,72.4999976158143,8|2,1:2|0:0,0:0:0:0:
72,256,81062,1,2,0:0:0:0:
8,144,81234,2,0,P|16:80|36:48,1,72.4999976158143,2|0,0:0|1:0,0:0:0:0:
72,256,81579,2,0,P|80:328|96:352,1,72.4999976158143,2|0,0:0|0:0,0:0:0:0:
152,364,81924,1,2,0:0:0:0:
124,176,82096,5,8,1:2:0:0:
236,304,82269,1,4,1:0:0:0:
228,204,82441,2,0,B|224:160|224:160|364:204,1,163.125000858307,2|0,0:0|0:0,0:0:0:0:
444,252,82786,6,2,B|480:264|480:264|436:144,1,163.125000858307,14|0,1:0|0:0,0:1:0:0:
320,28,83476,2,0,L|312:112,1,72.4999976158143,8|2,1:2|0:0,0:0:0:0:
204,84,83821,1,2,0:0:0:0:
337,195,84165,1,0,1:0:0:0:
172,256,84510,5,2,0:0:0:0:
128,176,84683,1,2,0:0:0:0:
224,172,84855,1,8,1:2:0:0:
204,344,85027,1,8,1:0:0:0:
72,296,85200,1,8,1:0:0:0:
128,176,85372,1,8,1:0:0:0:
252,220,85545,5,0,1:0:0:0:
56,280,85717,2,0,P|36:208|44:112,1,144.999995231629,2|0,0:0|0:0,0:0:0:0:
48,112,86148,1,2,0:0:0:0:
64,88,86234,2,0,L|164:72,1,72.4999976158143,8|2,1:2|0:0,0:0:0:0:
272,224,86579,1,2,0:0:0:0:
164,212,86752,1,2,0:0:0:0:
272,224,86924,6,0,L|428:240,1,144.999995231629,0|2,1:0|3:2,0:0:0:0:
504,140,87441,1,0,3:0:0:0:
400,44,87614,2,0,L|308:56,1,72.4999976158143,8|0,1:2|3:0,0:0:0:0:
328,53,87872,1,0,3:0:0:0:
328,53,87959,1,12,1:2:0:0:
256,224,88131,1,0,3:0:0:0:
176,180,88303,6,2,B|220:144|220:144|320:136,1,135.937500715256,14|0,1:0|0:0,0:1:0:0:
440,200,88821,2,0,L|348:212,1,72.4999976158143,2|8,0:0|1:2,0:0:0:0:
256,224,89165,1,8,0:1:0:0:
164,136,89338,1,8,0:1:0:0:
84,224,89510,1,8,0:1:0:0:
164,336,89683,2,0,P|216:344|256:336,1,72.4999976158143,0|0,1:0|0:0,0:0:0:0:
164,136,90027,2,0,P|112:128|72:136,1,72.4999976158143,8|8,0:1|0:1,0:0:0:0:
37,349,90372,2,0,B|121:297|77:205|77:205,1,144.999995231629,8|2,1:2|0:1,0:0:0:0:
12,172,90890,1,2,0:1:0:0:
188,248,91062,6,0,P|256:252|340:232,1,144.999995231629,8|2,1:0|0:0,0:0:0:0:
330,235,91579,1,8,1:0:0:0:
384,60,91752,2,0,P|336:56|292:68,1,72.4999976158143,8|2,1:2|0:0,0:0:0:0:
332,240,92096,1,8,1:0:0:0:
320,144,92269,1,2,0:0:0:0:
216,192,92441,6,0,P|100:212|64:208,1,144.999995231629,8|2,1:0|0:0,0:0:0:0:
4,296,92959,1,8,1:0:0:0:
128,312,93131,1,8,1:2:0:0:
148,128,93303,1,2,0:0:0:0:
16,128,93476,1,12,1:0:0:0:
16,128,93821,6,2,B|48:104|48:104|160:128,1,135.937500715256,14|0,1:0|0:0,0:1:0:0:
248,112,94338,2,0,P|240:172|216:208,1,72.4999976158143,2|8,0:0|1:2,0:0:0:0:
248,24,94683,1,8,0:1:0:0:
368,40,94855,2,0,L|444:56,1,72.4999976158143,8|8,0:1|0:1,0:0:0:0:
376,204,95200,2,0,P|292:180|216:220,1,144.999995231629,0|8,1:0|0:1,0:0:0:0:
164,296,95717,1,8,0:1:0:0:
248,376,95890,2,0,P|312:372|332:360,1,72.4999976158143,8|2,1:2|0:0,0:0:0:0:
136,292,96234,1,14,1:0:0:0:
136,292,96579,6,0,L|124:128,1,144.999995231629,8|2,1:0|0:0,0:0:0:0:
32,280,97096,2,0,L|8:192,1,72.4999976158143,8|8,1:0|1:2,0:0:0:0:
240,264,97441,2,0,L|248:188,2,72.4999976158143,2|8|2,0:0|1:0|0:0,0:0:0:0:
372,312,97959,2,0,P|404:240|388:152,1,144.999995231629,8|2,1:0|0:0,0:0:0:0:
296,100,98476,1,8,1:0:0:0:
204,148,98648,1,8,1:2:0:0:
120,88,98821,1,2,0:0:0:0:
216,52,98993,1,12,1:0:0:0:
216,52,99338,6,2,B|168:48|168:48|128:56|128:56|64:48,1,135.937500715256,14|0,1:0|0:0,0:1:0:0:
64,148,99855,2,0,L|144:160,1,72.4999976158143,2|8,0:0|1:2,0:0:0:0:
324,200,100200,1,8,0:1:0:0:
224,176,100372,1,8,0:1:0:0:
248,272,100545,1,8,0:1:0:0:
324,200,100717,2,0,P|332:132|324:76,1,108.749996423721,0|0,1:0|0:0,0:0:0:0:
312,72,101062,1,8,0:1:0:0:
408,232,101234,1,8,0:1:0:0:
248,272,101407,2,0,P|188:284|144:292,1,72.4999976158143,8|2,1:2|1:1,0:0:0:0:
384,324,101752,2,0,P|444:312|488:304,1,72.4999976158143,2|2,1:1|1:1,0:0:0:0:
324,76,102096,6,0,P|316:148|328:228,1,144.999995231629,8|2,1:0|0:0,0:0:0:0:
265,342,102614,2,0,P|253:286|237:250,1,72.4999976158143,8|8,1:0|1:2,0:0:0:0:
148,160,102959,1,2,0:0:0:0:
296,124,103131,1,8,1:0:0:0:
248,272,103303,1,2,0:0:0:0:
88,288,103476,6,0,P|68:232|68:120,1,144.999995231629,8|2,1:0|0:0,0:0:0:0:
172,180,103993,1,8,1:0:0:0:
304,152,104165,1,8,1:2:0:0:
284,24,104338,1,2,0:0:0:0:
144,44,104510,1,12,1:0:0:0:
144,44,104855,6,2,B|128:92|128:92|148:184,1,135.937500715256,14|0,1:0|0:0,0:1:0:0:
124,268,105372,2,0,P|176:260|216:240,1,72.4999976158143,2|8,0:0|1:2,0:0:0:0:
232,152,105717,1,8,0:1:0:0:
40,200,105890,1,8,0:1:0:0:
88,356,106062,1,8,0:1:0:0:
40,200,106234,6,0,P|48:112|48:96,1,72.4999976158143,0|0,1:0|0:0,0:0:0:0:
136,0,106579,2,0,P|140:52|144:80,1,72.4999976158143,8|8,0:1|0:1,0:0:0:0:
344,232,106924,2,0,P|344:160|336:132,1,72.4999976158143,8|2,1:2|0:0,0:0:0:0:
120,216,107269,2,0,P|128:296|132:312,1,72.4999976158143,12|2,1:2|0:0,0:0:0:0:
256,192,107614,5,4,0:0:0:0:
256,192,107657,12,4,110372,0:0:0:0:
