osu file format v14

[General]
AudioFilename: audio.ogg
AudioLeadIn: 0
PreviewTime:62786
Countdown: 0
SampleSet: Soft
StackLeniency: 0.7
Mode: 0
LetterboxInBreaks: 0
WidescreenStoryboard: 1
EpilepsyWarning: 1

[Editor]
Bookmarks: 44165
DistanceSpacing: 1
BeatDivisor: 4
GridSize: 16
TimelineZoom: 2

[Metadata]
Title:Try This (Cut Ver.)
TitleUnicode:Try This (Cut Ver.)
Artist:Pegboard Nerds
ArtistUnicode:Pegboard Nerds
Creator:AJT
Version:Easy
Source:
Tags:electronic drumstep instrumental monstercat fa featured artist mappers' guild mpg zer0- fsjallink jojajim just shapes & and beats
BeatmapID:3830289
BeatmapSetID:1862574

[Difficulty]
HPDrainRate:2
CircleSize:2.5
OverallDifficulty:2.5
ApproachRate:4.5
SliderMultiplier:1.99999990463257
SliderTickRate:1

[Events]
//Background and Video events
0,0,"wp4599443.jpg",0,0
//Break Periods
2,44710,45664
2,47468,48423
2,50227,51181
2,63676,64974
//Storyboard Layer 0 (Background)
//Storyboard Layer 1 (Fail)
//Storyboard Layer 2 (Pass)
//Storyboard Layer 3 (Foreground)
Sprite,Foreground,Centre,"sb\c_2.png",0,0 F,0,2959,3159,0,1 M,0,2959,5372,120,240 S,0,2959,5372,0.3 F,0,5172,5372,1,0
//Storyboard Layer 4 (Overlay)
//Storyboard Sound Samples

[TimingPoints]
28,689.655172413793,4,2,1,50,1,0
2786,-100,4,2,1,50,0,0
3993,-100,4,2,1,50,0,0
5545,-100,4,2,1,60,0,0
6752,-100,4,2,1,60,0,0
11062,-100,4,2,1,80,0,0
16234,-100,4,2,1,80,0,0
21579,-100,4,2,1,80,0,0
22096,-100,4,2,1,90,0,0
27269,-100,4,2,1,90,0,0
28131,-100,4,2,1,90,0,0
38303,-100,4,2,1,90,0,0
38648,-100,4,2,1,90,0,0
43476,-100,4,2,1,90,0,0
44165,-100,4,2,1,80,0,0
44855,-100,4,2,1,80,0,0
46924,-100,4,2,1,80,0,0
47614,-100,4,2,1,80,0,0
49683,-100,4,2,1,80,0,0
50372,-100,4,2,1,80,0,0
52441,-100,4,2,1,80,0,0
53131,-100,4,2,1,80,0,0
53821,-100,4,2,1,80,0,0
55200,-100,4,2,1,85,0,0
57959,-100,4,2,1,90,0,0
62096,-100,4,2,1,95,0,0
66234,-90.9090909090909,4,2,1,100,0,1
67441,-90.9090909090909,4,2,1,100,0,1
71752,-90.9090909090909,4,2,1,100,0,1
76752,-90.9090909090909,4,2,1,100,0,1
77269,-90.9090909090909,4,2,1,100,0,1
77959,-90.9090909090909,4,2,1,100,0,1
82441,-90.9090909090909,4,2,1,100,0,1
82786,-90.9090909090909,4,2,1,100,0,1
88303,-90.9090909090909,4,2,1,100,0,1
89683,-90.9090909090909,4,2,1,100,0,1
93821,-90.9090909090909,4,2,1,100,0,1
94510,-90.9090909090909,4,2,1,100,0,1
99338,-90.9090909090909,4,2,1,100,0,1
107614,-100,4,2,1,80,0,0

[Colours]
Combo1 : 255,30,30
Combo2 : 0,64,128
Combo3 : 255,13,13
Combo4 : 0,128,192

[HitObjects]
224,384,2786,6,0,L|259:175,1,199.999990463257,2|2,0:0|0:0,0:0:0:0:
402,222,3993,2,0,P|407:137|113:96,1,449.999978542328,2|2,0:0|0:0,0:0:0:0:
257,186,6234,2,0,L|229:344,1,149.999992847443,2|2,0:0|0:0,0:0:0:0:
256,192,6924,12,6,11062,1:0:0:0:
342,369,12441,6,0,P|373:313|382:224,1,149.999992847443,4|8,1:1|0:0,0:0:0:0:
500,135,13476,1,2,0:0:0:0:
460,43,13821,1,6,1:0:0:0:
335,127,14338,6,0,L|180:146,1,149.999992847443,8|8,0:0|0:0,0:0:0:0:
98,97,15200,1,4,1:0:0:0:
51,239,15718,6,0,L|10:388,1,149.999992847443,8|2,0:0|1:2,0:0:0:0:
110,378,16579,1,6,1:0:0:0:
225,282,17096,6,0,L|379:320,1,149.999992847443,8|8,0:0|0:0,0:0:0:0:
467,342,17959,1,6,1:0:0:0:
443,193,18476,6,0,B|504:143|504:143|501:56,1,149.999992847443,8|8,0:0|0:0,0:0:0:0:
427,5,19338,1,12,0:2:0:0:
256,192,19510,12,0,21407,3:0:0:0:
348,237,22786,5,8,0:0:0:0:
476,159,23303,2,0,P|468:132|441:43,1,99.9999952316285,2|2,0:0|0:0,0:0:0:0:
297,68,24165,1,8,0:0:0:0:
267,163,24510,1,8,1:0:0:0:
342,228,24855,1,4,1:0:0:0:
211,380,25545,5,8,0:0:0:0:
139,248,26062,2,0,P|93:235|37:231,1,99.9999952316285,2|2,0:0|0:0,0:0:0:0:
60,379,26924,1,8,0:0:0:0:
158,364,27269,1,4,1:0:0:0:
255,343,27614,5,4,1:0:0:0:
126,190,28303,2,0,P|109:112|112:32,1,149.999992847443,8|2,0:0|0:0,0:0:0:0:
207,17,29165,2,0,P|239:7|285:99,1,149.999992847443,2|8,0:0|0:0,0:0:0:0:
241,176,30028,1,8,1:0:0:0:
304,253,30372,6,0,B|370:256|394:167|486:181,2,199.999990463257,4|8|0,1:0|0:0|1:0,0:0:0:0:
137,363,32441,1,8,0:0:0:0:
71,287,32786,1,6,0:0:0:0:
113,196,33131,5,4,1:0:0:0:
298,270,33821,1,8,0:0:0:0:
417,179,34338,2,0,P|409:152|382:63,1,99.9999952316285,2|2,0:0|0:0,0:0:0:0:
259,5,35200,1,8,0:0:0:0:
166,43,35545,1,8,1:0:0:0:
74,82,35890,1,4,1:0:0:0:
159,262,36580,5,8,0:0:0:0:
278,170,37097,2,0,P|324:157|380:153,1,99.9999952316285,2|2,0:0|0:0,0:0:0:0:
500,69,37959,1,8,0:0:0:0:
402,48,38304,1,12,0:1:0:0:
304,24,38649,5,4,1:0:0:0:
500,69,39338,2,0,P|483:147|486:227,1,149.999992847443,8|2,0:0|0:0,0:0:0:0:
442,307,40200,2,0,P|436:340|334:341,1,149.999992847443,2|8,0:0|0:0,0:0:0:0:
297,260,41063,1,8,1:0:0:0:
223,326,41407,6,0,B|156:329|132:240|40:254,1,199.999990463257,4|8,1:0|0:0,0:0:0:0:
13,158,42441,1,2,0:1:0:0:
78,82,42786,2,0,B|135:87|135:87|166:130,1,99.9999952316285,4|2,1:0|3:1,0:0:0:0:
259,107,43476,2,0,L|275:-11,2,99.9999952316285,8|2|6,0:0|0:1|0:0,0:0:0:0:
335,171,44510,1,2,0:0:0:0:
272,7,46924,6,0,L|259:107,1,99.9999952316285,2|2,0:0|0:0,0:0:0:0:
272,376,49683,6,0,L|259:277,1,99.9999952316285,6|2,0:0|0:0,0:0:0:0:
272,7,52441,6,0,L|259:107,1,99.9999952316285,2|2,0:0|0:0,0:0:0:0:
256,192,52959,12,6,55200,0:0:0:0:
136,370,56579,6,0,P|159:334|202:166,1,199.999990463257,0|2,3:0|3:2,0:0:0:0:
121,124,57614,1,2,3:2:0:0:
256,58,58131,2,0,L|384:86,1,99.9999952316285,2|2,0:0|0:0,0:0:0:0:
455,189,58993,2,0,B|480:289|480:289|375:314,1,199.999990463257,2|0,3:2|3:0,0:0:0:0:
304,369,60027,5,2,3:2:0:0:
211,332,60372,1,2,3:2:0:0:
231,234,60717,1,0,3:0:0:0:
256,192,60890,12,12,63476,3:1:0:0:
256,384,66234,6,2,L|301:148,1,219.99999622345,14|8,1:0|1:2,0:1:0:0:
259,64,67269,2,0,L|154:84,1,54.9999990558624,2|2,0:0|0:0,0:0:0:0:
99,105,67786,1,2,0:0:0:0:
146,204,68131,2,0,L|166:309,1,54.9999990558624,2|8,0:0|1:2,0:0:0:0:
120,362,68648,1,8,1:0:0:0:
16,323,68993,1,4,1:0:0:0:
235,340,69683,6,0,L|362:367,1,109.999998111725,8|2,1:2|0:0,0:0:0:0:
395,346,70200,1,2,0:0:0:0:
433,242,70545,1,2,0:0:0:0:
354,164,70890,2,0,L|382:104,1,54.9999990558624,2|8,0:0|1:2,0:0:0:0:
315,22,71407,2,0,B|269:17|259:68|206:67,1,109.999998111725,2|14,0:0|1:0,0:0:0:0:
87,168,72441,6,0,P|68:145|64:103,2,54.9999990558624,8|2|2,1:2|0:0|0:0,0:0:0:0:
176,232,73131,1,0,1:0:0:0:
144,337,73476,1,2,0:0:0:0:
244,381,73821,1,8,1:2:0:0:
334,318,74165,1,8,1:0:0:0:
290,217,74510,6,0,B|328:179|328:179|316:8,2,219.99999622345,4|8|0,1:0|1:2|1:0,0:0:0:0:
220,131,76234,2,0,B|186:90|186:90|119:79,1,109.999998111725,2|8,0:0|1:2,0:0:0:0:
38,143,76924,1,12,1:2:0:0:
98,235,77269,5,14,1:0:0:0:
277,361,77959,1,8,1:2:0:0:
374,309,78303,2,0,L|479:329,1,54.9999990558624,2|2,0:0|0:0,0:0:0:0:
480,222,78820,1,2,0:0:0:0:
446,117,79165,2,0,L|341:97,1,54.9999990558624,2|8,0:0|1:2,0:0:0:0:
308,35,79682,1,8,1:0:0:0:
224,107,80027,1,4,1:0:0:0:
400,238,80717,6,0,L|373:365,1,109.999998111725,8|2,1:2|0:0,0:0:0:0:
332,378,81234,1,2,0:0:0:0:
225,349,81579,1,2,0:0:0:0:
134,286,81924,2,0,L|74:314,1,54.9999990558624,2|8,0:0|1:2,0:0:0:0:
19,220,82441,2,0,B|16:174|68:168|64:111,1,109.999998111725,2|14,0:0|1:0,0:0:0:0:
262,28,83475,6,0,P|239:9|197:5,2,54.9999990558624,8|2|2,1:2|0:0|0:0,0:0:0:0:
199,119,84165,1,0,1:0:0:0:
184,228,84510,1,2,0:0:0:0:
290,201,84855,1,8,1:2:0:0:
371,274,85199,1,8,1:0:0:0:
457,341,85544,6,0,B|419:379|419:379|248:367,2,219.99999622345,0|8|0,1:0|1:2|1:0,0:0:0:0:
494,237,87269,1,2,0:0:0:0:
386,212,87614,1,8,1:2:0:0:
428,110,87959,1,12,1:2:0:0:
358,25,88303,6,2,B|276:11|279:93|200:82,1,164.999997167587,14|2,1:0|0:0,0:1:0:0:
85,191,89338,1,8,0:1:0:0:
57,297,89683,2,0,B|79:348|79:348|139:361,1,109.999998111725,0|8,1:0|0:1,0:0:0:0:
242,352,90372,1,8,1:2:0:0:
311,267,90716,1,2,0:1:0:0:
398,333,91062,6,0,B|482:259|482:259|474:138,3,219.99999622345,8|8|8|8,1:0|1:2|1:0|1:2,0:0:0:0:
410,62,93476,1,12,1:0:0:0:
338,145,93821,6,2,L|160:118,1,164.999997167587,14|2,1:0|0:0,0:1:0:0:
53,232,94855,1,8,0:1:0:0:
140,299,95200,6,0,L|248:269,1,109.999998111725,0|8,1:0|0:1,0:0:0:0:
327,343,95889,1,8,1:2:0:0:
415,277,96234,1,14,1:0:0:0:
354,185,96579,6,0,L|342:59,1,109.999998111725,8|2,1:0|0:0,0:0:0:0:
249,16,97269,2,0,B|194:10|194:10|142:36,2,109.999998111725,8|8|8,1:2|1:0|1:0,0:0:0:0:
343,75,98303,6,0,L|354:185,1,109.999998111725,2|8,0:0|1:2,0:0:0:0:
292,276,98993,1,12,1:0:0:0:
356,365,99338,5,14,1:0:0:0:
138,333,100027,2,0,L|58:348,2,54.9999990558624,8|8|8,1:2|0:1|0:1,0:0:0:0:
202,243,100717,2,0,P|205:184|163:138,1,109.999998111725,0|8,1:0|0:1,0:0:0:0:
68,120,101407,1,8,1:2:0:0:
96,13,101751,1,2,1:1:0:0:
202,44,102096,6,0,B|288:18|320:126|424:65,3,219.99999622345,8|8|8|8,1:0|1:2|1:0|1:2,0:0:0:0:
470,165,104510,1,12,1:0:0:0:
404,253,104855,5,14,1:0:0:0:
262,167,105372,2,0,B|205:230|205:230|234:338,1,164.999997167587,2|8,0:0|0:1,0:0:0:0:
130,362,106234,2,0,B|77:377|77:377|33:338,1,109.999998111725,0|8,1:0|0:1,0:0:0:0:
16,231,106924,1,8,1:2:0:0:
85,145,107269,1,12,1:2:0:0:
44,53,107614,5,4,0:0:0:0:
256,192,107786,12,4,110372,0:0:0:0:
