osu file format v14

[General]
AudioFilename: audio.ogg
AudioLeadIn: 0
PreviewTime: 62786
Countdown: 0
SampleSet: Soft
StackLeniency: 0.7
Mode: 0
LetterboxInBreaks: 0
EpilepsyWarning: 1
WidescreenStoryboard: 1

[Editor]
Bookmarks: 44165
DistanceSpacing: 0.6
BeatDivisor: 4
GridSize: 16
TimelineZoom: 2

[Metadata]
Title:Try This (Cut Ver.)
TitleUnicode:Try This (Cut Ver.)
Artist:Pegboard Nerds
ArtistUnicode:Pegboard Nerds
Creator:AJT
Version:Challenge
Source:
Tags:electronic drumstep instrumental monstercat fa featured artist mappers' guild mpg zer0- fsjallink jojajim just shapes & and beats
BeatmapID:3829916
BeatmapSetID:1862574

[Difficulty]
HPDrainRate:6
CircleSize:4
OverallDifficulty:9
ApproachRate:9.3
SliderMultiplier:3.59999990463257
SliderTickRate:1

[Events]
//Background and Video events
0,0,"wp4599443.jpg",0,0
//Break Periods
//Storyboard Layer 0 (Background)
//Storyboard Layer 1 (Fail)
//Storyboard Layer 2 (Pass)
//Storyboard Layer 3 (Foreground)
Sprite,Foreground,Centre,"sb\p.png",0,0 M,0,66234,,64,56 C,0,66234,,255,0,0 P,0,66234,,A F,2,66234,66634,1,0 S,4,66234,66984,0.7,0.2
Sprite,Foreground,Centre,"sb\p.png",0,0 M,0,66262,,93.07712,53.18607 C,0,66262,,255,0,0 P,0,66262,,A F,2,66262,66662,1,0 S,4,66262,67012,0.7,0.2
Sprite,Foreground,Centre,"sb\p.png",0,0 M,0,66290,,122.2484,54.20414 C,0,66290,,255,0,0 P,0,66290,,A F,2,66290,66690,1,0 S,4,66290,67040,0.7,0.2
Sprite,Foreground,Centre,"sb\p.png",0,0 M,0,66318,,150.6692,60.71735 C,0,66318,,255,0,0 P,0,66318,,A F,2,66318,66718,1,0 S,4,66318,67068,0.7,0.2
Sprite,Foreground,Centre,"sb\p.png",0,0 M,0,66346,,176.5706,74.0051 C,0,66346,,255,0,0 P,0,66346,,A F,2,66346,66746,1,0 S,4,66346,67096,0.7,0.2
Sprite,Foreground,Centre,"sb\p.png",0,0 M,0,66374,,198.2529,93.47182 C,0,66374,,255,0,0 P,0,66374,,A F,2,66374,66774,1,0 S,4,66374,67124,0.7,0.2
Sprite,Foreground,Centre,"sb\p.png",0,0 M,0,66402,,215.1519,117.2693 C,0,66402,,255,0,0 P,0,66402,,A F,2,66402,66802,1,0 S,4,66402,67152,0.7,0.2
Sprite,Foreground,Centre,"sb\p.png",0,0 M,0,66430,,228.6979,143.152 C,0,66430,,255,0,0 P,0,66430,,A F,2,66430,66830,1,0 S,4,66430,67180,0.7,0.2
Sprite,Foreground,Centre,"sb\p.png",0,0 M,0,66458,,240.2682,169.9931 C,0,66458,,255,0,0 P,0,66458,,A F,2,66458,66858,1,0 S,4,66458,67208,0.7,0.2
Sprite,Foreground,Centre,"sb\p.png",0,0 M,0,66486,,251.237,197.089 C,0,66486,,255,0,0 P,0,66486,,A F,2,66486,66886,1,0 S,4,66486,67236,0.7,0.2
Sprite,Foreground,Centre,"sb\p.png",0,0 M,0,66514,,262.7453,223.9576 C,0,66514,,255,0,0 P,0,66514,,A F,2,66514,66914,1,0 S,4,66514,67264,0.7,0.2
Sprite,Foreground,Centre,"sb\p.png",0,0 M,0,66542,,275.995,250.0013 C,0,66542,,255,0,0 P,0,66542,,A F,2,66542,66942,1,0 S,4,66542,67292,0.7,0.2
Sprite,Foreground,Centre,"sb\p.png",0,0 M,0,66570,,291.9459,274.4622 C,0,66570,,255,0,0 P,0,66570,,A F,2,66570,66970,1,0 S,4,66570,67320,0.7,0.2
Sprite,Foreground,Centre,"sb\p.png",0,0 M,0,66598,,311.5066,296.1212 C,0,66598,,255,0,0 P,0,66598,,A F,2,66598,66998,1,0 S,4,66598,67348,0.7,0.2
Sprite,Foreground,Centre,"sb\p.png",0,0 M,0,66626,,334.8105,313.6551 C,0,66626,,255,0,0 P,0,66626,,A F,2,66626,67026,1,0 S,4,66626,67376,0.7,0.2
Sprite,Foreground,Centre,"sb\p.png",0,0 M,0,66654,,361.0706,326.3706 C,0,66654,,255,0,0 P,0,66654,,A F,2,66654,67054,1,0 S,4,66654,67404,0.7,0.2
Sprite,Foreground,Centre,"sb\p.png",0,0 M,0,66682,,389.2203,334.1067 C,0,66682,,255,0,0 P,0,66682,,A F,2,66682,67082,1,0 S,4,66682,67432,0.7,0.2
Sprite,Foreground,Centre,"sb\p.png",0,0 M,0,66710,,418.1837,337.8531 C,0,66710,,255,0,0 P,0,66710,,A F,2,66710,67110,1,0 S,4,66710,67460,0.7,0.2
Sprite,Foreground,Centre,"sb\p.png",0,0 M,0,66738,,447.3975,338.326 C,0,66738,,255,0,0 P,0,66738,,A F,2,66738,67138,1,0 S,4,66738,67488,0.7,0.2
Sprite,Foreground,Centre,"sb\p.png",0,0 M,0,71752,,576,56 C,0,71752,,0,147,255 P,0,71752,,A F,2,71752,72152,1,0 S,4,71752,72502,0.7,0.2
Sprite,Foreground,Centre,"sb\p.png",0,0 M,0,71780,,546.9229,53.18607 C,0,71780,,0,147,255 P,0,71780,,A F,2,71780,72180,1,0 S,4,71780,72530,0.7,0.2
Sprite,Foreground,Centre,"sb\p.png",0,0 M,0,71808,,517.7516,54.20414 C,0,71808,,0,147,255 P,0,71808,,A F,2,71808,72208,1,0 S,4,71808,72558,0.7,0.2
Sprite,Foreground,Centre,"sb\p.png",0,0 M,0,71836,,489.3308,60.71734 C,0,71836,,0,147,255 P,0,71836,,A F,2,71836,72236,1,0 S,4,71836,72586,0.7,0.2
Sprite,Foreground,Centre,"sb\p.png",0,0 M,0,71864,,463.4294,74.0051 C,0,71864,,0,147,255 P,0,71864,,A F,2,71864,72264,1,0 S,4,71864,72614,0.7,0.2
Sprite,Foreground,Centre,"sb\p.png",0,0 M,0,71892,,441.7471,93.4718 C,0,71892,,0,147,255 P,0,71892,,A F,2,71892,72292,1,0 S,4,71892,72642,0.7,0.2
Sprite,Foreground,Centre,"sb\p.png",0,0 M,0,71920,,424.8481,117.2693 C,0,71920,,0,147,255 P,0,71920,,A F,2,71920,72320,1,0 S,4,71920,72670,0.7,0.2
Sprite,Foreground,Centre,"sb\p.png",0,0 M,0,71948,,411.3021,143.152 C,0,71948,,0,147,255 P,0,71948,,A F,2,71948,72348,1,0 S,4,71948,72698,0.7,0.2
Sprite,Foreground,Centre,"sb\p.png",0,0 M,0,71976,,399.7318,169.9931 C,0,71976,,0,147,255 P,0,71976,,A F,2,71976,72376,1,0 S,4,71976,72726,0.7,0.2
Sprite,Foreground,Centre,"sb\p.png",0,0 M,0,72004,,388.763,197.089 C,0,72004,,0,147,255 P,0,72004,,A F,2,72004,72404,1,0 S,4,72004,72754,0.7,0.2
Sprite,Foreground,Centre,"sb\p.png",0,0 M,0,72032,,377.2546,223.9576 C,0,72032,,0,147,255 P,0,72032,,A F,2,72032,72432,1,0 S,4,72032,72782,0.7,0.2
Sprite,Foreground,Centre,"sb\p.png",0,0 M,0,72060,,364.005,250.0013 C,0,72060,,0,147,255 P,0,72060,,A F,2,72060,72460,1,0 S,4,72060,72810,0.7,0.2
Sprite,Foreground,Centre,"sb\p.png",0,0 M,0,72088,,348.0541,274.4622 C,0,72088,,0,147,255 P,0,72088,,A F,2,72088,72488,1,0 S,4,72088,72838,0.7,0.2
Sprite,Foreground,Centre,"sb\p.png",0,0 M,0,72116,,328.4934,296.1212 C,0,72116,,0,147,255 P,0,72116,,A F,2,72116,72516,1,0 S,4,72116,72866,0.7,0.2
Sprite,Foreground,Centre,"sb\p.png",0,0 M,0,72144,,305.1894,313.6552 C,0,72144,,0,147,255 P,0,72144,,A F,2,72144,72544,1,0 S,4,72144,72894,0.7,0.2
Sprite,Foreground,Centre,"sb\p.png",0,0 M,0,72172,,278.9292,326.3707 C,0,72172,,0,147,255 P,0,72172,,A F,2,72172,72572,1,0 S,4,72172,72922,0.7,0.2
Sprite,Foreground,Centre,"sb\p.png",0,0 M,0,72200,,250.7795,334.1068 C,0,72200,,0,147,255 P,0,72200,,A F,2,72200,72600,1,0 S,4,72200,72950,0.7,0.2
Sprite,Foreground,Centre,"sb\p.png",0,0 M,0,72228,,221.8161,337.8531 C,0,72228,,0,147,255 P,0,72228,,A F,2,72228,72628,1,0 S,4,72228,72978,0.7,0.2
Sprite,Foreground,Centre,"sb\p.png",0,0 M,0,72256,,192.6022,338.326 C,0,72256,,0,147,255 P,0,72256,,A F,2,72256,72656,1,0 S,4,72256,73006,0.7,0.2
Sprite,Foreground,Centre,"sb\p.png",0,0 M,0,77269,,64,440 C,0,77269,,0,147,255 P,0,77269,,A F,2,77269,77669,1,0 S,4,77269,78019,0.7,0.2
Sprite,Foreground,Centre,"sb\p.png",0,0 M,0,77297,,93.07712,442.8139 C,0,77297,,0,147,255 P,0,77297,,A F,2,77297,77697,1,0 S,4,77297,78047,0.7,0.2
Sprite,Foreground,Centre,"sb\p.png",0,0 M,0,77325,,122.2484,441.7958 C,0,77325,,0,147,255 P,0,77325,,A F,2,77325,77725,1,0 S,4,77325,78075,0.7,0.2
Sprite,Foreground,Centre,"sb\p.png",0,0 M,0,77353,,150.6692,435.2826 C,0,77353,,0,147,255 P,0,77353,,A F,2,77353,77753,1,0 S,4,77353,78103,0.7,0.2
Sprite,Foreground,Centre,"sb\p.png",0,0 M,0,77381,,176.5706,421.9949 C,0,77381,,0,147,255 P,0,77381,,A F,2,77381,77781,1,0 S,4,77381,78131,0.7,0.2
Sprite,Foreground,Centre,"sb\p.png",0,0 M,0,77409,,198.2529,402.5282 C,0,77409,,0,147,255 P,0,77409,,A F,2,77409,77809,1,0 S,4,77409,78159,0.7,0.2
Sprite,Foreground,Centre,"sb\p.png",0,0 M,0,77437,,215.1519,378.7308 C,0,77437,,0,147,255 P,0,77437,,A F,2,77437,77837,1,0 S,4,77437,78187,0.7,0.2
Sprite,Foreground,Centre,"sb\p.png",0,0 M,0,77465,,228.6978,352.8481 C,0,77465,,0,147,255 P,0,77465,,A F,2,77465,77865,1,0 S,4,77465,78215,0.7,0.2
Sprite,Foreground,Centre,"sb\p.png",0,0 M,0,77493,,240.2681,326.007 C,0,77493,,0,147,255 P,0,77493,,A F,2,77493,77893,1,0 S,4,77493,78243,0.7,0.2
Sprite,Foreground,Centre,"sb\p.png",0,0 M,0,77521,,251.237,298.9111 C,0,77521,,0,147,255 P,0,77521,,A F,2,77521,77921,1,0 S,4,77521,78271,0.7,0.2
Sprite,Foreground,Centre,"sb\p.png",0,0 M,0,77549,,262.7453,272.0424 C,0,77549,,0,147,255 P,0,77549,,A F,2,77549,77949,1,0 S,4,77549,78299,0.7,0.2
Sprite,Foreground,Centre,"sb\p.png",0,0 M,0,77577,,275.9949,245.9988 C,0,77577,,0,147,255 P,0,77577,,A F,2,77577,77977,1,0 S,4,77577,78327,0.7,0.2
Sprite,Foreground,Centre,"sb\p.png",0,0 M,0,77605,,291.9459,221.5378 C,0,77605,,0,147,255 P,0,77605,,A F,2,77605,78005,1,0 S,4,77605,78355,0.7,0.2
Sprite,Foreground,Centre,"sb\p.png",0,0 M,0,77633,,311.5066,199.8788 C,0,77633,,0,147,255 P,0,77633,,A F,2,77633,78033,1,0 S,4,77633,78383,0.7,0.2
Sprite,Foreground,Centre,"sb\p.png",0,0 M,0,77661,,334.8105,182.3449 C,0,77661,,0,147,255 P,0,77661,,A F,2,77661,78061,1,0 S,4,77661,78411,0.7,0.2
Sprite,Foreground,Centre,"sb\p.png",0,0 M,0,77689,,361.0707,169.6294 C,0,77689,,0,147,255 P,0,77689,,A F,2,77689,78089,1,0 S,4,77689,78439,0.7,0.2
Sprite,Foreground,Centre,"sb\p.png",0,0 M,0,77717,,389.2203,161.8933 C,0,77717,,0,147,255 P,0,77717,,A F,2,77717,78117,1,0 S,4,77717,78467,0.7,0.2
Sprite,Foreground,Centre,"sb\p.png",0,0 M,0,77745,,418.1837,158.147 C,0,77745,,0,147,255 P,0,77745,,A F,2,77745,78145,1,0 S,4,77745,78495,0.7,0.2
Sprite,Foreground,Centre,"sb\p.png",0,0 M,0,77773,,447.3975,157.674 C,0,77773,,0,147,255 P,0,77773,,A F,2,77773,78173,1,0 S,4,77773,78523,0.7,0.2
Sprite,Foreground,Centre,"sb\p.png",0,0 M,0,82441,,479,365 C,0,82441,,0,147,255 P,0,82441,,A F,2,82441,82841,1,0 S,4,82441,83191,0.7,0.2
Sprite,Foreground,Centre,"sb\p.png",0,0 M,0,82469,,478.5603,368.6274 C,0,82469,,0,147,255 P,0,82469,,A F,2,82469,82869,1,0 S,4,82469,83219,0.7,0.2
Sprite,Foreground,Centre,"sb\p.png",0,0 M,0,82497,,478.1206,372.2549 C,0,82497,,0,147,255 P,0,82497,,A F,2,82497,82897,1,0 S,4,82497,83247,0.7,0.2
Sprite,Foreground,Centre,"sb\p.png",0,0 M,0,82525,,477.6809,375.8823 C,0,82525,,0,147,255 P,0,82525,,A F,2,82525,82925,1,0 S,4,82525,83275,0.7,0.2
Sprite,Foreground,Centre,"sb\p.png",0,0 M,0,82553,,477.2412,379.5098 C,0,82553,,0,147,255 P,0,82553,,A F,2,82553,82953,1,0 S,4,82553,83303,0.7,0.2
Sprite,Foreground,Centre,"sb\p.png",0,0 M,0,82581,,476.8015,383.1372 C,0,82581,,0,147,255 P,0,82581,,A F,2,82581,82981,1,0 S,4,82581,83331,0.7,0.2
Sprite,Foreground,Centre,"sb\p.png",0,0 M,0,82609,,476.3618,386.7647 C,0,82609,,0,147,255 P,0,82609,,A F,2,82609,83009,1,0 S,4,82609,83359,0.7,0.2
Sprite,Foreground,Centre,"sb\p.png",0,0 M,0,82637,,475.9221,390.3922 C,0,82637,,0,147,255 P,0,82637,,A F,2,82637,83037,1,0 S,4,82637,83387,0.7,0.2
Sprite,Foreground,Centre,"sb\p.png",0,0 M,0,82665,,475.4825,394.0196 C,0,82665,,0,147,255 P,0,82665,,A F,2,82665,83065,1,0 S,4,82665,83415,0.7,0.2
Sprite,Foreground,Centre,"sb\p.png",0,0 M,0,82693,,475.0664,397.4524 C,0,82693,,0,147,255 P,0,82693,,A F,2,82693,83093,1,0 S,4,82693,83443,0.7,0.2
Sprite,Foreground,Centre,"sb\p.png",0,0 M,0,82786,,576,440 C,0,82786,,255,0,0 P,0,82786,,A F,2,82786,83186,1,0 S,4,82786,83536,0.7,0.2
Sprite,Foreground,Centre,"sb\p.png",0,0 M,0,82814,,546.9229,442.8139 C,0,82814,,255,0,0 P,0,82814,,A F,2,82814,83214,1,0 S,4,82814,83564,0.7,0.2
Sprite,Foreground,Centre,"sb\p.png",0,0 M,0,82842,,517.7516,441.7958 C,0,82842,,255,0,0 P,0,82842,,A F,2,82842,83242,1,0 S,4,82842,83592,0.7,0.2
Sprite,Foreground,Centre,"sb\p.png",0,0 M,0,82870,,489.3308,435.2826 C,0,82870,,255,0,0 P,0,82870,,A F,2,82870,83270,1,0 S,4,82870,83620,0.7,0.2
Sprite,Foreground,Centre,"sb\p.png",0,0 M,0,82898,,463.4294,421.9949 C,0,82898,,255,0,0 P,0,82898,,A F,2,82898,83298,1,0 S,4,82898,83648,0.7,0.2
Sprite,Foreground,Centre,"sb\p.png",0,0 M,0,82926,,441.7471,402.5282 C,0,82926,,255,0,0 P,0,82926,,A F,2,82926,83326,1,0 S,4,82926,83676,0.7,0.2
Sprite,Foreground,Centre,"sb\p.png",0,0 M,0,82954,,424.8481,378.7307 C,0,82954,,255,0,0 P,0,82954,,A F,2,82954,83354,1,0 S,4,82954,83704,0.7,0.2
Sprite,Foreground,Centre,"sb\p.png",0,0 M,0,82982,,411.3021,352.848 C,0,82982,,255,0,0 P,0,82982,,A F,2,82982,83382,1,0 S,4,82982,83732,0.7,0.2
Sprite,Foreground,Centre,"sb\p.png",0,0 M,0,83010,,399.7318,326.0069 C,0,83010,,255,0,0 P,0,83010,,A F,2,83010,83410,1,0 S,4,83010,83760,0.7,0.2
Sprite,Foreground,Centre,"sb\p.png",0,0 M,0,83038,,388.763,298.911 C,0,83038,,255,0,0 P,0,83038,,A F,2,83038,83438,1,0 S,4,83038,83788,0.7,0.2
Sprite,Foreground,Centre,"sb\p.png",0,0 M,0,83066,,377.2546,272.0423 C,0,83066,,255,0,0 P,0,83066,,A F,2,83066,83466,1,0 S,4,83066,83816,0.7,0.2
Sprite,Foreground,Centre,"sb\p.png",0,0 M,0,83094,,364.005,245.9987 C,0,83094,,255,0,0 P,0,83094,,A F,2,83094,83494,1,0 S,4,83094,83844,0.7,0.2
Sprite,Foreground,Centre,"sb\p.png",0,0 M,0,83122,,348.054,221.5377 C,0,83122,,255,0,0 P,0,83122,,A F,2,83122,83522,1,0 S,4,83122,83872,0.7,0.2
Sprite,Foreground,Centre,"sb\p.png",0,0 M,0,83150,,328.4933,199.8788 C,0,83150,,255,0,0 P,0,83150,,A F,2,83150,83550,1,0 S,4,83150,83900,0.7,0.2
Sprite,Foreground,Centre,"sb\p.png",0,0 M,0,83178,,305.1894,182.3448 C,0,83178,,255,0,0 P,0,83178,,A F,2,83178,83578,1,0 S,4,83178,83928,0.7,0.2
Sprite,Foreground,Centre,"sb\p.png",0,0 M,0,83206,,278.9292,169.6293 C,0,83206,,255,0,0 P,0,83206,,A F,2,83206,83606,1,0 S,4,83206,83956,0.7,0.2
Sprite,Foreground,Centre,"sb\p.png",0,0 M,0,83234,,250.7796,161.8932 C,0,83234,,255,0,0 P,0,83234,,A F,2,83234,83634,1,0 S,4,83234,83984,0.7,0.2
Sprite,Foreground,Centre,"sb\p.png",0,0 M,0,83262,,221.8162,158.147 C,0,83262,,255,0,0 P,0,83262,,A F,2,83262,83662,1,0 S,4,83262,84012,0.7,0.2
Sprite,Foreground,Centre,"sb\p.png",0,0 M,0,83290,,192.6023,157.6741 C,0,83290,,255,0,0 P,0,83290,,A F,2,83290,83690,1,0 S,4,83290,84040,0.7,0.2
Sprite,Foreground,Centre,"sb\p.png",0,0 M,0,88303,,498,271 C,0,88303,,255,0,0 P,0,88303,,A F,2,88303,88703,1,0 S,4,88303,89053,0.7,0.2
Sprite,Foreground,Centre,"sb\p.png",0,0 M,0,88331,,491.7389,299.4973 C,0,88331,,255,0,0 P,0,88331,,A F,2,88331,88731,1,0 S,4,88331,89081,0.7,0.2
Sprite,Foreground,Centre,"sb\p.png",0,0 M,0,88359,,491.7846,328.6213 C,0,88359,,255,0,0 P,0,88359,,A F,2,88359,88759,1,0 S,4,88359,89109,0.7,0.2
Sprite,Foreground,Centre,"sb\p.png",0,0 M,0,88387,,499.7686,356.6104 C,0,88387,,255,0,0 P,0,88387,,A F,2,88387,88787,1,0 S,4,88387,89137,0.7,0.2
Sprite,Foreground,Centre,"sb\p.png",0,0 M,0,88415,,515.1953,381.3045 C,0,88415,,255,0,0 P,0,88415,,A F,2,88415,88815,1,0 S,4,88415,89165,0.7,0.2
Sprite,Foreground,Centre,"sb\p.png",0,0 M,0,88443,,535.8226,401.9318 C,0,88443,,255,0,0 P,0,88443,,A F,2,88443,88843,1,0 S,4,88443,89193,0.7,0.2
Sprite,Foreground,Centre,"sb\p.png",0,0 M,0,88471,,559.7772,418.6342 C,0,88471,,255,0,0 P,0,88471,,A F,2,88471,88871,1,0 S,4,88471,89221,0.7,0.2
Sprite,Foreground,Centre,"sb\p.png",0,0 M,0,88499,,584.8347,430.9798 C,0,88499,,255,0,0 P,0,88499,,A F,2,88499,88899,1,0 S,4,88499,89249,0.7,0.2
Sprite,Foreground,Centre,"sb\p.png",0,0 M,0,88527,,593.4092,408.963 C,0,88527,,255,0,0 P,0,88527,,A F,2,88527,88927,1,0 S,4,88527,89277,0.7,0.2
Sprite,Foreground,Centre,"sb\p.png",0,0 M,0,88555,,596.8814,379.9446 C,0,88555,,255,0,0 P,0,88555,,A F,2,88555,88955,1,0 S,4,88555,89305,0.7,0.2
Sprite,Foreground,Centre,"sb\p.png",0,0 M,0,88583,,598.4941,350.7639 C,0,88583,,255,0,0 P,0,88583,,A F,2,88583,88983,1,0 S,4,88583,89333,0.7,0.2
Sprite,Foreground,Centre,"sb\p.png",0,0 M,0,88611,,597.949,321.5454 C,0,88611,,255,0,0 P,0,88611,,A F,2,88611,89011,1,0 S,4,88611,89361,0.7,0.2
Sprite,Foreground,Centre,"sb\p.png",0,0 M,0,88639,,595.1983,292.4539 C,0,88639,,255,0,0 P,0,88639,,A F,2,88639,89039,1,0 S,4,88639,89389,0.7,0.2
Sprite,Foreground,Centre,"sb\p.png",0,0 M,0,88667,,590.0372,263.6923 C,0,88667,,255,0,0 P,0,88667,,A F,2,88667,89067,1,0 S,4,88667,89417,0.7,0.2
Sprite,Foreground,Centre,"sb\p.png",0,0 M,0,88695,,582.4016,235.4888 C,0,88695,,255,0,0 P,0,88695,,A F,2,88695,89095,1,0 S,4,88695,89445,0.7,0.2
Sprite,Foreground,Centre,"sb\p.png",0,0 M,0,88723,,572.3453,208.0535 C,0,88723,,255,0,0 P,0,88723,,A F,2,88723,89123,1,0 S,4,88723,89473,0.7,0.2
Sprite,Foreground,Centre,"sb\p.png",0,0 M,0,88751,,559.8154,181.6561 C,0,88751,,255,0,0 P,0,88751,,A F,2,88751,89151,1,0 S,4,88751,89501,0.7,0.2
Sprite,Foreground,Centre,"sb\p.png",0,0 M,0,88779,,545.09,156.418 C,0,88779,,255,0,0 P,0,88779,,A F,2,88779,89179,1,0 S,4,88779,89529,0.7,0.2
Sprite,Foreground,Centre,"sb\p.png",0,0 M,0,88807,,528.2904,132.5079 C,0,88807,,255,0,0 P,0,88807,,A F,2,88807,89207,1,0 S,4,88807,89557,0.7,0.2
Sprite,Foreground,Centre,"sb\p.png",0,0 M,0,93476,,320,56 C,0,93476,,255,0,0 P,0,93476,,A F,2,93476,93876,1,0 S,4,93476,94226,0.7,0.2
Sprite,Foreground,Centre,"sb\p.png",0,0 M,0,93504,,302.5121,69.22254 C,0,93504,,255,0,0 P,0,93504,,A F,2,93504,93904,1,0 S,4,93504,94254,0.7,0.2
Sprite,Foreground,Centre,"sb\p.png",0,0 M,0,93532,,285.0242,82.44509 C,0,93532,,255,0,0 P,0,93532,,A F,2,93532,93932,1,0 S,4,93532,94282,0.7,0.2
Sprite,Foreground,Centre,"sb\p.png",0,0 M,0,93560,,267.5363,95.66763 C,0,93560,,255,0,0 P,0,93560,,A F,2,93560,93960,1,0 S,4,93560,94310,0.7,0.2
Sprite,Foreground,Centre,"sb\p.png",0,0 M,0,93588,,250.0485,108.8902 C,0,93588,,255,0,0 P,0,93588,,A F,2,93588,93988,1,0 S,4,93588,94338,0.7,0.2
Sprite,Foreground,Centre,"sb\p.png",0,0 M,0,93616,,231.273,116.8586 C,0,93616,,255,0,0 P,0,93616,,A F,2,93616,94016,1,0 S,4,93616,94366,0.7,0.2
Sprite,Foreground,Centre,"sb\p.png",0,0 M,0,93644,,209.6555,113.2291 C,0,93644,,255,0,0 P,0,93644,,A F,2,93644,94044,1,0 S,4,93644,94394,0.7,0.2
Sprite,Foreground,Centre,"sb\p.png",0,0 M,0,93672,,188.0356,109.5901 C,0,93672,,255,0,0 P,0,93672,,A F,2,93672,94072,1,0 S,4,93672,94422,0.7,0.2
Sprite,Foreground,Centre,"sb\p.png",0,0 M,0,93700,,166.4157,105.9512 C,0,93700,,255,0,0 P,0,93700,,A F,2,93700,94100,1,0 S,4,93700,94450,0.7,0.2
Sprite,Foreground,Centre,"sb\p.png",0,0 M,0,93728,,144.7958,102.3122 C,0,93728,,255,0,0 P,0,93728,,A F,2,93728,94128,1,0 S,4,93728,94478,0.7,0.2
Sprite,Foreground,Centre,"sb\p.png",0,0 M,0,93821,,64,56 C,0,93821,,0,147,255 P,0,93821,,A F,2,93821,94221,1,0 S,4,93821,94571,0.7,0.2
Sprite,Foreground,Centre,"sb\p.png",0,0 M,0,93849,,93.07712,53.18607 C,0,93849,,0,147,255 P,0,93849,,A F,2,93849,94249,1,0 S,4,93849,94599,0.7,0.2
Sprite,Foreground,Centre,"sb\p.png",0,0 M,0,93877,,122.2484,54.20414 C,0,93877,,0,147,255 P,0,93877,,A F,2,93877,94277,1,0 S,4,93877,94627,0.7,0.2
Sprite,Foreground,Centre,"sb\p.png",0,0 M,0,93905,,150.6692,60.71735 C,0,93905,,0,147,255 P,0,93905,,A F,2,93905,94305,1,0 S,4,93905,94655,0.7,0.2
Sprite,Foreground,Centre,"sb\p.png",0,0 M,0,93933,,176.5706,74.0051 C,0,93933,,0,147,255 P,0,93933,,A F,2,93933,94333,1,0 S,4,93933,94683,0.7,0.2
Sprite,Foreground,Centre,"sb\p.png",0,0 M,0,93961,,198.2529,93.47182 C,0,93961,,0,147,255 P,0,93961,,A F,2,93961,94361,1,0 S,4,93961,94711,0.7,0.2
Sprite,Foreground,Centre,"sb\p.png",0,0 M,0,93989,,215.1519,117.2693 C,0,93989,,0,147,255 P,0,93989,,A F,2,93989,94389,1,0 S,4,93989,94739,0.7,0.2
Sprite,Foreground,Centre,"sb\p.png",0,0 M,0,94017,,228.6979,143.152 C,0,94017,,0,147,255 P,0,94017,,A F,2,94017,94417,1,0 S,4,94017,94767,0.7,0.2
Sprite,Foreground,Centre,"sb\p.png",0,0 M,0,94045,,240.2682,169.9931 C,0,94045,,0,147,255 P,0,94045,,A F,2,94045,94445,1,0 S,4,94045,94795,0.7,0.2
Sprite,Foreground,Centre,"sb\p.png",0,0 M,0,94073,,251.237,197.089 C,0,94073,,0,147,255 P,0,94073,,A F,2,94073,94473,1,0 S,4,94073,94823,0.7,0.2
Sprite,Foreground,Centre,"sb\p.png",0,0 M,0,94101,,262.7453,223.9576 C,0,94101,,0,147,255 P,0,94101,,A F,2,94101,94501,1,0 S,4,94101,94851,0.7,0.2
Sprite,Foreground,Centre,"sb\p.png",0,0 M,0,94129,,275.995,250.0013 C,0,94129,,0,147,255 P,0,94129,,A F,2,94129,94529,1,0 S,4,94129,94879,0.7,0.2
Sprite,Foreground,Centre,"sb\p.png",0,0 M,0,94157,,291.9459,274.4622 C,0,94157,,0,147,255 P,0,94157,,A F,2,94157,94557,1,0 S,4,94157,94907,0.7,0.2
Sprite,Foreground,Centre,"sb\p.png",0,0 M,0,94185,,311.5066,296.1212 C,0,94185,,0,147,255 P,0,94185,,A F,2,94185,94585,1,0 S,4,94185,94935,0.7,0.2
Sprite,Foreground,Centre,"sb\p.png",0,0 M,0,94213,,334.8105,313.6551 C,0,94213,,0,147,255 P,0,94213,,A F,2,94213,94613,1,0 S,4,94213,94963,0.7,0.2
Sprite,Foreground,Centre,"sb\p.png",0,0 M,0,94241,,361.0706,326.3706 C,0,94241,,0,147,255 P,0,94241,,A F,2,94241,94641,1,0 S,4,94241,94991,0.7,0.2
Sprite,Foreground,Centre,"sb\p.png",0,0 M,0,94269,,389.2203,334.1067 C,0,94269,,0,147,255 P,0,94269,,A F,2,94269,94669,1,0 S,4,94269,95019,0.7,0.2
Sprite,Foreground,Centre,"sb\p.png",0,0 M,0,94297,,418.1837,337.8531 C,0,94297,,0,147,255 P,0,94297,,A F,2,94297,94697,1,0 S,4,94297,95047,0.7,0.2
Sprite,Foreground,Centre,"sb\p.png",0,0 M,0,94325,,447.3975,338.326 C,0,94325,,0,147,255 P,0,94325,,A F,2,94325,94725,1,0 S,4,94325,95075,0.7,0.2
Sprite,Foreground,Centre,"sb\p.png",0,0 M,0,98993,,320,440 C,0,98993,,0,147,255 P,0,98993,,A F,2,98993,99393,1,0 S,4,98993,99743,0.7,0.2
Sprite,Foreground,Centre,"sb\p.png",0,0 M,0,99021,,326.2588,418.9884 C,0,99021,,0,147,255 P,0,99021,,A F,2,99021,99421,1,0 S,4,99021,99771,0.7,0.2
Sprite,Foreground,Centre,"sb\p.png",0,0 M,0,99049,,332.5176,397.9767 C,0,99049,,0,147,255 P,0,99049,,A F,2,99049,99449,1,0 S,4,99049,99799,0.7,0.2
Sprite,Foreground,Centre,"sb\p.png",0,0 M,0,99077,,338.7764,376.9651 C,0,99077,,0,147,255 P,0,99077,,A F,2,99077,99477,1,0 S,4,99077,99827,0.7,0.2
Sprite,Foreground,Centre,"sb\p.png",0,0 M,0,99105,,345.0352,355.9534 C,0,99105,,0,147,255 P,0,99105,,A F,2,99105,99505,1,0 S,4,99105,99855,0.7,0.2
Sprite,Foreground,Centre,"sb\p.png",0,0 M,0,99133,,359.4161,344.3242 C,0,99133,,0,147,255 P,0,99133,,A F,2,99133,99533,1,0 S,4,99133,99883,0.7,0.2
Sprite,Foreground,Centre,"sb\p.png",0,0 M,0,99161,,381.1076,341.1402 C,0,99161,,0,147,255 P,0,99161,,A F,2,99161,99561,1,0 S,4,99161,99911,0.7,0.2
Sprite,Foreground,Centre,"sb\p.png",0,0 M,0,99189,,402.7992,337.9561 C,0,99189,,0,147,255 P,0,99189,,A F,2,99189,99589,1,0 S,4,99189,99939,0.7,0.2
Sprite,Foreground,Centre,"sb\p.png",0,0 M,0,99217,,424.4907,334.772 C,0,99217,,0,147,255 P,0,99217,,A F,2,99217,99617,1,0 S,4,99217,99967,0.7,0.2
Sprite,Foreground,Centre,"sb\p.png",0,0 M,0,99245,,446.1823,331.5879 C,0,99245,,0,147,255 P,0,99245,,A F,2,99245,99645,1,0 S,4,99245,99995,0.7,0.2
Sprite,Foreground,Centre,"sb\p.png",0,0 M,0,99338,,576,440 C,0,99338,,255,0,0 P,0,99338,,A F,2,99338,99738,1,0 S,4,99338,100088,0.7,0.2
Sprite,Foreground,Centre,"sb\p.png",0,0 M,0,99366,,546.9229,442.8139 C,0,99366,,255,0,0 P,0,99366,,A F,2,99366,99766,1,0 S,4,99366,100116,0.7,0.2
Sprite,Foreground,Centre,"sb\p.png",0,0 M,0,99394,,517.7516,441.7958 C,0,99394,,255,0,0 P,0,99394,,A F,2,99394,99794,1,0 S,4,99394,100144,0.7,0.2
Sprite,Foreground,Centre,"sb\p.png",0,0 M,0,99422,,489.3308,435.2826 C,0,99422,,255,0,0 P,0,99422,,A F,2,99422,99822,1,0 S,4,99422,100172,0.7,0.2
Sprite,Foreground,Centre,"sb\p.png",0,0 M,0,99450,,463.4294,421.9949 C,0,99450,,255,0,0 P,0,99450,,A F,2,99450,99850,1,0 S,4,99450,100200,0.7,0.2
Sprite,Foreground,Centre,"sb\p.png",0,0 M,0,99478,,441.7471,402.5282 C,0,99478,,255,0,0 P,0,99478,,A F,2,99478,99878,1,0 S,4,99478,100228,0.7,0.2
Sprite,Foreground,Centre,"sb\p.png",0,0 M,0,99506,,424.8481,378.7307 C,0,99506,,255,0,0 P,0,99506,,A F,2,99506,99906,1,0 S,4,99506,100256,0.7,0.2
Sprite,Foreground,Centre,"sb\p.png",0,0 M,0,99534,,411.3021,352.848 C,0,99534,,255,0,0 P,0,99534,,A F,2,99534,99934,1,0 S,4,99534,100284,0.7,0.2
Sprite,Foreground,Centre,"sb\p.png",0,0 M,0,99562,,399.7318,326.0069 C,0,99562,,255,0,0 P,0,99562,,A F,2,99562,99962,1,0 S,4,99562,100312,0.7,0.2
Sprite,Foreground,Centre,"sb\p.png",0,0 M,0,99590,,388.763,298.911 C,0,99590,,255,0,0 P,0,99590,,A F,2,99590,99990,1,0 S,4,99590,100340,0.7,0.2
Sprite,Foreground,Centre,"sb\p.png",0,0 M,0,99618,,377.2546,272.0423 C,0,99618,,255,0,0 P,0,99618,,A F,2,99618,100018,1,0 S,4,99618,100368,0.7,0.2
Sprite,Foreground,Centre,"sb\p.png",0,0 M,0,99646,,364.005,245.9987 C,0,99646,,255,0,0 P,0,99646,,A F,2,99646,100046,1,0 S,4,99646,100396,0.7,0.2
Sprite,Foreground,Centre,"sb\p.png",0,0 M,0,99674,,348.054,221.5377 C,0,99674,,255,0,0 P,0,99674,,A F,2,99674,100074,1,0 S,4,99674,100424,0.7,0.2
Sprite,Foreground,Centre,"sb\p.png",0,0 M,0,99702,,328.4933,199.8788 C,0,99702,,255,0,0 P,0,99702,,A F,2,99702,100102,1,0 S,4,99702,100452,0.7,0.2
Sprite,Foreground,Centre,"sb\p.png",0,0 M,0,99730,,305.1894,182.3448 C,0,99730,,255,0,0 P,0,99730,,A F,2,99730,100130,1,0 S,4,99730,100480,0.7,0.2
Sprite,Foreground,Centre,"sb\p.png",0,0 M,0,99758,,278.9292,169.6293 C,0,99758,,255,0,0 P,0,99758,,A F,2,99758,100158,1,0 S,4,99758,100508,0.7,0.2
Sprite,Foreground,Centre,"sb\p.png",0,0 M,0,99786,,250.7796,161.8932 C,0,99786,,255,0,0 P,0,99786,,A F,2,99786,100186,1,0 S,4,99786,100536,0.7,0.2
Sprite,Foreground,Centre,"sb\p.png",0,0 M,0,99814,,221.8162,158.147 C,0,99814,,255,0,0 P,0,99814,,A F,2,99814,100214,1,0 S,4,99814,100564,0.7,0.2
Sprite,Foreground,Centre,"sb\p.png",0,0 M,0,99842,,192.6023,157.6741 C,0,99842,,255,0,0 P,0,99842,,A F,2,99842,100242,1,0 S,4,99842,100592,0.7,0.2
Sprite,Foreground,Centre,"sb\p.png",0,0 M,0,104510,,320,56 C,0,104510,,255,0,0 P,0,104510,,A F,2,104510,104910,1,0 S,4,104510,105260,0.7,0.2
Sprite,Foreground,Centre,"sb\p.png",0,0 M,0,104538,,313.7412,77.01165 C,0,104538,,255,0,0 P,0,104538,,A F,2,104538,104938,1,0 S,4,104538,105288,0.7,0.2
Sprite,Foreground,Centre,"sb\p.png",0,0 M,0,104566,,307.4824,98.0233 C,0,104566,,255,0,0 P,0,104566,,A F,2,104566,104966,1,0 S,4,104566,105316,0.7,0.2
Sprite,Foreground,Centre,"sb\p.png",0,0 M,0,104594,,301.2236,119.0349 C,0,104594,,255,0,0 P,0,104594,,A F,2,104594,104994,1,0 S,4,104594,105344,0.7,0.2
Sprite,Foreground,Centre,"sb\p.png",0,0 M,0,104622,,294.9648,140.0466 C,0,104622,,255,0,0 P,0,104622,,A F,2,104622,105022,1,0 S,4,104622,105372,0.7,0.2
Sprite,Foreground,Centre,"sb\p.png",0,0 M,0,104650,,280.5839,151.6758 C,0,104650,,255,0,0 P,0,104650,,A F,2,104650,105050,1,0 S,4,104650,105400,0.7,0.2
Sprite,Foreground,Centre,"sb\p.png",0,0 M,0,104678,,258.8924,154.8598 C,0,104678,,255,0,0 P,0,104678,,A F,2,104678,105078,1,0 S,4,104678,105428,0.7,0.2
Sprite,Foreground,Centre,"sb\p.png",0,0 M,0,104706,,237.2008,158.0439 C,0,104706,,255,0,0 P,0,104706,,A F,2,104706,105106,1,0 S,4,104706,105456,0.7,0.2
Sprite,Foreground,Centre,"sb\p.png",0,0 M,0,104734,,215.5093,161.228 C,0,104734,,255,0,0 P,0,104734,,A F,2,104734,105134,1,0 S,4,104734,105484,0.7,0.2
Sprite,Foreground,Centre,"sb\p.png",0,0 M,0,104762,,193.8177,164.4121 C,0,104762,,255,0,0 P,0,104762,,A F,2,104762,105162,1,0 S,4,104762,105512,0.7,0.2
Sprite,Foreground,Centre,"sb\p.png",0,0 M,0,104855,,64,56 C,0,104855,,0,147,255 P,0,104855,,A F,2,104855,105255,1,0 S,4,104855,105605,0.7,0.2
Sprite,Foreground,Centre,"sb\p.png",0,0 M,0,104883,,93.07712,53.18607 C,0,104883,,0,147,255 P,0,104883,,A F,2,104883,105283,1,0 S,4,104883,105633,0.7,0.2
Sprite,Foreground,Centre,"sb\p.png",0,0 M,0,104911,,122.2484,54.20414 C,0,104911,,0,147,255 P,0,104911,,A F,2,104911,105311,1,0 S,4,104911,105661,0.7,0.2
Sprite,Foreground,Centre,"sb\p.png",0,0 M,0,104939,,150.6692,60.71735 C,0,104939,,0,147,255 P,0,104939,,A F,2,104939,105339,1,0 S,4,104939,105689,0.7,0.2
Sprite,Foreground,Centre,"sb\p.png",0,0 M,0,104967,,176.5706,74.0051 C,0,104967,,0,147,255 P,0,104967,,A F,2,104967,105367,1,0 S,4,104967,105717,0.7,0.2
Sprite,Foreground,Centre,"sb\p.png",0,0 M,0,104995,,198.2529,93.47182 C,0,104995,,0,147,255 P,0,104995,,A F,2,104995,105395,1,0 S,4,104995,105745,0.7,0.2
Sprite,Foreground,Centre,"sb\p.png",0,0 M,0,105023,,215.1519,117.2693 C,0,105023,,0,147,255 P,0,105023,,A F,2,105023,105423,1,0 S,4,105023,105773,0.7,0.2
Sprite,Foreground,Centre,"sb\p.png",0,0 M,0,105051,,228.6979,143.152 C,0,105051,,0,147,255 P,0,105051,,A F,2,105051,105451,1,0 S,4,105051,105801,0.7,0.2
Sprite,Foreground,Centre,"sb\p.png",0,0 M,0,105079,,240.2682,169.9931 C,0,105079,,0,147,255 P,0,105079,,A F,2,105079,105479,1,0 S,4,105079,105829,0.7,0.2
Sprite,Foreground,Centre,"sb\p.png",0,0 M,0,105107,,251.237,197.089 C,0,105107,,0,147,255 P,0,105107,,A F,2,105107,105507,1,0 S,4,105107,105857,0.7,0.2
Sprite,Foreground,Centre,"sb\p.png",0,0 M,0,105135,,262.7453,223.9576 C,0,105135,,0,147,255 P,0,105135,,A F,2,105135,105535,1,0 S,4,105135,105885,0.7,0.2
Sprite,Foreground,Centre,"sb\p.png",0,0 M,0,105163,,275.995,250.0013 C,0,105163,,0,147,255 P,0,105163,,A F,2,105163,105563,1,0 S,4,105163,105913,0.7,0.2
Sprite,Foreground,Centre,"sb\p.png",0,0 M,0,105191,,291.9459,274.4622 C,0,105191,,0,147,255 P,0,105191,,A F,2,105191,105591,1,0 S,4,105191,105941,0.7,0.2
Sprite,Foreground,Centre,"sb\p.png",0,0 M,0,105219,,311.5066,296.1212 C,0,105219,,0,147,255 P,0,105219,,A F,2,105219,105619,1,0 S,4,105219,105969,0.7,0.2
Sprite,Foreground,Centre,"sb\p.png",0,0 M,0,105247,,334.8105,313.6551 C,0,105247,,0,147,255 P,0,105247,,A F,2,105247,105647,1,0 S,4,105247,105997,0.7,0.2
Sprite,Foreground,Centre,"sb\p.png",0,0 M,0,105275,,361.0706,326.3706 C,0,105275,,0,147,255 P,0,105275,,A F,2,105275,105675,1,0 S,4,105275,106025,0.7,0.2
Sprite,Foreground,Centre,"sb\p.png",0,0 M,0,105303,,389.2203,334.1067 C,0,105303,,0,147,255 P,0,105303,,A F,2,105303,105703,1,0 S,4,105303,106053,0.7,0.2
Sprite,Foreground,Centre,"sb\p.png",0,0 M,0,105331,,418.1837,337.8531 C,0,105331,,0,147,255 P,0,105331,,A F,2,105331,105731,1,0 S,4,105331,106081,0.7,0.2
Sprite,Foreground,Centre,"sb\p.png",0,0 M,0,105359,,447.3975,338.326 C,0,105359,,0,147,255 P,0,105359,,A F,2,105359,105759,1,0 S,4,105359,106109,0.7,0.2
Sprite,Foreground,Centre,"sb\c_2.png",0,0 F,0,2959,3159,0,1 M,0,2959,5372,120,240 S,0,2959,5372,0.3 F,0,5172,5372,1,0
//Storyboard Layer 4 (Overlay)
//Storyboard Sound Samples

[TimingPoints]
28,689.655172413793,4,2,1,50,1,0
2786,-200,4,2,1,50,0,0
3993,-400,4,2,1,50,0,0
5545,-200,4,2,1,60,0,0
6752,-800,4,2,1,60,0,0
11062,-133.333333333333,4,2,1,80,0,0
16234,-66.6666666666667,4,2,1,80,0,0
21579,-133.333333333333,4,2,1,80,0,0
22096,-100,4,2,1,90,0,0
27269,-50,4,2,1,90,0,0
28131,-100,4,2,1,90,0,0
38303,-75.187969924812,4,2,1,90,0,0
38648,-100,4,2,1,90,0,0
43476,-66.6666666666667,4,2,1,90,0,0
44165,-66.6666666666667,4,2,1,80,0,0
44855,-133.333333333333,4,2,1,80,0,0
46924,-66.6666666666667,4,2,1,80,0,0
47614,-133.333333333333,4,2,1,80,0,0
49683,-66.6666666666667,4,2,1,80,0,0
50372,-133.333333333333,4,2,1,80,0,0
52441,-66.6666666666667,4,2,1,80,0,0
53131,-100,4,2,1,80,0,0
53821,-66.6666666666667,4,2,1,80,0,0
55200,-80,4,2,1,85,0,0
57959,-66.6666666666667,4,2,1,90,0,0
62096,-100,4,2,1,95,0,0
66234,-50,4,2,1,100,0,1
67441,-66.6666666666667,4,2,1,100,0,1
71752,-50,4,2,1,100,0,1
76752,-100,4,2,1,100,0,1
77269,-50,4,2,1,100,0,1
77959,-66.6666666666667,4,2,1,100,0,1
82441,-400,4,2,1,100,0,1
82786,-50,4,2,1,100,0,1
88303,-50,4,2,1,100,0,1
89683,-66.6666666666667,4,2,1,100,0,1
93821,-50,4,2,1,100,0,1
94510,-66.6666666666667,4,2,1,100,0,1
99338,-50,4,2,1,100,0,1
104510,-66.6666666666667,4,2,1,100,0,1
104855,-50,4,2,1,100,0,1
107614,-66.6666666666667,4,2,1,80,0,0

[Colours]
Combo1 : 255,30,30
Combo2 : 0,64,128
Combo3 : 255,13,13
Combo4 : 0,128,192

[HitObjects]
352,384,2786,5,2,0:0:0:0:
352,384,2959,2,0,P|375:347|417:315,1,89.9999976158143,2|2,0:0|0:0,0:0:0:0:
404,133,3476,2,0,P|410:176|436:222,1,89.9999976158143,2|2,0:0|0:0,0:0:0:0:
503,284,3993,6,0,L|315:244,1,179.999995231629,2|0,0:0|0:0,0:0:0:0:
0,384,5545,5,2,0:0:0:0:
0,384,5718,2,0,P|39:365|92:362,1,89.9999976158143,2|2,0:0|0:0,0:0:0:0:
224,256,6235,2,0,P|268:259|308:278,1,89.9999976158143,2|2,0:0|0:0,0:0:0:0:
330,373,6752,6,0,B|444:351|398:215|512:192,1,269.999992847443,2|0,0:0|0:0,0:0:0:0:
439,323,11062,5,6,1:0:0:0:
0,192,11622,2,0,L|197:159,1,185.625002163649,8|8,0:2|0:0,0:0:0:0:
288,0,12441,6,0,B|240:43|212:6|167:52,1,135.000001573563,4|0,1:1|0:0,0:0:0:0:
198,190,13002,2,0,L|191:250,1,50.625000590086,8|0,0:0|0:0,0:0:0:0:
0,320,13303,5,2,0:0:0:0:
136,293,13475,1,2,0:0:0:0:
271,268,13647,1,2,0:0:0:0:
336,384,13821,6,0,P|314:321|323:254,1,135.000001573563,6|0,1:0|0:0,0:0:0:0:
431,366,14381,2,0,P|436:294|404:229,1,135.000001573563,8|0,0:0|0:0,0:0:0:0:
410,237,14855,1,8,0:0:0:0:
302,5,15200,6,0,P|368:14|422:54,1,135.000001573563,4|0,1:0|0:0,0:0:0:0:
388,144,15760,2,0,P|322:132|270:90,1,135.000001573563,8|0,0:0|0:0,0:0:0:0:
270,90,16234,6,0,B|316:127|277:175|331:223,1,135.000001573563,2|0,1:2|0:0,0:0:0:0:
256,384,16579,1,6,1:0:0:0:
256,192,16752,12,0,18648,0:0:0:0:
352,256,18821,5,8,0:0:0:0:
320,96,18993,1,8,0:0:0:0:
160,128,19165,1,8,0:0:0:0:
192,288,19338,1,12,0:2:0:0:
256,192,19510,12,0,21407,3:0:0:0:
357,272,21579,5,0,1:0:0:0:
334,247,21665,1,0,1:0:0:0:
328,214,21751,1,0,1:0:0:0:
428,213,21924,1,0,3:0:0:0:
256,384,22096,6,0,B|204:315|136:383|95:323,1,179.999995231629,4|0,1:0|0:0,0:0:0:0:
95,324,22614,1,0,0:0:0:0:
32,384,22786,5,8,0:0:0:0:
58,298,22958,1,0,0:0:0:0:
85,212,23130,1,2,0:0:0:0:
39,78,23303,6,0,P|83:86|127:96,1,89.9999976158143,2|0,0:0|1:0,0:0:0:0:
241,280,23648,2,0,P|232:236|224:191,1,89.9999976158143,2|0,0:0|0:0,0:0:0:0:
372,37,23993,2,0,P|332:57|292:77,1,89.9999976158143,2|8,0:0|0:0,0:0:0:0:
110,2,24338,5,12,1:0:0:0:
179,173,24510,1,8,1:0:0:0:
379,144,24683,1,8,1:0:0:0:
201,200,24855,6,0,L|165:376,1,179.999995231629,4|0,1:0|0:0,0:0:0:0:
165,376,25372,1,0,0:0:0:0:
288,384,25545,5,8,0:0:0:0:
227,282,25717,1,0,0:0:0:0:
329,221,25890,1,2,0:0:0:0:
391,323,26062,6,0,P|434:314|493:303,1,89.9999976158143,2|0,0:0|1:0,0:0:0:0:
227,282,26407,2,0,P|184:273|125:262,1,89.9999976158143,2|0,0:0|0:0,0:0:0:0:
329,221,26752,1,2,0:0:0:0:
329,221,26924,2,0,P|338:178|349:119,1,89.9999976158143,8|0,0:0|0:0,0:0:0:0:
512,32,27269,6,0,B|454:47|454:47|328:4,1,179.999995231629,4|0,1:0|0:0,0:0:0:0:
182,68,27614,2,0,B|69:106|69:106|11:91,2,179.999995231629,4|0|0,1:0|0:0|0:0,0:0:0:0:
182,68,28131,1,0,0:0:0:0:
340,8,28303,5,8,0:0:0:0:
182,68,28476,1,0,0:0:0:0:
346,132,28648,1,2,0:0:0:0:
183,163,28821,6,0,P|174:206|163:265,1,89.9999976158143,2|0,0:0|1:0,0:0:0:0:
346,251,29165,2,0,P|338:207|329:163,1,89.9999976158143,2|0,0:0|0:0,0:0:0:0:
256,320,29510,1,2,0:0:0:0:
256,320,29683,1,8,0:0:0:0:
129,223,29855,5,12,1:0:0:0:
256,320,30027,1,8,1:0:0:0:
383,223,30200,1,8,1:0:0:0:
461,246,30372,6,0,P|461:201|438:164,1,89.9999976158143,4|2,1:0|0:0,0:0:0:0:
50,246,30890,6,0,P|50:201|74:164,1,89.9999976158143,2|8,0:0|0:0,0:0:0:0:
129,223,31234,1,0,0:0:0:0:
96,96,31407,1,2,0:0:0:0:
96,96,31579,1,0,0:0:0:0:
129,223,31752,6,0,P|129:268|106:306,1,89.9999976158143,0|2,1:0|0:0,0:0:0:0:
383,223,32269,6,0,P|383:267|406:305,1,89.9999976158143,2|8,0:0|0:0,0:0:0:0:
462,246,32614,1,0,0:0:0:0:
416,96,32786,1,6,0:0:0:0:
383,223,32958,1,2,0:0:0:0:
384,384,33131,6,0,L|348:208,1,179.999995231629,4|2,1:0|0:0,0:0:0:0:
347,207,33648,1,0,0:0:0:0:
359,131,33821,5,8,0:0:0:0:
359,131,33993,1,0,0:0:0:0:
153,131,34166,1,2,0:0:0:0:
96,192,34338,6,0,P|105:222|117:308,1,89.9999976158143,2|0,0:0|1:0,0:0:0:0:
416,192,34683,2,0,P|406:161|395:76,1,89.9999976158143,2|0,0:0|0:0,0:0:0:0:
256,352,35028,2,0,P|286:342|372:331,1,89.9999976158143,2|8,0:0|0:0,0:0:0:0:
256,32,35373,5,12,1:0:0:0:
352,192,35545,1,8,1:0:0:0:
256,352,35717,1,8,1:0:0:0:
160,192,35890,1,4,1:0:0:0:
160,192,36234,6,0,L|138:105,1,89.9999976158143,2|0,0:0|0:0,0:0:0:0:
352,0,36579,1,8,0:0:0:0:
137,104,36752,1,0,0:0:0:0:
374,104,36924,1,2,0:0:0:0:
160,0,37096,6,0,L|138:87,1,89.9999976158143,2|0,0:0|1:0,0:0:0:0:
374,105,37441,2,0,L|352:192,1,89.9999976158143,2|0,0:0|0:0,0:0:0:0:
160,384,37786,6,0,L|138:297,1,89.9999976158143,2|8,0:0|0:0,0:0:0:0:
137,296,38131,1,0,3:0:0:0:
374,279,38303,6,0,B|351:365|351:365|257:305,1,179.549987846318,12|0,0:1|0:0,0:0:0:0:
224,384,38648,6,0,B|297:329|232:225|326:140,1,269.999992847443,4|0,1:0|0:0,0:0:0:0:
512,96,39338,5,8,0:0:0:0:
426,70,39510,1,0,0:0:0:0:
340,43,39682,1,2,0:0:0:0:
179,137,39855,6,0,P|223:145|267:155,1,89.9999976158143,2|0,0:0|1:0,0:0:0:0:
381,339,40200,2,0,P|372:295|364:250,1,89.9999976158143,2|0,0:0|0:0,0:0:0:0:
512,96,40545,2,0,P|472:116|432:136,1,89.9999976158143,2|8,0:0|0:0,0:0:0:0:
402,2,40890,5,8,1:0:0:0:
333,173,41062,1,8,1:0:0:0:
133,144,41235,1,8,1:0:0:0:
311,200,41407,6,0,L|347:376,1,179.999995231629,4|2,1:0|0:1,0:0:0:0:
224,192,41924,1,0,0:0:0:0:
441,235,42096,2,0,L|292:137,1,179.999995231629,8|2,0:0|0:1,0:0:0:0:
224,192,42614,1,0,0:0:0:0:
288,0,42786,5,4,1:0:0:0:
128,192,42959,1,0,3:0:0:0:
128,192,43046,1,0,3:0:0:0:
128,192,43131,2,0,P|141:227|159:298,1,89.9999976158143,2|0,3:1|0:0,0:0:0:0:
59,375,43476,6,0,P|144:334|258:309,1,202.500002360344,8|0,0:0|0:0,0:0:0:0:
320,352,43821,1,2,0:1:0:0:
192,32,43993,1,0,0:0:0:0:
110,63,44165,6,0,P|177:71|240:96,1,135.000001573563,6|0,0:0|0:0,0:0:0:0:
401,320,44510,2,0,P|334:312|272:288,1,135.000001573563,2|0,0:0|0:0,0:0:0:0:
240,384,44855,5,0,3:0:0:0:
236,339,45028,1,0,0:0:0:0:
225,296,45200,1,0,3:0:0:0:
207,254,45372,1,0,0:0:0:0:
324,359,45545,6,0,P|326:324|342:290,1,67.5000007867814,0|0,3:0|0:0,0:0:0:0:
188,359,45890,2,0,P|186:324|170:290,1,67.5000007867814,0|0,3:0|0:0,0:0:0:0:
400,240,46234,6,0,P|371:220|328:210,1,67.5000007867814,0|0,3:0|0:0,0:0:0:0:
112,240,46579,2,0,P|141:220|184:210,1,67.5000007867814,0|0,3:0|0:0,0:0:0:0:
464,187,46924,6,0,P|412:151|336:133,1,135.000001573563,2|0,0:0|0:0,0:0:0:0:
48,187,47269,2,0,P|99:151|175:133,1,135.000001573563,2|0,0:0|0:0,0:0:0:0:
400,240,47614,6,0,P|371:220|328:210,1,67.5000007867814,0|0,3:0|0:0,0:0:0:0:
112,240,47959,2,0,P|141:220|184:210,1,67.5000007867814,0|0,3:0|0:0,0:0:0:0:
324,359,48303,6,0,P|326:324|342:290,1,67.5000007867814,0|2,3:0|0:3,0:0:0:0:
188,359,48648,2,0,P|186:324|170:290,1,67.5000007867814,0|0,3:0|0:0,0:0:0:0:
239,383,48993,5,2,3:0:0:0:
271,335,49166,1,0,0:0:0:0:
224,295,49338,1,0,3:0:0:0:
271,255,49510,1,0,0:0:0:0:
176,176,49683,6,0,P|164:137|201:39,1,135.000001573563,6|0,0:0|0:0,0:0:0:0:
320,18,50028,2,0,P|374:57|399:119,1,135.000001573563,2|0,0:0|0:0,0:0:0:0:
512,128,50372,6,0,P|474:131|442:151,1,67.5000007867814,0|0,3:0|0:0,0:0:0:0:
400,176,50717,2,0,P|375:204|366:241,1,67.5000007867814,0|0,3:0|0:0,0:0:0:0:
512,320,51062,6,0,P|483:295|446:286,1,67.5000007867814,0|2,3:0|0:3,0:0:0:0:
398,274,51407,2,0,P|360:276|328:297,1,67.5000007867814,0|0,3:0|0:0,0:0:0:0:
320,384,51752,6,0,P|317:346|297:314,1,67.5000007867814,2|0,3:0|0:0,0:0:0:0:
271,270,52097,2,0,P|242:245|205:236,1,67.5000007867814,0|0,3:0|0:0,0:0:0:0:
110,321,52441,6,0,P|176:313|239:288,1,135.000001573563,2|0,0:0|0:0,0:0:0:0:
401,64,52786,2,0,P|334:71|271:96,2,135.000001573563,2|0|0,0:0|0:0|0:0,0:0:0:0:
401,319,53821,6,0,P|334:312|271:287,1,135.000001573563,2|0,0:0|0:0,0:0:0:0:
109,62,54166,2,0,P|176:70|239:95,1,135.000001573563,2|0,0:0|0:0,0:0:0:0:
502,32,54510,6,0,L|511:-19,1,33.7500003933907,2|0,0:0|0:0,0:0:0:0:
400,336,55200,5,6,0:0:0:0:
320,384,55372,2,0,P|343:329|365:256,2,112.499997019768,2|0|2,0:0|3:0|0:0,0:0:0:0:
437,282,55890,1,0,3:0:0:0:
256,192,56062,1,0,0:0:0:0:
75,282,56234,2,0,P|184:255|289:215,1,224.999994039536,2|0,3:2|3:0,0:0:0:0:
352,112,56752,6,0,P|338:56|293:-10,2,112.499997019768,2|0|0,0:2|3:0|0:0,0:0:0:0:
160,112,57269,2,0,P|174:56|219:-10,1,112.499997019768,2|0,3:2|0:0,0:0:0:0:
352,272,57614,2,0,P|338:328|293:394,1,112.499997019768,2|0,3:2|0:0,0:0:0:0:
256,192,57959,1,0,3:0:0:0:
0,256,58131,6,0,P|55:234|122:197,1,135.000001573563,2|0,0:0|3:0,0:0:0:0:
512,256,58476,2,0,P|457:234|390:197,2,135.000001573563,2|0|0,0:0|3:2|0:0,0:0:0:0:
272,384,58993,2,0,P|250:329|213:262,1,135.000001573563,2|0,3:2|0:0,0:0:0:0:
240,0,59338,1,0,3:0:0:0:
240,0,59510,6,0,P|262:55|299:122,1,135.000001573563,2|0,0:0|3:0,0:0:0:0:
224,384,59855,1,0,0:0:0:0:
224,384,60027,5,2,3:2:0:0:
281,200,60199,1,0,0:0:0:0:
160,336,60372,5,2,3:2:0:0:
344,279,60544,1,0,0:0:0:0:
146,196,60717,5,0,3:0:0:0:
146,196,60803,1,0,3:0:0:0:
146,196,60890,2,0,P|126:161|122:125,1,67.5000007867814,0|0,3:0|3:0,0:0:0:0:
366,188,61062,5,0,3:0:0:0:
366,188,61148,1,0,3:0:0:0:
366,188,61235,2,0,P|386:223|390:259,1,67.5000007867814,0|0,3:0|3:0,0:0:0:0:
260,302,61407,5,0,3:0:0:0:
260,302,61493,1,0,3:0:0:0:
260,302,61580,2,0,P|225:322|189:326,1,67.5000007867814,0|0,3:0|3:0,0:0:0:0:
252,82,61752,5,0,3:0:0:0:
252,82,61838,1,0,3:0:0:0:
252,82,61925,2,0,P|287:62|323:58,1,67.5000007867814,0|0,3:0|3:0,0:0:0:0:
464,0,62096,5,0,3:0:0:0:
456,44,62182,1,0,3:0:0:0:
449,88,62268,1,0,3:0:0:0:
442,133,62354,1,0,3:0:0:0:
435,177,62440,1,0,3:0:0:0:
428,222,62527,1,0,3:0:0:0:
421,266,62614,2,0,L|404:341,1,44.9999988079071,0|0,3:0|3:0,0:0:0:0:
510,377,62786,5,2,3:0:0:0:
452,383,62872,1,2,3:0:0:0:
402,351,62958,1,2,3:0:0:0:
362,308,63044,1,2,3:0:0:0:
318,266,63130,1,2,3:0:0:0:
256,233,63217,1,2,3:0:0:0:
185,229,63303,1,2,3:0:0:0:
118,248,63389,1,2,3:0:0:0:
56,296,63476,6,0,L|40:386,1,89.9999976158143,12|0,3:1|0:0,0:0:0:0:
256,192,63734,12,0,66062,0:0:0:0:
0,0,66234,6,2,B|262:-40|95:327|431:278,1,539.999985694885,14|0,1:0|0:0,0:1:0:0:
512,192,66924,5,8,1:2:0:0:
396,282,67096,1,2,0:0:0:0:
448,80,67269,1,2,0:0:0:0:
396,282,67441,6,0,P|334:293|266:317,1,135.000001573563,2|0,0:0|1:0,0:0:0:0:
448,80,67786,2,0,P|386:69|318:45,1,135.000001573563,2|0,0:0|0:0,0:0:0:0:
224,384,68131,2,0,P|213:322|189:254,1,135.000001573563,2|8,0:0|1:2,0:0:0:0:
80,192,68476,5,8,1:0:0:0:
256,320,68648,1,8,1:0:0:0:
432,192,68820,1,8,1:0:0:0:
479,264,68993,5,4,1:0:0:0:
479,264,69165,2,0,P|513:206|506:140,1,135.000001573563,2|0,0:0|0:0,0:0:0:0:
352,0,69510,5,2,0:0:0:0:
137,104,69683,1,8,1:2:0:0:
374,104,69855,1,2,0:0:0:0:
160,0,70027,1,2,0:0:0:0:
64,45,70200,6,0,P|37:108|29:174,1,135.000001573563,2|0,0:0|1:0,0:0:0:0:
447,339,70545,2,0,P|472:276|482:210,1,135.000001573563,2|0,0:0|0:0,0:0:0:0:
256,192,70890,5,2,0:0:0:0:
256,192,71062,1,8,1:2:0:0:
448,45,71235,5,4,1:0:0:0:
448,339,71407,2,0,P|474:275|482:209,1,135.000001573563,2|0,0:0|0:0,0:0:0:0:
512,0,71752,6,2,B|250:-40|417:327|81:278,1,539.999985694885,14|0,1:0|0:0,0:1:0:0:
0,128,72441,5,8,1:2:0:0:
128,384,72614,1,2,0:0:0:0:
224,80,72786,1,2,0:0:0:0:
224,80,73131,1,0,1:0:0:0:
224,80,73476,5,2,0:0:0:0:
112,48,73648,1,2,0:0:0:0:
0,16,73821,1,8,1:2:0:0:
224,80,73993,5,8,1:0:0:0:
128,384,74165,1,8,1:0:0:0:
0,128,74338,1,8,1:0:0:0:
224,80,74510,5,4,1:0:0:0:
512,0,74683,1,2,0:0:0:0:
256,96,74855,5,2,0:0:0:0:
503,122,75028,1,2,0:0:0:0:
288,128,75199,5,8,1:2:0:0:
496,207,75372,1,2,0:0:0:0:
316,153,75545,5,2,0:0:0:0:
477,269,75718,1,2,0:0:0:0:
288,304,75890,5,0,1:0:0:0:
0,384,76063,1,2,0:0:0:0:
256,288,76235,5,2,0:0:0:0:
9,262,76408,1,0,3:0:0:0:
224,256,76579,5,8,1:2:0:0:
16,177,76752,2,0,L|67:196,1,44.9999988079071,0|0,3:0|3:0,0:0:0:0:
195,230,76925,5,12,1:2:0:0:
96,64,77096,1,0,3:0:0:0:
0,384,77269,6,2,B|262:424|95:57|431:106,1,539.999985694885,14|0,1:0|0:0,0:1:0:0:
512,192,77959,5,8,1:2:0:0:
368,272,78131,1,2,0:0:0:0:
256,0,78303,1,2,0:0:0:0:
363,29,78476,6,0,P|352:91|328:159,1,135.000001573563,2|0,0:0|1:0,0:0:0:0:
130,384,78821,2,0,P|141:322|165:254,1,135.000001573563,2|0,0:0|0:0,0:0:0:0:
174,153,79166,1,2,0:0:0:0:
174,153,79338,1,8,1:2:0:0:
80,192,79510,5,8,1:0:0:0:
256,384,79683,1,8,1:0:0:0:
432,192,79855,1,8,1:0:0:0:
80,192,80027,5,4,1:0:0:0:
33,264,80200,2,0,P|-1:206|6:140,1,135.000001573563,2|0,0:0|0:0,0:0:0:0:
160,0,80545,5,2,0:0:0:0:
374,104,80717,1,8,1:2:0:0:
137,104,80889,1,2,0:0:0:0:
352,0,81062,1,2,0:0:0:0:
479,264,81234,6,0,P|513:206|506:140,1,135.000001573563,2|0,0:0|1:0,0:0:0:0:
5,140,81579,2,0,P|0:206|33:264,1,135.000001573563,2|0,0:0|0:0,0:0:0:0:
256,384,81924,1,2,0:0:0:0:
479,264,82096,5,8,1:2:0:0:
448,96,82268,1,4,1:0:0:0:
415,309,82441,6,0,L|411:342,1,33.7499991059303,2|0,0:0|0:0,0:0:0:0:
512,384,82786,6,2,B|250:424|417:57|81:106,1,539.999985694885,14|0,1:0|0:0,0:1:0:0:
0,256,83476,5,8,1:2:0:0:
128,0,83649,1,2,0:0:0:0:
224,304,83821,1,2,0:0:0:0:
224,304,84166,1,0,1:0:0:0:
224,304,84511,5,2,0:0:0:0:
112,336,84683,1,2,0:0:0:0:
0,368,84856,1,8,1:2:0:0:
155,233,85027,5,8,1:0:0:0:
333,283,85199,1,8,1:0:0:0:
512,334,85372,1,8,1:0:0:0:
464,384,85545,6,0,L|494:190,1,179.999995231629,0|0,1:0|0:0,0:0:0:0:
512,80,85890,1,2,0:0:0:0:
370,238,86063,1,0,0:0:0:0:
464,0,86234,6,0,L|494:194,1,179.999995231629,8|2,1:2|0:0,0:0:0:0:
512,304,86579,1,2,0:0:0:0:
370,146,86752,1,2,0:0:0:0:
288,336,86924,6,0,P|186:382|112:357,1,179.999995231629,0|0,1:0|0:0,0:0:0:0:
0,304,87269,1,2,3:2:0:0:
192,256,87441,1,0,3:0:0:0:
64,103,87614,1,8,1:2:0:0:
78,215,87786,5,0,3:0:0:0:
78,215,87872,1,0,3:0:0:0:
78,215,87959,1,12,1:2:0:0:
256,80,88131,1,0,3:0:0:0:
434,215,88303,6,2,B|400:321|525:378|525:378|562:195|456:66|456:66|456:66,1,539.999985694885,14|0,1:0|0:0,0:1:0:0:
456,66,88993,1,8,1:2:0:0:
335,330,89165,5,8,0:1:0:0:
184,384,89338,1,8,0:1:0:0:
280,179,89510,1,8,0:1:0:0:
129,234,89683,2,0,P|89:301|74:371,1,135.000001573563,0|0,1:0|0:0,0:0:0:0:
184,384,90027,5,8,0:1:0:0:
335,330,90200,1,8,0:1:0:0:
280,179,90372,1,8,1:2:0:0:
129,234,90545,5,2,0:1:0:0:
335,330,90717,1,2,0:1:0:0:
184,384,90890,1,2,0:1:0:0:
280,179,91062,5,8,1:0:0:0:
352,0,91234,1,2,0:0:0:0:
352,256,91407,1,2,0:0:0:0:
262,54,91579,1,8,1:0:0:0:
144,288,91752,5,8,1:2:0:0:
72,109,91924,1,2,0:0:0:0:
72,365,92097,1,8,1:0:0:0:
162,163,92269,1,2,0:0:0:0:
432,288,92441,5,8,1:0:0:0:
360,109,92613,1,2,0:0:0:0:
360,365,92786,1,2,0:0:0:0:
450,163,92958,1,8,1:0:0:0:
74,307,93131,5,8,1:2:0:0:
2,128,93303,1,2,0:0:0:0:
256,0,93476,6,0,B|174:62|174:62|73:45,1,202.500002360344,12|0,1:0|0:0,0:0:0:0:
0,0,93821,6,2,B|262:-40|95:327|431:278,1,539.999985694885,14|0,1:0|0:0,0:1:0:0:
397,281,94510,1,8,1:2:0:0:
177,54,94682,5,8,0:1:0:0:
328,0,94855,1,8,0:1:0:0:
232,205,95027,1,8,0:1:0:0:
383,150,95200,2,0,P|423:83|438:13,1,135.000001573563,0|0,1:0|0:0,0:0:0:0:
328,0,95544,5,8,0:1:0:0:
177,54,95717,1,8,0:1:0:0:
232,205,95889,1,8,1:2:0:0:
0,112,96062,5,2,0:0:0:0:
232,205,96234,1,14,1:0:0:0:
232,205,96579,5,8,1:0:0:0:
160,384,96751,1,2,0:0:0:0:
160,128,96924,1,2,0:0:0:0:
250,330,97096,1,8,1:0:0:0:
368,96,97269,5,8,1:2:0:0:
440,275,97441,1,2,0:0:0:0:
440,19,97614,1,8,1:0:0:0:
350,221,97786,1,2,0:0:0:0:
80,96,97958,5,8,1:0:0:0:
152,275,98130,1,2,0:0:0:0:
152,19,98303,1,2,0:0:0:0:
62,221,98475,1,8,1:0:0:0:
438,77,98648,5,8,1:2:0:0:
510,256,98820,1,2,0:0:0:0:
256,384,98993,6,0,B|284:290|284:290|393:274,1,202.500002360344,12|0,1:0|0:0,0:0:0:0:
512,384,99338,6,2,B|250:424|417:57|81:106,1,539.999985694885,14|0,1:0|0:0,0:1:0:0:
115,103,100027,1,8,1:2:0:0:
0,192,100200,5,8,0:1:0:0:
176,158,100372,1,8,0:1:0:0:
353,125,100544,1,8,0:1:0:0:
488,192,100717,6,0,P|512:107|471:30,1,179.999995231629,0|0,1:0|0:0,0:0:0:0:
353,125,101062,5,8,0:1:0:0:
176,158,101234,1,8,0:1:0:0:
0,192,101406,1,8,1:2:0:0:
96,112,101580,5,2,1:1:0:0:
352,256,101752,1,2,1:1:0:0:
240,384,101925,1,2,1:1:0:0:
280,179,102096,5,8,1:0:0:0:
480,80,102268,1,2,0:0:0:0:
352,256,102441,1,2,0:0:0:0:
256,0,102613,1,8,1:0:0:0:
224,96,102786,5,8,1:2:0:0:
152,275,102958,1,2,0:0:0:0:
152,19,103131,1,8,1:0:0:0:
242,221,103303,1,2,0:0:0:0:
152,275,103475,5,8,1:0:0:0:
80,96,103647,1,2,0:0:0:0:
48,352,103820,1,2,0:0:0:0:
170,150,103992,1,8,1:0:0:0:
160,384,104165,1,8,1:2:0:0:
0,128,104337,1,2,0:0:0:0:
256,0,104510,6,0,B|228:94|228:94|119:110,1,202.500002360344,12|0,1:0|0:0,0:0:0:0:
0,0,104855,6,2,B|262:-40|95:327|431:278,1,539.999985694885,14|0,1:0|0:0,0:1:0:0:
397,281,105545,1,8,1:2:0:0:
512,192,105717,5,8,0:1:0:0:
335,225,105889,1,8,0:1:0:0:
158,258,106061,1,8,0:1:0:0:
24,192,106234,6,0,P|0:276|40:353,1,179.999995231629,0|0,1:0|0:0,0:0:0:0:
158,258,106579,5,8,0:1:0:0:
335,225,106751,1,8,0:1:0:0:
512,192,106923,1,8,1:2:0:0:
416,272,107097,5,2,0:0:0:0:
160,128,107269,1,12,1:2:0:0:
272,0,107442,1,2,0:0:0:0:
224,224,107614,5,4,0:0:0:0:
256,192,107786,12,4,110372,0:0:0:0:
