osu file format v14

[General]
AudioFilename: audio.mp3
AudioLeadIn: 0
PreviewTime: 82624
Countdown: 0
SampleSet: Soft
StackLeniency: 0.5
Mode: 0
LetterboxInBreaks: 0
WidescreenStoryboard: 1

[Editor]
DistanceSpacing: 1.1
BeatDivisor: 4
GridSize: 16
TimelineZoom: 2.4

[Metadata]
Title:Self Destruct
TitleUnicode:Self Destruct
Artist:Pegboard Nerds
ArtistUnicode:Pegboard Nerds
Creator:RainbowChaos
Version:Normal
Source:
Tags:Dubstep Monstercat
BeatmapID:1120258
BeatmapSetID:528133

[Difficulty]
HPDrainRate:3
CircleSize:3
OverallDifficulty:2
ApproachRate:3
SliderMultiplier:1
SliderTickRate:1

[Events]
//Background and Video events
0,0,"self destruct background.jpg",0,0
//Break Periods
2,110231,115448
2,158016,163448
//Storyboard Layer 0 (Background)
//Storyboard Layer 1 (Fail)
//Storyboard Layer 2 (Pass)
//Storyboard Layer 3 (Foreground)
//Storyboard Sound Samples

[TimingPoints]
7174,428.571428571429,4,2,1,65,1,0
21745,-76.9230769230769,4,2,1,75,0,0
27745,-100,4,3,1,80,0,0
39553,-133.333333333333,4,3,1,75,0,0
41910,-100,4,3,1,100,0,0
54338,-66.6666666666667,4,3,1,100,0,0
55174,-66.6666666666667,4,3,1,100,0,1
67196,-66.6666666666667,4,3,1,100,0,0
69102,-66.6666666666667,4,3,1,100,0,1
82624,-100,4,3,1,100,0,0
85838,-66.6666666666667,4,3,1,100,0,0
89481,-100,4,3,1,100,0,0
93102,-66.6666666666667,4,3,1,100,0,0
96338,-100,4,3,1,100,0,0
99767,-66.6666666666667,4,3,1,100,0,0
103196,-100,4,3,1,100,0,0
116053,-100,4,2,1,75,0,0
130624,-100,4,3,1,85,0,0
135767,-66.6666666666667,4,3,1,100,0,0
137481,-66.6666666666667,4,1,0,100,0,0
164888,-57.1428571428571,4,3,1,100,0,1
176674,-100,4,3,1,100,0,1
178624,-57.1428571428571,4,3,1,100,0,1
189102,-57.1428571428571,4,3,1,75,0,0

[HitObjects]
64,64,7175,5,8,0:0:0:0:
166,105,7602,1,8,0:0:0:0:
261,159,8031,2,0,B|320:204|320:204|279:275,1,150,8|0,0:0|0:0,0:0:0:0:
133,198,9316,6,0,B|106:239|106:239|147:274,1,100
216,312,10066,1,0,0:0:0:0:
291,345,10388,2,0,L|325:296,1,50
382,213,11031,1,8,0:0:0:0:
282,166,11459,1,0,0:0:0:0:
230,145,11674,2,0,L|139:100,1,100
304,79,12745,6,0,L|360:67,2,50
226,107,13495,1,0,0:0:0:0:
295,151,13816,1,0,0:0:0:0:
295,151,14031,1,4,0:0:0:0:
185,163,14459,5,8,0:0:0:0:
129,67,14888,2,0,L|213:49,2,75
83,225,16174,2,0,L|137:252,2,50
13,269,16924,1,0,0:0:0:0:
82,313,17245,2,0,L|131:337,1,50
176,236,17888,5,0,0:0:0:0:
259,164,18316,2,0,L|340:155,2,75
114,83,19602,2,0,B|66:67|66:67|41:115,1,100
108,161,20352,1,0,0:0:0:0:
72,235,20674,1,0,0:0:0:0:
72,235,20888,1,4,0:0:0:0:
356,265,21745,6,0,L|392:245,1,32.4999985122681
419,186,22066,1,0,0:0:0:0:
348,104,22388,2,0,P|221:81|166:112,1,194.999991073609,0|0,0:0|1:0,0:0:0:0:
55,198,23459,6,0,P|219:261|249:329,1,259.999988098145,0|0,0:0|1:0,0:0:0:0:
378,223,24745,5,0,0:0:0:0:
320,91,25174,1,0,0:0:0:0:
219,54,25495,1,0,0:0:0:0:
115,81,25816,2,0,P|47:140|41:213,1,162.499992561341,0|0,0:0|1:0,0:0:0:0:
57,239,26459,2,0,B|97:299|97:299|135:195|203:176,1,227.499989585877,0|0,0:0|1:0,0:0:0:0:
311,245,27745,5,4,0:0:0:0:
411,199,28174,1,4,0:0:0:0:
340,115,28602,5,0,0:0:0:0:
258,103,28924,1,0,0:0:0:0:
260,185,29245,2,0,P|326:260|325:312,1,150,0|0,0:0|1:0,0:0:0:0:
271,310,30102,5,8,0:0:0:0:
244,304,30209,2,0,P|186:279|166:243,1,100,0|0,0:0|1:0,0:0:0:0:
152,226,30745,1,8,0:0:0:0:
101,128,31174,1,12,0:0:0:0:
101,128,31602,5,8,0:0:0:0:
181,53,32031,1,0,0:0:0:0:
195,134,32352,1,8,0:0:0:0:
238,203,32674,2,0,P|268:136|325:87,1,150,0|0,0:0|1:0,0:0:0:0:
380,88,33531,2,0,B|407:87|407:87|359:209|414:262,1,200,0|0,0:0|1:0,0:0:0:0:
351,265,34602,5,4,0:0:0:0:
240,266,35031,1,4,0:0:0:0:
141,217,35459,1,0,0:0:0:0:
96,147,35781,1,4,0:0:0:0:
159,94,36102,2,0,P|193:165|242:174,1,125,0|0,0:0|1:0,0:0:0:0:
260,173,36745,5,8,0:0:0:0:
314,169,36959,2,0,B|336:197|336:197|297:243|254:250,1,125,0|0,0:0|1:0,0:0:0:0:
236,250,37602,1,4,0:0:0:0:
128,228,38031,1,12,0:0:0:0:
223,172,38459,5,4,0:0:0:0:
329,145,38888,1,0,0:0:0:0:
258,101,39209,1,0,0:0:0:0:
198,119,39531,2,0,B|271:33|346:29|346:29|312:107|342:171,1,318.750012159348,0|0,0:0|1:0,0:0:0:0:
344,185,41459,5,4,0:0:0:0:
427,113,41888,1,4,0:0:0:0:
430,222,42316,1,0,0:0:0:0:
358,262,42638,1,0,0:0:0:0:
280,290,42959,2,0,P|203:327|158:315,1,125,0|0,0:0|1:0,0:0:0:0:
141,309,43602,5,0,0:0:0:0:
48,249,44031,2,0,P|13:200|14:178,1,75,0|0,0:0|1:0,0:0:0:0:
26,163,44459,2,0,L|66:125,2,50,12|0|12,0:0|0:0|0:0,0:0:0:0:
129,200,45316,5,4,0:0:0:0:
233,234,45745,2,0,L|264:248,1,25
310,247,46066,1,0,0:0:0:0:
391,230,46388,2,0,P|409:140|376:94,1,150,0|0,0:0|1:0,0:0:0:0:
325,81,47245,2,0,B|312:107|312:107|208:25|108:91,1,250,0|0,0:0|1:0,0:0:0:0:
202,147,48745,5,12,0:0:0:0:
302,191,49174,2,0,L|329:204,1,25
378,213,49495,1,0,0:0:0:0:
458,231,49816,2,0,B|387:285|334:301|334:301|310:329|310:329|219:256|200:199,1,350
169,155,51531,1,0,0:0:0:0:
166,100,51745,1,12,0:0:0:0:
256,192,51959,12,0,54316,0:0:0:0:
366,263,55174,6,0,B|421:114|421:114|375:73|309:96,1,262.500010013581
200,93,56245,2,0,B|182:139|182:139|197:171|197:171|185:200|185:200|209:231|209:231|195:297,1,206.250007867813
383,269,57316,6,0,L|331:195,1,75.0000028610231,2|0,0:0|1:0,0:0:0:0:
392,143,57745,2,0,B|307:122|307:122|279:142|279:142|244:124|244:124|208:148|208:148|105:118,1,300.000011444092,0|12,0:0|0:0,0:0:0:0:
105,202,58816,2,0,B|154:265|154:265|92:314,1,150.000005722046
346,293,59888,2,0,L|281:188,1,112.500004291535
203,105,60531,2,0,L|124:123,2,75.0000028610231
59,186,61388,5,12,0:0:0:0:
59,186,61602,1,12,0:0:0:0:
114,247,61816,1,0,0:0:0:0:
114,247,62031,1,12,0:0:0:0:
184,290,62245,6,0,B|270:262|270:262|299:172|249:123,1,225.000008583069
316,75,63102,2,0,B|270:53|270:53|236:68|236:68|201:52|201:52|172:75|172:75|101:41,1,225.000008583069
141,212,64174,2,0,L|210:273,1,75.0000028610231,0|0,0:0|1:0,0:0:0:0:
272,295,64602,2,0,B|273:204|273:204|284:180|284:180|258:155|258:155|280:130|280:130|251:99|251:99|295:35,1,300.000011444092
348,100,65674,6,0,B|413:144|413:144|481:104,1,150.000005722046
231,155,66745,2,0,L|180:221,1,75.0000028610231,2|0,0:1|1:0,0:0:0:0:
320,309,67388,6,0,B|345:265|345:265|319:235|319:235|337:201|337:201|320:185,1,150.000005722046
274,118,68031,1,0,0:0:0:0:
122,54,68459,2,0,L|65:108,1,75.0000028610231
112,264,69102,6,0,B|163:335|163:335|231:276|301:285,1,225.000008583069
369,276,69959,2,0,B|402:238|402:238|400:197|400:197|428:173|428:173|427:135|427:135|474:90,1,225.000008583069
306,67,71031,2,0,L|226:76,1,75.0000028610231
67,95,71674,2,0,B|45:141|45:141|71:171|71:171|55:203|55:203|77:233|77:233|50:298,1,225.000008583069
135,279,72531,2,0,L|207:228,2,75.0000028610231
382,292,73602,2,0,L|422:226,1,75.0000028610231,2|0,0:1|0:0,0:0:0:0:
312,102,74245,6,0,B|249:45|249:45|176:77,1,150.000005722046
285,299,75316,2,0,L|232:227,1,75.0000028610231,0|0,0:0|1:0,0:0:0:0:
98,153,75959,5,4,0:0:0:0:
102,235,76174,2,0,P|128:291|168:324,1,112.500004291535,0|0,0:0|1:0,0:0:0:0:
190,244,76709,5,4,0:0:0:0:
218,214,76816,2,0,P|273:246|288:268,1,75.0000028610231,0|0,0:0|1:0,0:0:0:0:
351,294,77245,2,0,L|374:220,1,75.0000028610231,2|0,0:1|0:0,0:0:0:0:
512,297,77888,2,0,L|489:223,1,75.0000028610231,2|0,0:1|0:0,0:0:0:0:
437,161,78316,6,0,B|395:82|395:82|364:94|364:94|330:79|330:79|297:96|297:96|191:61,1,300.000011444092
117,73,79388,2,0,L|64:126,2,75.0000028610231
169,137,80031,2,0,B|237:190|221:278|220:278|220:278|304:271,1,225.000008583069
452,262,81102,6,0,B|496:201|496:201|458:122,1,150.000005722046
400,79,81745,1,4,0:0:0:0:
240,120,82174,2,0,B|199:182|199:182|234:260,1,150.000005722046,0|12,0:0|0:0,0:0:0:0:
140,315,83031,5,4,0:0:0:0:
97,213,83459,2,0,L|82:181,1,25
109,140,83781,1,0,0:0:0:0:
161,76,84102,2,0,P|279:54|312:68,1,150,0|0,0:0|1:0,0:0:0:0:
360,157,85174,2,0,P|310:210|281:217,1,100
141,136,86031,6,0,B|61:120|13:56|13:56|-3:136,1,225.000008583069
49,190,86888,2,0,L|129:222,1,75.0000028610231
195,246,87316,2,0,L|275:230,2,75.0000028610231
357,213,88174,2,0,L|441:192,1,75.0000028610231
362,146,88602,2,0,B|277:129|277:129|239:94|239:94|183:103|183:103|145:67|145:67|88:63,1,300.000011444092,0|12,0:0|0:0,0:0:0:0:
30,154,89888,5,4,0:0:0:0:
139,148,90316,2,0,L|171:138,1,25
215,123,90638,1,0,0:0:0:0:
294,103,90959,2,0,B|395:89|403:163|403:163|353:193|353:193|327:170|327:170|243:170|224:229|224:229|251:249|251:249|237:303,1,450
160,329,93102,6,0,B|98:285|98:285|129:212,1,150.000005722046
67,159,93745,2,0,L|123:104,1,75.0000028610231
45,72,94174,2,0,L|119:31,1,75.0000028610231
275,44,94816,6,0,B|337:88|337:88|306:161,1,150.000005722046
381,193,95459,2,0,L|324:247,1,75.0000028610231
398,285,95888,2,0,L|323:325,1,75.0000028610231
276,318,96316,5,12,0:0:0:0:
173,278,96745,1,12,0:0:0:0:
197,170,97174,2,0,L|232:160,1,25
275,155,97495,1,8,0:0:0:0:
357,147,97816,2,0,B|435:81|395:28|395:28|330:41|330:41|313:87|313:87|236:122|210:108|210:108|217:57|217:57|183:28,1,450
148,39,99852,6,0,B|101:108|101:108|100:142|100:142|58:139|58:139|58:139|58:139|41:173|23:229|70:255|70:255|99:235|99:235|99:283|99:283|141:250|141:250|196:288|269:245,1,562.500021457673
298,216,101566,2,0,B|250:152|250:152|218:136|218:136|250:120|250:120|234:88|234:88|298:56|338:82,1,262.500010013581
419,180,103174,5,12,0:0:0:0:
327,241,103602,1,4,0:0:0:0:
217,253,104031,2,0,L|185:250,1,25
145,221,104352,1,8,0:0:0:0:
141,303,104674,2,0,B|58:245|41:196|41:196|91:171|91:171|63:129|63:129|101:70|149:78|149:78|180:32|180:32|228:48,1,450
256,192,106816,12,0,110031,0:0:0:0:
235,176,116888,5,8,0:0:0:0:
287,79,117316,1,8,0:0:0:0:
388,122,117745,2,0,B|421:189|421:189|378:263,1,150
226,200,119031,6,0,L|201:153,2,50
155,243,119781,1,0,0:0:0:0:
112,172,120102,1,0,0:0:0:0:
102,117,120316,1,8,0:0:0:0:
211,125,120745,5,8,0:0:0:0:
316,91,121174,1,8,0:0:0:0:
398,97,121495,1,0,0:0:0:0:
377,176,121816,1,8,0:0:0:0:
212,164,122459,6,0,L|253:126,2,50
148,217,123209,1,0,0:0:0:0:
109,289,123531,1,0,0:0:0:0:
162,303,123745,1,12,0:0:0:0:
271,297,124174,5,8,0:0:0:0:
378,276,124602,2,0,B|428:221|428:221|416:139,1,150
258,100,125888,6,4,L|197:78,2,50,4|4|4,3:0|3:0|3:0,3:0:0:0:
308,165,126638,1,4,3:0:0:0:
231,196,126959,2,4,L|164:172,1,50,4|4,3:0|3:0,3:0:0:0:
91,238,127602,6,0,L|115:283,2,50
85,155,128352,1,0,0:0:0:0:
135,89,128674,1,8,0:0:0:0:
352,120,129531,6,0,L|319:70,2,50
360,146,130066,1,8,0:0:0:0:
353,228,130388,1,8,0:0:0:0:
311,264,130602,5,12,0:0:0:0:
232,186,131031,1,12,0:0:0:0:
153,109,131459,1,12,0:0:0:0:
73,32,131888,1,12,0:0:0:0:
256,192,132316,12,0,135745,0:0:0:0:
192,112,137674,6,0,L|112:80,2,75.0000028610231
274,115,138316,2,0,B|330:167|330:167|314:200|314:200|345:222|345:222|331:257|331:257|417:329,1,300.000011444092
251,313,139602,2,0,L|219:233,1,75.0000028610231
190,319,140031,2,0,B|142:255|142:255|110:239|110:239|94:207|94:207|46:191|46:191|78:95,1,300.000011444092
155,74,141102,2,0,L|235:58,2,75.0000028610231
153,156,141745,2,0,B|233:172|281:236|281:236|313:156,1,225.000008583069
431,62,142816,6,0,L|479:-2,2,75.0000028610231
348,62,143459,2,0,B|289:118|284:198|284:198|213:149,1,225.000008583069
71,98,144531,6,0,L|119:34,2,75.0000028610231
52,178,145174,2,0,B|116:226|116:226|148:226|148:226|164:274|164:274|196:274|196:274|292:226,1,300.000011444092
446,175,146459,2,0,L|398:111,1,75.0000028610231
333,67,146888,2,0,B|269:115|269:115|253:147|253:147|205:163|205:163|189:195|189:195|93:163,1,300.000011444092
55,92,147959,2,0,L|135:60,2,75.0000028610231
9,161,148602,2,0,B|73:209|73:273|73:273|137:209,1,225.000008583069
261,99,149674,6,0,B|299:70|299:70|334:73|334:73|359:51|359:51|409:54,1,150.000005722046
443,117,150316,1,12,0:3:0:0:
349,253,150745,2,0,L|273:282,1,75.0000028610231
180,146,151388,6,0,L|101:126,2,75.0000028610231
251,188,152031,2,0,B|307:140|307:140|345:141|345:141|380:162|380:162|384:198|384:198|365:229|365:229|291:255,1,300.000011444092
129,247,153316,2,0,L|206:225,1,75.0000028610231
144,165,153745,2,0,B|228:133|228:133|267:137|267:137|292:110|292:110|326:114|326:114|394:39,1,300.000011444092
441,106,154816,2,0,L|475:180,2,75.0000028610231
366,143,155459,2,0,B|310:191|299:266|299:266|226:226,1,225.000008583069
81,147,156531,6,0,L|1:123,2,75.0000028610231
119,220,157174,2,0,B|175:268|186:343|186:343|259:303,1,225.000008583069
145,95,164888,5,12,0:0:0:0:
333,58,165316,1,12,0:0:0:0:
192,190,165745,2,0,L|139:207,1,43.7500004172325
241,235,166066,1,4,0:0:0:0:
100,268,166388,2,0,B|191:378|328:288|328:288|416:299|416:299|473:273|473:273|459:153|396:80,1,612.500005841255
348,166,168102,1,0,0:0:0:0:
272,107,168316,1,12,0:0:0:0:
82,74,168745,5,12,0:0:0:0:
227,200,169174,2,0,L|256:237,1,43.7500004172325
158,224,169495,1,4,0:0:0:0:
50,320,169816,2,0,B|151:360|277:285|277:285|328:174|328:174|323:170|323:170|196:19|24:132,1,700.00000667572
112,175,171745,5,12,0:0:0:0:
292,241,172174,1,12,0:0:0:0:
468,165,172602,2,0,L|495:121,1,43.7500004172325
428,54,172924,1,4,0:0:0:0:
304,129,173245,2,0,B|424:252|257:333|257:333|195:273|195:273|103:382|-16:252|98:185,1,612.500005841255,0|12,0:0|0:0,0:0:0:0:
163,138,174959,1,8,0:0:0:0:
91,73,175174,1,12,0:0:0:0:
283,63,175602,5,12,0:0:0:0:
471,104,176031,2,0,L|423:124,1,43.7500004172325
337,144,176352,1,4,0:0:0:0:
255,128,176674,2,0,B|184:202|308:334|308:334|346:211|468:230,1,450,0|12,0:0|0:0,0:0:0:0:
276,213,179031,5,12,0:0:0:0:
448,127,179459,2,0,L|402:106,1,43.7500004172325
311,108,179781,1,4,0:0:0:0:
169,81,180102,2,0,B|70:174|164:306|164:306|194:275|215:214|215:214|316:288|469:266,1,612.500005841255,0|8,0:0|0:0,0:0:0:0:
479,173,181816,1,8,0:0:0:0:
393,128,182031,1,12,0:0:0:0:
217,49,182459,5,12,0:0:0:0:
397,117,182888,2,0,L|346:137,1,43.7500004172325
261,150,183209,1,4,0:0:0:0:
116,157,183531,2,0,B|247:210|374:144|374:144|450:197|450:197|330:329|136:264,1,700.00000667572
65,201,185459,5,12,0:0:0:0:
171,40,185888,1,12,0:0:0:0:
360,64,186316,2,0,L|306:92,1,43.7500004172325
231,119,186638,1,4,0:0:0:0:
97,174,186959,2,0,B|160:321|270:350|270:350|351:291|351:291|254:184|380:62,1,612.500005841255,0|12,0:0|0:0,0:0:0:0:
422,150,188674,1,8,0:0:0:0:
389,240,188888,1,12,0:0:0:0:
239,119,189316,5,12,0:0:0:0:
60,47,189745,2,0,L|103:74,1,43.7500004172325
151,149,190066,1,4,0:0:0:0:
256,192,190388,12,0,192316,0:0:0:0:
