osu file format v14

[General]
AudioFilename: audio.mp3
AudioLeadIn: 0
PreviewTime: 64344
Countdown: 1
SampleSet: Soft
StackLeniency: 0.7
Mode: 0
LetterboxInBreaks: 0
WidescreenStoryboard: 0

[Editor]
Bookmarks: 124344
DistanceSpacing: 0.6
BeatDivisor: 4
GridSize: 8
TimelineZoom: 2.3

[Metadata]
Title:Purple People Eater
TitleUnicode:Purple People Eater
Artist:Pegboard Nerds
ArtistUnicode:Pegboard Nerds
Creator:DCVLIVE
Version:UV
Source:
Tags:
BeatmapID:1767882
BeatmapSetID:845150

[Difficulty]
HPDrainRate:6
CircleSize:4.1
OverallDifficulty:8
ApproachRate:9
SliderMultiplier:1.8
SliderTickRate:1

[Events]
//Background and Video events
0,0,"Puplepeopleeater.jpg",0,0
//Break Periods
2,130544,135744
//Storyboard Layer 0 (Background)
//Storyboard Layer 1 (Fail)
//Storyboard Layer 2 (Pass)
//Storyboard Layer 3 (Foreground)
//Storyboard Sound Samples

[TimingPoints]
1344,375,4,2,0,55,1,0
7531,-100,4,2,0,8,0,0
34344,-100,4,2,0,55,0,0
38094,-83.3333333333333,4,2,0,55,0,0
38469,-71.4285714285714,4,2,0,55,0,0
70344,-41.6666666666667,4,2,0,55,0,1
71844,-62.5,4,2,0,55,0,1
73344,-41.6666666666667,4,2,0,55,0,1
74844,-62.5,4,2,0,55,0,1
76344,-41.6666666666667,4,2,0,55,0,1
77844,-62.5,4,2,0,55,0,1
79344,-62.5,4,2,0,55,0,0
82344,-41.6666666666667,4,2,0,55,0,1
83844,-62.5,4,2,0,55,0,1
85344,-41.6666666666667,4,2,0,55,0,1
86844,-62.5,4,2,0,55,0,1
88344,-41.6666666666667,4,2,0,55,0,1
89844,-62.5,4,2,0,55,0,1
91344,-62.5,4,2,0,55,0,0
94344,-71.4285714285714,4,2,0,55,0,0
106344,-41.6666666666667,4,2,0,55,0,1
107844,-62.5,4,2,0,55,0,1
109344,-41.6666666666667,4,2,0,55,0,1
110844,-62.5,4,2,0,55,0,1
112344,-41.6666666666667,4,2,0,55,0,1
113844,-62.5,4,2,0,55,0,1
115344,-41.6666666666667,4,2,0,55,0,1
116844,-62.5,4,2,0,55,0,1
118344,-200,4,2,0,55,0,1
119094,-41.6666666666667,4,2,0,55,0,1
119844,-62.5,4,2,0,55,0,1
121344,-41.6666666666667,4,2,0,55,0,1
122844,-62.5,4,2,0,55,0,1
124344,-41.6666666666667,4,2,0,55,0,1
125844,-62.5,4,2,0,55,0,1
127344,-62.5,4,2,0,55,0,0
136344,-100,4,2,0,8,0,0
160344,-100,4,2,0,55,0,0
164094,-83.3333333333333,4,2,0,55,0,0
164469,-71.4285714285714,4,2,0,55,0,0
196344,-33.3333333333333,4,2,0,55,0,1
197844,-52.6315789473684,4,2,0,55,0,1
198969,-100,4,2,0,5,0,1
199344,-33.3333333333333,4,2,0,55,0,1
200844,-52.6315789473684,4,2,0,55,0,1
202344,-33.3333333333333,4,2,0,55,0,1
203844,-52.6315789473684,4,2,0,55,0,1
205344,-62.5,4,2,0,55,0,0
208344,-33.3333333333333,4,2,0,55,0,1
209844,-52.6315789473684,4,2,0,55,0,1
210969,-100,4,2,0,5,0,1
211344,-33.3333333333333,4,2,0,55,0,1
212844,-52.6315789473684,4,2,0,55,0,1
214344,-33.3333333333333,4,2,0,55,0,1
215844,-52.6315789473684,4,2,0,55,0,1
217344,-62.5,4,2,0,55,0,0
232344,-33.3333333333333,4,2,0,55,0,1
233844,-52.6315789473684,4,2,0,55,0,1
235344,-33.3333333333333,4,2,0,55,0,1
236844,-52.6315789473684,4,2,0,55,0,1
238344,-33.3333333333333,4,2,0,55,0,1
239844,-52.6315789473684,4,2,0,55,0,1
241344,-33.3333333333333,4,2,0,55,0,1
242844,-52.6315789473684,4,2,0,55,0,1
244344,-33.3333333333333,4,2,0,55,0,1
245844,-52.6315789473684,4,2,0,55,0,1
247344,-33.3333333333333,4,2,0,55,0,1
248844,-52.6315789473684,4,2,0,55,0,1
250344,-33.3333333333333,4,2,0,55,0,1
251844,-52.6315789473684,4,2,0,55,0,1
253344,-62.5,4,2,0,55,0,0

[HitObjects]
40,56,7578,6,0,P|80:136|40:224,1,180
200,344,8375,2,0,L|392:312,1,180
440,128,9125,6,0,B|336:144|336:144|256:120,1,180
104,152,9875,2,0,B|176:176|176:176|208:208|208:208|272:224,1,180
480,208,10578,6,0,B|528:168|528:80|472:48|472:48|432:80|368:48,1,270
128,16,11515,1,0,0:0:0:0:
248,272,11937,1,0,0:0:0:0:
480,208,12359,5,0,0:0:0:0:
240,96,12781,1,0,0:0:0:0:
192,344,13203,2,0,P|272:360|336:288,1,180
315,52,14094,6,0,P|230:4|153:60,1,180
120,240,14797,2,0,B|184:232|184:232|232:128,1,180
16,144,15594,6,0,L|48:336,1,180
240,352,16437,2,0,P|312:296|400:304,1,180
416,192,17234,6,0,B|328:208|328:208|224:160|224:160|184:88,1,270
400,40,18031,1,0,0:0:0:0:
248,264,18406,1,0,0:0:0:0:
104,32,18781,5,0,0:0:0:0:
368,120,19156,1,0,0:0:0:0:
176,312,19531,2,0,L|128:120,1,180
464,56,20375,6,0,P|424:136|464:224,1,180
304,344,21078,2,0,L|112:312,1,180
64,128,21875,6,0,B|168:144|168:144|248:120,1,180
400,152,22719,2,0,B|328:176|328:176|296:208|296:208|232:224,1,180
24,184,23422,6,0,B|0:120|32:48|32:48|88:32|168:72,1,270
400,152,24407,1,0,0:0:0:0:
104,136,24781,1,0,0:0:0:0:
288,336,25203,5,0,0:0:0:0:
256,56,25578,1,0,0:0:0:0:
80,224,26000,2,0,P|192:232|272:312,1,225
280,80,27031,6,0,P|384:96|288:256,1,360
200,200,27969,2,0,B|136:32,1,180
8,16,28531,6,0,P|72:128|24:264,1,270
144,320,29375,2,0,B|224:288|224:288|288:312,1,135
400,328,29844,2,0,B|384:272|384:272|416:280|456:280|480:248|480:184|464:152|416:136|384:144|360:168|360:168|344:120,1,360
256,192,32094,12,0,33969,0:0:0:0:
416,144,34344,6,0,L|368:224,2,90
240,208,35094,1,0,0:0:0:0:
440,264,35281,1,0,0:0:0:0:
232,112,35469,1,0,0:0:0:0:
288,336,35656,1,0,0:0:0:0:
312,96,35844,2,0,P|272:40|160:64,1,180
57,220,36406,5,0,0:0:0:0:
168,181,36594,1,0,0:0:0:0:
76,102,36781,1,0,0:0:0:0:
57,220,36969,1,0,0:0:0:0:
168,181,37156,1,0,0:0:0:0:
76,102,37344,6,0,L|61:197,1,90
144,344,37719,2,0,L|160:232,1,90
296,104,38094,2,0,L|280:224,1,107.999996704102
440,368,38469,2,0,L|456:232,1,125.999996154785
512,48,38844,6,0,P|456:96|391:76,1,125.999996154785
184,0,39219,1,0,0:0:0:0:
272,184,39406,1,0,0:0:0:0:
440,16,39594,1,0,0:0:0:0:
243,61,39781,1,0,0:0:0:0:
344,280,39969,1,0,0:0:0:0:
408,88,40156,1,0,0:0:0:0:
272,184,40344,6,0,L|240:48,1,125.999996154785
408,88,40719,1,0,0:0:0:0:
448,240,40906,1,0,0:0:0:0:
272,184,41094,2,0,L|240:48,1,125.999996154785
408,88,41469,1,0,0:0:0:0:
448,240,41656,1,0,0:0:0:0:
320,344,41844,6,0,L|176:328,1,125.999996154785
8,160,42219,1,0,0:0:0:0:
208,96,42406,1,0,0:0:0:0:
88,320,42594,1,0,0:0:0:0:
96,104,42781,1,0,0:0:0:0:
304,256,42969,2,0,L|160:240,1,125.999996154785
32,152,43344,6,0,P|22:76|72:29,1,125.999996154785
200,64,43719,2,0,P|272:72|336:56,1,125.999996154785
480,200,44094,2,0,P|408:192|344:208,1,125.999996154785
200,64,44469,1,0,0:0:0:0:
408,0,44656,2,0,P|440:56|416:112,1,125.999996154785
216,216,45031,5,0,0:0:0:0:
416,288,45219,1,0,0:0:0:0:
182,337,45406,2,0,L|222:193,1,125.999996154785
264,24,45781,1,0,0:0:0:0:
344,216,45969,2,0,L|203:217,1,125.999996154785
48,142,46344,6,0,B|24:78|24:78|48:22,1,125.999996154785
264,24,46719,2,0,B|288:88|288:88|264:144,1,125.999996154785
48,142,47094,2,0,B|0:80|48:22,1,125.999996154785
264,24,47469,2,0,B|312:88|264:144,1,125.999996154785
80,248,47844,6,0,P|152:232|224:256,1,125.999996154785
424,360,48219,1,0,0:0:0:0:
368,152,48406,1,0,0:0:0:0:
200,344,48594,1,0,0:0:0:0:
392,256,48781,1,0,0:0:0:0:
184,112,48969,1,0,0:0:0:0:
280,304,49156,1,0,0:0:0:0:
242,56,49344,6,0,P|170:32|114:64,1,125.999996154785
253,146,49719,2,0,P|325:170|381:138,1,125.999996154785
480,24,50094,2,0,B|472:80|472:80|480:112|480:112|472:160,1,125.999996154785
328,256,50469,2,0,L|192:264,1,125.999996154785
64,144,50844,6,0,P|128:168|184:152,1,125.999996154785
408,56,51219,1,0,0:0:0:0:
328,256,51406,1,0,0:0:0:0:
128,88,51594,1,0,0:0:0:0:
336,128,51781,1,0,0:0:0:0:
152,312,51969,1,0,0:0:0:0:
216,104,52156,1,0,0:0:0:0:
452,235,52344,6,0,L|308:259,1,125.999996154785
136,200,52719,2,0,L|280:176,1,125.999996154785
472,264,53094,2,0,L|328:288,1,125.999996154785
156,229,53469,2,0,L|300:205,1,125.999996154785
152,312,53844,6,0,L|8:336,1,125.999996154785
144,104,54219,1,0,0:0:0:0:
344,176,54406,1,0,0:0:0:0:
104,224,54594,1,0,0:0:0:0:
176,24,54781,1,0,0:0:0:0:
304,248,54969,1,0,0:0:0:0:
376,40,55156,1,0,0:0:0:0:
208,216,55344,6,0,P|208:296|256:336,1,125.999996154785
400,280,55719,2,0,P|400:200|360:160,1,125.999996154785
184,40,56094,2,0,B|224:128|224:128|264:136,1,125.999996154785
456,152,56469,1,0,0:0:0:0:
312,56,56656,1,0,0:0:0:0:
304,248,56844,6,0,L|344:376,1,125.999996154785
497,270,57219,2,0,L|449:134,1,125.999996154785
304,248,57594,2,0,L|344:376,1,125.999996154785
497,270,57969,2,0,L|449:134,1,125.999996154785
240,56,58344,5,0,0:0:0:0:
304,248,58531,2,0,L|376:257,1,62.9999980773926
496,272,58719,1,0,0:0:0:0:
432,80,58906,2,0,L|360:71,1,62.9999980773926
240,56,59094,1,0,0:0:0:0:
304,248,59281,2,0,L|376:257,1,62.9999980773926
496,272,59469,1,0,0:0:0:0:
432,80,59656,1,0,0:0:0:0:
404,76,59750,1,0,0:0:0:0:
369,72,59844,1,0,0:0:0:0:
336,68,59937,1,0,0:0:0:0:
304,64,60031,1,0,0:0:0:0:
272,60,60125,1,0,0:0:0:0:
240,56,60219,1,0,0:0:0:0:
48,120,60406,6,0,L|39:192,1,62.9999980773926
24,312,60594,1,0,0:0:0:0:
216,248,60781,2,0,L|225:176,1,62.9999980773926
240,56,60969,1,0,0:0:0:0:
48,120,61156,2,0,L|39:192,1,62.9999980773926
24,312,61344,1,0,0:0:0:0:
216,248,61531,6,0,L|284:223,1,62.9999980773926
408,176,61719,1,0,0:0:0:0:
240,56,61906,2,0,L|171:80,1,62.9999980773926
48,120,62094,1,0,0:0:0:0:
216,248,62281,2,0,L|284:223,1,62.9999980773926
408,176,62469,1,0,0:0:0:0:
240,56,62656,1,0,0:0:0:0:
214,65,62750,1,0,0:0:0:0:
180,77,62844,1,0,0:0:0:0:
150,88,62937,1,0,0:0:0:0:
120,98,63031,1,0,0:0:0:0:
85,108,63125,1,0,0:0:0:0:
48,120,63219,1,0,0:0:0:0:
24,312,63406,6,0,L|96:288,1,62.9999980773926
216,248,63594,1,0,0:0:0:0:
240,56,63781,2,0,L|168:80,1,62.9999980773926
48,120,63969,1,0,0:0:0:0:
24,312,64156,2,0,L|104:288,1,62.9999980773926
216,248,64344,5,0,0:0:0:0:
240,56,64531,1,0,0:0:0:0:
48,120,64719,1,0,0:0:0:0:
256,176,64906,1,0,0:0:0:0:
96,32,65094,1,0,0:0:0:0:
104,256,65281,1,0,0:0:0:0:
240,56,65469,1,0,0:0:0:0:
192,304,65656,1,0,0:0:0:0:
88,112,65844,5,0,0:0:0:0:
344,88,66031,1,0,0:0:0:0:
192,304,66219,1,0,0:0:0:0:
96,32,66406,1,0,0:0:0:0:
344,168,66594,1,0,0:0:0:0:
64,200,66781,1,0,0:0:0:0:
320,320,66969,1,0,0:0:0:0:
208,48,67156,1,0,0:0:0:0:
352,248,68844,6,0,L|360:216,8,31.4999990386963
256,80,69500,1,0,0:0:0:0:
256,112,69594,1,0,0:0:0:0:
472,216,69875,1,0,0:0:0:0:
464,184,69969,1,0,0:0:0:0:
224,305,70344,6,0,P|226:215|153:267,1,215.999993408203
336,128,70719,2,0,B|224:272|224:272|224:328,1,215.999993408203
147,170,71094,2,0,P|216:250|320:272,1,215.999993408203
240,72,71469,2,0,B|180:244|180:244|152:262,1,215.999993408203
23,109,71844,6,0,L|96:96,1,72
168,84,72031,2,0,L|248:71,1,72
320,0,72219,2,0,L|331:74,1,72
344,144,72406,2,0,L|356:224,1,72
440,288,72594,2,0,L|366:299,1,72
296,312,72781,2,0,L|216:324,1,72
144,384,72969,2,0,L|133:310,1,72
120,240,73156,2,0,L|108:160,1,72
168,16,73344,6,0,L|200:240,1,215.999993408203
86,315,73719,2,0,B|262:293|262:293|302:315,1,215.999993408203
344,192,74094,2,0,P|304:88|384:32,1,215.999993408203
464,144,74469,2,0,B|424:216|424:216|424:272|424:272|384:352,1,215.999993408203
256,216,74844,6,0,B|176:144|176:144|160:96,1,144
464,144,75219,1,0,0:0:0:0:
280,304,75406,1,0,0:0:0:0:
374,32,75594,1,0,0:0:0:0:
496,240,75781,1,0,0:0:0:0:
248,88,75969,1,0,0:0:0:0:
488,48,76156,1,0,0:0:0:0:
248,192,76344,6,0,P|152:136|152:40,1,215.999993408203
16,24,76719,2,0,L|40:240,1,215.999993408203
160,336,77094,2,0,L|384:288,1,215.999993408203
408,168,77469,2,0,B|296:192|296:192|200:144,1,215.999993408203
136,24,77844,6,0,P|96:56|80:96,1,72
64,152,78031,2,0,P|72:200|96:232,1,72
152,72,78219,2,0,P|121:113|116:156,1,72
115,214,78406,2,0,P|135:258|166:282,1,72
176,112,78594,2,0,P|157:159|163:202,1,72
177,258,78781,2,0,P|207:295|244:311,1,72
200,144,78969,2,0,P|194:194|211:234,1,72
238,284,79156,2,0,P|277:312|317:317,1,72
288,208,79344,6,0,P|288:152|368:112,1,144
256,24,79719,2,0,L|96:64,1,144
72,176,80094,2,0,P|120:216|104:152,1,144
0,40,80469,1,0,0:0:0:0:
0,224,80656,2,0,B|56:312|56:312|104:328,1,144
288,344,81031,5,0,0:0:0:0:
328,224,81219,2,0,L|240:96,2,144
448,288,81781,1,0,0:0:0:0:
408,160,81969,2,0,P|368:88|392:24,1,144
248,104,82344,6,0,P|144:144|40:88,1,215.999993408203
16,232,82719,2,0,B|99:240|99:240|144:264|144:264|232:272,1,215.999993408203
336,352,83094,2,0,L|320:136,1,215.999993408203
424,64,83469,2,0,P|496:72|416:112,1,215.999993408203
256,32,83844,6,0,L|192:80,1,72
120,128,84031,2,0,L|56:176,1,72
294,211,84219,2,0,L|246:147,1,72
198,75,84406,2,0,L|150:11,1,72
312,48,84594,2,0,L|248:96,1,72
176,144,84781,2,0,L|112:192,1,72
350,227,84969,2,0,L|302:163,1,72
254,91,85156,2,0,L|206:27,1,72
48,104,85344,6,0,B|56:152|32:192|32:192|56:240|56:240|24:280|32:312,1,215.999993408203
144,360,85719,2,0,P|248:320|352:352,1,215.999993408203
456,272,86094,2,0,B|360:256|360:256|328:232|328:232|232:208,1,215.999993408203
184,104,86469,2,0,L|408:160,1,215.999993408203
144,184,86844,6,0,B|32:144|32:144|8:112,1,144
272,0,87219,1,0,0:0:0:0:
512,56,87406,1,0,0:0:0:0:
240,144,87594,1,0,0:0:0:0:
0,88,87781,1,0,0:0:0:0:
192,304,87969,1,0,0:0:0:0:
432,360,88156,1,0,0:0:0:0:
256,224,88344,6,0,P|160:152|200:72,1,215.999993408203
80,0,88719,2,0,L|48:216,1,215.999993408203
104,328,89094,2,0,B|152:280|224:280|272:328|272:328|312:312,1,215.999993408203
374,212,89469,2,0,B|372:155|372:155|332:115|332:115|276:115|276:115|236:147,1,215.999993408203
80,248,89844,6,0,L|104:160,1,72
128,96,90031,2,0,L|152:16,1,72
304,16,90219,2,0,L|280:104,1,72
256,168,90406,2,0,L|232:248,1,72
48,248,90594,2,0,L|72:160,1,72
96,96,90781,2,0,L|120:16,1,72
336,16,90969,2,0,L|312:104,1,72
288,168,91156,2,0,L|264:248,1,72
360,344,91344,6,0,L|400:200,1,144
200,88,91719,2,0,L|152:232,1,144
288,72,92094,2,0,P|240:0|176:0,1,144
154,224,92469,1,0,0:0:0:0:
336,184,92656,1,0,0:0:0:0:
80,144,92844,6,0,P|40:224|64:288,1,144
224,304,93219,2,0,P|264:224|240:160,1,144
80,144,93594,2,0,P|40:224|64:288,1,144
224,304,93969,2,0,P|264:224|240:160,1,144
120,40,94344,6,0,B|184:32|184:32|264:48,1,125.999996154785
456,160,94719,2,0,B|392:168|392:168|312:152,1,125.999996154785
128,72,95094,2,0,B|192:64|192:64|272:80,1,125.999996154785
464,192,95469,2,0,B|400:200|400:200|320:184,1,125.999996154785
168,304,95844,6,0,B|112:304|112:304|40:264,1,125.999996154785
64,6,96219,1,0,0:0:0:0:
128,224,96406,1,0,0:0:0:0:
288,22,96594,1,0,0:0:0:0:
96,110,96781,1,0,0:0:0:0:
304,254,96969,1,0,0:0:0:0:
208,62,97156,1,0,0:0:0:0:
246,310,97344,6,0,B|312:328|312:328|374:302,1,125.999996154785
235,220,97719,2,0,B|176:200|176:200|107:228,1,125.999996154785
8,342,98094,2,0,B|16:286|16:286|8:254|8:254|16:206,1,125.999996154785
160,110,98469,2,0,P|224:120|296:102,1,125.999996154785
424,222,98844,6,0,P|360:198|304:214,1,125.999996154785
80,310,99219,1,0,0:0:0:0:
160,110,99406,1,0,0:0:0:0:
360,278,99594,1,0,0:0:0:0:
152,238,99781,1,0,0:0:0:0:
336,54,99969,1,0,0:0:0:0:
272,262,100156,1,0,0:0:0:0:
36,131,100344,6,0,P|104:112|180:107,1,125.999996154785
352,166,100719,2,0,P|288:184|208:190,1,125.999996154785
16,96,101094,2,0,P|80:80|160:72,1,125.999996154785
332,137,101469,2,0,P|264:160|188:161,1,125.999996154785
320,48,101844,6,0,B|424:32|424:32|464:48,1,125.999996154785
344,262,102219,1,0,0:0:0:0:
144,190,102406,1,0,0:0:0:0:
384,142,102594,1,0,0:0:0:0:
312,342,102781,1,0,0:0:0:0:
184,118,102969,1,0,0:0:0:0:
112,326,103156,1,0,0:0:0:0:
256,192,103344,5,0,0:0:0:0:
280,155,103437,1,0,0:0:0:0:
285,112,103531,1,0,0:0:0:0:
271,70,103625,1,0,0:0:0:0:
240,40,103719,1,0,0:0:0:0:
198,26,103812,1,0,0:0:0:0:
155,33,103906,1,0,0:0:0:0:
119,58,104000,1,0,0:0:0:0:
98,96,104094,1,0,0:0:0:0:
96,144,104187,1,0,0:0:0:0:
120,184,104281,1,0,0:0:0:0:
160,208,104374,1,0,0:0:0:0:
176,248,104468,1,0,0:0:0:0:
152,288,104562,1,0,0:0:0:0:
112,296,104656,1,0,0:0:0:0:
72,272,104749,1,0,0:0:0:0:
48,232,104844,6,0,P|16:168|40:96,1,125.999996154785
224,168,105219,2,0,P|264:232|248:304,1,125.999996154785
48,232,105594,2,0,P|16:168|40:96,1,125.999996154785
224,168,105969,2,0,P|264:232|248:304,1,125.999996154785
112,152,106344,6,0,P|192:72|304:88,1,215.999993408203
376,208,106719,2,0,B|400:64|400:64|456:8,1,215.999993408203
472,160,107094,2,0,B|448:280|448:280|336:312,1,215.999993408203
224,347,107469,2,0,P|264:211|216:163,1,215.999993408203
160,264,107844,6,0,P|120:232|112:192,1,72
112,128,108031,2,0,P|128:88|160:64,1,72
296,152,108219,2,0,P|336:184|344:224,1,72
344,288,108406,2,0,P|328:328|296:352,1,72
184,232,108594,2,0,P|144:200|136:160,1,72
136,96,108781,2,0,P|152:56|184:32,1,72
320,120,108969,2,0,P|360:152|368:192,1,72
368,256,109156,2,0,P|352:296|320:320,1,72
136,336,109344,6,0,L|24:120,1,215.999993408203
112,16,109719,2,0,L|336:40,1,215.999993408203
375,169,110094,2,0,P|327:214|348:123,1,215.999993408203
456,40,110469,2,0,B|448:160|448:160|472:272,1,215.999993408203
312,248,110844,6,0,L|176:160,1,144
436,157,111219,1,0,0:0:0:0:
252,317,111406,1,0,0:0:0:0:
346,45,111594,1,0,0:0:0:0:
468,253,111781,1,0,0:0:0:0:
220,101,111969,1,0,0:0:0:0:
456,40,112156,1,0,0:0:0:0:
304,208,112344,6,0,P|249:273|335:251,1,215.999993408203
354,143,112719,2,0,P|439:135|384:200,1,215.999993408203
304,208,113094,2,0,P|249:142|335:164,1,215.999993408203
354,272,113469,2,0,P|439:280|384:216,1,215.999993408203
224,296,113844,6,0,B|176:312|176:312|136:304,1,72
72,264,114031,2,0,B|56:216|56:216|64:176,1,72
232,256,114219,2,0,B|181:259|181:259|144:240,1,72
93,185,114406,2,0,B|89:134|89:134|108:97,1,72
264,216,114594,2,0,B|214:205|214:205|183:178,1,72
148,111,114781,2,0,B|158:61|158:61|185:30,1,72
296,200,114969,2,0,B|250:177|250:177|228:143,1,72
211,68,115156,2,0,B|233:22|233:22|267:0,1,72
392,128,115344,6,0,B|400:240|400:240|336:328,1,215.999993408203
208,352,115719,2,0,P|120:296|16:344,1,215.999993408203
48,184,116094,2,0,L|272:264,1,215.999993408203
225,128,116469,2,0,P|169:48|153:120,1,215.999993408203
128,248,116844,6,0,P|192:272|248:256,1,125.999996154785
424,88,117219,1,0,0:0:0:0:
344,288,117406,1,0,0:0:0:0:
147,110,117594,1,0,0:0:0:0:
352,160,117781,1,0,0:0:0:0:
200,336,117969,2,0,B|212:317|212:317|206:285|206:285|225:257|225:257|219:226|219:226|238:198|238:198,1,144
338,73,118344,6,0,B|338:108|338:108|353:137|353:137|351:165,1,90
344,288,118906,1,0,0:0:0:0:
224,280,119094,2,0,L|8:96,1,215.999993408203
152,48,119469,2,0,P|256:112|336:72,1,215.999993408203
432,136,119844,6,0,L|408:224,1,72
384,288,120031,2,0,L|360:368,1,72
208,368,120219,2,0,L|232:280,1,72
256,216,120406,2,0,L|280:136,1,72
464,136,120594,2,0,L|440:224,1,72
416,288,120781,2,0,L|392:368,1,72
176,368,120969,2,0,L|200:280,1,72
224,216,121156,2,0,L|248:136,1,72
461,92,121344,6,0,B|438:135|449:180|449:180|411:218|411:218|429:266|411:294,1,215.999993408203
290,305,121719,2,0,B|208:240|208:240|94:233,1,215.999993408203
24,128,122094,2,0,B|120:142|120:142|158:129|158:129|256:136,1,215.999993408203
336,32,122469,2,0,P|221:47|117:15,1,215.999993408203
16,88,122844,6,0,B|0:200|0:200|8:240,1,144
264,336,123219,1,0,0:0:0:0:
80,176,123406,1,0,0:0:0:0:
360,256,123594,1,0,0:0:0:0:
192,80,123781,1,0,0:0:0:0:
128,368,123969,1,0,0:0:0:0:
368,352,124156,1,0,0:0:0:0:
264,336,124344,6,0,P|320:264|440:280,1,215.999993408203
496,152,124719,2,0,B|413:144|413:144|368:120|368:120|280:112,1,215.999993408203
176,32,125094,2,0,L|192:248,1,215.999993408203
88,320,125469,2,0,P|16:312|96:272,1,215.999993408203
256,352,125844,6,0,L|320:304,1,72
392,256,126031,2,0,L|456:208,1,72
218,173,126219,2,0,L|266:237,1,72
314,309,126406,2,0,L|362:373,1,72
200,336,126594,2,0,L|264:288,1,72
336,240,126781,2,0,L|400:192,1,72
162,157,126969,2,0,L|210:221,1,72
258,293,127156,2,0,L|306:357,1,72
440,264,127344,6,0,L|351:143,1,144
125,94,127719,2,0,L|208:220,1,144
167,15,128094,2,0,P|80:8|41:58,1,144
204,213,128469,1,0,0:0:0:0:
268,89,128656,2,0,B|224:80|224:80|120:94,1,144
256,192,129031,12,0,130344,0:0:0:0:
472,328,136344,6,0,P|432:248|472:160,1,180
312,40,137047,2,0,L|120:72,1,180
72,256,137797,6,0,B|176:240|176:240|256:264,1,180
408,232,138640,2,0,B|336:208|336:208|304:176|304:176|240:160,1,180
32,176,139250,6,0,B|-16:216|-16:304|40:336|40:336|80:304|144:336,1,270
384,368,140047,1,0,0:0:0:0:
264,112,140375,1,0,0:0:0:0:
32,176,140844,5,0,0:0:0:0:
272,288,141219,1,0,0:0:0:0:
320,40,141594,2,0,P|240:24|176:96,1,180
197,332,142344,6,0,P|282:380|359:324,1,180
392,144,143094,2,0,B|328:152|328:152|280:256,1,180
496,240,143844,6,0,L|464:48,1,180
272,32,144594,2,0,P|200:88|112:80,1,180
96,192,145344,6,0,B|184:176|184:176|288:224|288:224|328:296,1,270
112,344,146094,1,0,0:0:0:0:
264,120,146469,1,0,0:0:0:0:
408,352,146844,5,0,0:0:0:0:
144,264,147219,1,0,0:0:0:0:
336,72,147594,2,0,L|384:264,1,180
48,328,148344,6,0,P|88:248|48:160,1,180
208,40,149000,2,0,L|400:72,1,180
448,256,149844,6,0,B|344:240|344:240|264:264,1,180
112,232,150594,2,0,B|184:208|184:208|216:176|216:176|280:160,1,180
488,200,151297,6,0,B|512:264|480:336|480:336|424:352|344:312,1,270
112,232,152094,1,0,0:0:0:0:
408,248,152469,1,0,0:0:0:0:
224,48,152844,5,0,0:0:0:0:
256,328,153219,1,0,0:0:0:0:
432,160,153594,2,0,P|320:152|240:72,1,225
232,304,154344,6,0,P|128:288|224:128,1,360
312,184,155187,2,0,B|376:352,1,180
504,368,155844,6,0,P|440:256|488:120,1,270
368,64,156500,2,0,B|288:96|288:96|224:72,1,135
112,56,156875,2,0,B|128:112|128:112|96:104|56:104|32:136|32:200|48:232|96:248|128:240|152:216|152:216|168:264,1,360
256,192,158750,12,0,160156,0:0:0:0:
96,240,160344,6,0,L|144:160,2,90
272,176,161094,1,0,0:0:0:0:
72,120,161281,1,0,0:0:0:0:
280,272,161469,1,0,0:0:0:0:
224,48,161656,1,0,0:0:0:0:
200,288,161844,2,0,P|240:344|352:320,1,180
455,164,162406,5,0,0:0:0:0:
344,203,162594,1,0,0:0:0:0:
436,282,162781,1,0,0:0:0:0:
455,164,162969,1,0,0:0:0:0:
344,203,163156,1,0,0:0:0:0:
436,282,163344,6,0,L|451:187,1,90
368,40,163719,2,0,L|352:152,1,90
216,280,164094,2,0,L|232:160,1,107.999996704102
72,16,164469,2,0,L|56:152,1,125.999996154785
0,336,164844,6,0,P|56:288|121:308,1,125.999996154785
328,384,165219,1,0,0:0:0:0:
240,200,165406,1,0,0:0:0:0:
72,368,165594,1,0,0:0:0:0:
269,323,165781,1,0,0:0:0:0:
168,104,165969,1,0,0:0:0:0:
104,296,166156,1,0,0:0:0:0:
240,200,166344,6,0,L|272:336,1,125.999996154785
104,296,166719,1,0,0:0:0:0:
64,144,166906,1,0,0:0:0:0:
240,200,167094,2,0,L|272:336,1,125.999996154785
104,296,167469,1,0,0:0:0:0:
64,144,167656,1,0,0:0:0:0:
192,40,167844,6,0,L|336:56,1,125.999996154785
504,224,168219,1,0,0:0:0:0:
304,288,168406,1,0,0:0:0:0:
424,64,168594,1,0,0:0:0:0:
416,280,168781,1,0,0:0:0:0:
208,128,168969,2,0,L|352:144,1,125.999996154785
480,232,169344,6,0,P|490:308|440:355,1,125.999996154785
312,320,169719,2,0,P|240:312|176:328,1,125.999996154785
32,184,170094,2,0,P|104:192|168:176,1,125.999996154785
312,320,170469,1,0,0:0:0:0:
104,384,170656,2,0,P|72:328|96:272,1,125.999996154785
296,168,171031,5,0,0:0:0:0:
96,96,171219,1,0,0:0:0:0:
330,47,171406,2,0,L|290:191,1,125.999996154785
248,360,171781,1,0,0:0:0:0:
168,168,171969,2,0,L|309:167,1,125.999996154785
464,242,172344,6,0,B|488:306|488:306|464:362,1,125.999996154785
248,360,172719,2,0,B|224:296|224:296|248:240,1,125.999996154785
464,242,173094,2,0,B|512:304|464:362,1,125.999996154785
248,360,173469,2,0,B|200:296|248:240,1,125.999996154785
432,136,173844,6,0,P|360:152|288:128,1,125.999996154785
88,24,174219,1,0,0:0:0:0:
144,232,174406,1,0,0:0:0:0:
312,40,174594,1,0,0:0:0:0:
120,128,174781,1,0,0:0:0:0:
328,272,174969,1,0,0:0:0:0:
232,80,175156,1,0,0:0:0:0:
270,328,175344,6,0,P|342:352|398:320,1,125.999996154785
259,238,175719,2,0,P|187:214|131:246,1,125.999996154785
32,360,176094,2,0,B|40:304|40:304|32:272|32:272|40:224,1,125.999996154785
184,128,176469,2,0,L|320:120,1,125.999996154785
448,240,176844,6,0,P|384:216|328:232,1,125.999996154785
104,328,177219,1,0,0:0:0:0:
184,128,177406,1,0,0:0:0:0:
384,296,177594,1,0,0:0:0:0:
176,256,177781,1,0,0:0:0:0:
360,72,177969,1,0,0:0:0:0:
296,280,178156,1,0,0:0:0:0:
60,149,178344,6,0,L|204:125,1,125.999996154785
376,184,178719,2,0,L|232:208,1,125.999996154785
40,120,179094,2,0,L|184:96,1,125.999996154785
356,155,179469,2,0,L|212:179,1,125.999996154785
360,72,179844,6,0,L|504:48,1,125.999996154785
368,280,180219,1,0,0:0:0:0:
168,208,180406,1,0,0:0:0:0:
408,160,180594,1,0,0:0:0:0:
336,360,180781,1,0,0:0:0:0:
208,136,180969,1,0,0:0:0:0:
136,344,181156,1,0,0:0:0:0:
304,168,181344,6,0,P|304:88|256:48,1,125.999996154785
112,104,181719,2,0,P|112:184|152:224,1,125.999996154785
328,344,182094,2,0,B|288:256|288:256|248:248,1,125.999996154785
56,232,182469,1,0,0:0:0:0:
200,328,182656,1,0,0:0:0:0:
208,136,182844,6,0,L|168:8,1,125.999996154785
15,114,183219,2,0,L|63:250,1,125.999996154785
208,136,183594,2,0,L|168:8,1,125.999996154785
15,114,183969,2,0,L|63:250,1,125.999996154785
272,328,184344,5,0,0:0:0:0:
208,136,184531,2,0,L|136:127,1,62.9999980773926
16,112,184719,1,0,0:0:0:0:
80,304,184906,2,0,L|152:313,1,62.9999980773926
272,328,185094,1,0,0:0:0:0:
208,136,185281,2,0,L|136:127,1,62.9999980773926
16,112,185469,1,0,0:0:0:0:
80,304,185656,1,0,0:0:0:0:
108,308,185750,1,0,0:0:0:0:
143,312,185844,1,0,0:0:0:0:
176,316,185937,1,0,0:0:0:0:
208,320,186031,1,0,0:0:0:0:
240,324,186125,1,0,0:0:0:0:
272,328,186219,1,0,0:0:0:0:
464,264,186406,6,0,L|473:192,1,62.9999980773926
488,72,186594,1,0,0:0:0:0:
296,136,186781,2,0,L|287:208,1,62.9999980773926
272,328,186969,1,0,0:0:0:0:
464,264,187156,2,0,L|473:192,1,62.9999980773926
488,72,187344,1,0,0:0:0:0:
296,136,187531,6,0,L|228:161,1,62.9999980773926
104,208,187719,1,0,0:0:0:0:
272,328,187906,2,0,L|341:304,1,62.9999980773926
464,264,188094,1,0,0:0:0:0:
296,136,188281,2,0,L|228:161,1,62.9999980773926
104,208,188469,1,0,0:0:0:0:
272,328,188656,1,0,0:0:0:0:
298,319,188750,1,0,0:0:0:0:
332,307,188844,1,0,0:0:0:0:
362,296,188937,1,0,0:0:0:0:
392,286,189031,1,0,0:0:0:0:
427,276,189125,1,0,0:0:0:0:
464,264,189219,1,0,0:0:0:0:
488,72,189406,6,0,L|416:96,1,62.9999980773926
296,136,189594,1,0,0:0:0:0:
272,328,189781,2,0,L|344:304,1,62.9999980773926
464,264,189969,1,0,0:0:0:0:
488,72,190156,2,0,L|408:96,1,62.9999980773926
296,136,190344,5,0,0:0:0:0:
272,328,190531,1,0,0:0:0:0:
464,264,190719,1,0,0:0:0:0:
256,208,190906,1,0,0:0:0:0:
416,352,191094,1,0,0:0:0:0:
408,128,191281,1,0,0:0:0:0:
272,328,191469,1,0,0:0:0:0:
320,80,191656,1,0,0:0:0:0:
424,272,191844,5,0,0:0:0:0:
168,296,192031,1,0,0:0:0:0:
320,80,192219,1,0,0:0:0:0:
416,352,192406,1,0,0:0:0:0:
168,216,192594,1,0,0:0:0:0:
448,184,192781,1,0,0:0:0:0:
192,64,192969,1,0,0:0:0:0:
304,336,193156,1,0,0:0:0:0:
160,136,194844,6,0,L|152:168,8,31.4999990386963
216,344,195500,1,0,0:0:0:0:
216,312,195594,1,0,0:0:0:0:
40,168,195875,1,0,0:0:0:0:
42,206,195969,1,0,0:0:0:0:
336,328,196344,6,0,L|392:48,1,270.000010299683
152,64,196719,2,0,L|96:344,1,270.000010299683
304,328,197094,2,0,L|360:48,1,270.000010299683
184,64,197469,2,0,L|128:344,1,270.000010299683
296,192,197844,6,0,P|272:136|240:112,1,85.4999977169037
184,64,198031,2,0,P|125:46|86:55,1,85.4999977169037
256,232,198219,2,0,P|312:208|336:176,1,85.4999977169037
384,120,198406,2,0,P|401:61|392:22,1,85.4999977169037
216,192,198594,2,0,P|240:248|272:272,1,85.4999977169037
328,320,198781,2,0,P|386:337|425:328,1,85.4999977169037
256,184,198969,2,0,B|216:176|216:176|184:176|184:176|152:168,1,90
80,248,199344,6,0,P|56:336|120:256,1,270.000010299683
88,104,199719,2,0,P|77:5|134:86,1,270.000010299683
256,272,200094,2,0,P|280:359|294:258,1,270.000010299683
264,112,200469,2,0,P|284:14|314:109,1,270.000010299683
168,264,200844,6,0,B|120:248|120:248|96:168|96:168|128:128,1,170.999995433807
456,64,201219,1,0,0:0:0:0:
256,272,201406,1,0,0:0:0:0:
32,24,201594,1,0,0:0:0:0:
296,112,201781,1,0,0:0:0:0:
64,360,201969,1,0,0:0:0:0:
96,72,202156,1,0,0:0:0:0:
360,64,202344,6,0,P|408:200|368:328,1,270.000010299683
168,320,202719,2,0,P|120:184|160:56,1,270.000010299683
312,64,203094,2,0,P|360:200|320:328,1,270.000010299683
200,320,203469,2,0,P|152:184|192:56,1,270.000010299683
280,208,203844,6,0,B|264:256|264:256|224:288,1,85.4999977169037
168,336,204031,2,0,B|122:358|122:358|71:352,1,85.4999977169037
272,168,204219,2,0,B|320:184|320:184|352:224,1,85.4999977169037
400,280,204406,2,0,B|422:325|422:325|416:376,1,85.4999977169037
232,176,204594,2,0,B|248:128|248:128|288:96,1,85.4999977169037
344,48,204781,2,0,B|389:25|389:25|440:31,1,85.4999977169037
240,216,204969,2,0,B|192:200|192:200|160:160,1,85.4999977169037
112,104,205156,2,0,B|89:58|89:58|95:7,1,85.4999977169037
216,144,205344,6,0,P|288:160|312:232,1,144
256,360,205719,2,0,L|96:320,1,144
72,208,206094,2,0,P|120:168|104:232,1,144
0,344,206469,1,0,0:0:0:0:
0,160,206656,2,0,B|56:72|56:72|104:56,1,144
288,40,207031,5,0,0:0:0:0:
328,160,207219,2,0,L|240:288,2,144
448,96,207781,1,0,0:0:0:0:
408,224,207969,2,0,P|368:296|392:360,1,144
164,336,208344,6,0,B|160:232|160:232|200:176|200:176|200:60,1,270.000010299683
204,72,208719,2,0,B|200:165|200:165|164:257|164:257|164:345,1,270.000010299683
164,335,209094,2,0,B|164:272|164:272|204:128|204:128|200:64,1,270.000010299683
199,67,209469,2,0,B|164:335,1,270.000010299683
296,312,209844,6,0,L|304:216,1,85.4999977169037
312,128,210031,2,0,L|320:32,1,85.4999977169037
252,314,210219,2,0,L|235:219,1,85.4999977169037
220,132,210406,2,0,L|203:37,1,85.4999977169037
216,328,210594,2,0,L|163:247,1,85.4999977169037
115,173,210781,2,0,L|62:92,1,85.4999977169037
48,248,210969,2,0,P|96:288|104:320,1,90
248,192,211344,6,0,B|344:80|344:80|480:80,1,270.000010299683
280,224,211719,2,0,B|168:128|168:128|168:-8,1,270.000010299683
288,168,212094,2,0,B|192:280|192:280|56:280,1,270.000010299683
232,160,212469,2,0,B|344:256|344:256|344:392,1,270.000010299683
152,224,212844,6,0,P|136:120|192:64,1,170.999995433807
512,0,213219,1,0,0:0:0:0:
448,280,213406,1,0,0:0:0:0:
173,73,213594,1,0,0:0:0:0:
464,96,213781,1,0,0:0:0:0:
232,352,213969,1,0,0:0:0:0:
173,73,214156,1,0,0:0:0:0:
400,8,214344,6,0,L|344:280,1,270.000010299683
440,336,214719,2,0,L|168:280,1,270.000010299683
112,376,215094,2,0,L|168:104,1,270.000010299683
72,48,215469,2,0,L|344:104,1,270.000010299683
440,336,215844,6,0,L|344:316,1,85.4999977169037
260,300,216031,2,0,L|164:280,1,85.4999977169037
72,48,216219,2,0,L|168:68,1,85.4999977169037
252,84,216406,2,0,L|348:104,1,85.4999977169037
112,376,216594,2,0,L|132:280,1,85.4999977169037
148,196,216781,2,0,L|168:100,1,85.4999977169037
400,8,216969,2,0,L|380:104,1,85.4999977169037
364,188,217156,2,0,L|344:284,1,85.4999977169037
148,196,217344,6,0,L|176:52,1,144
400,8,217719,2,0,L|368:152,1,144
328,336,218094,2,0,B|412:352|412:352|460:312,1,144
368,148,218469,1,0,0:0:0:0:
176,200,218656,1,0,0:0:0:0:
432,232,218844,6,0,P|472:152|448:88,1,144
304,72,219219,2,0,P|264:152|288:216,1,144
432,232,219594,2,0,P|472:152|448:88,1,144
304,72,219969,2,0,P|264:152|288:216,1,144
392,344,220344,6,0,B|328:352|328:352|248:336,1,125.999996154785
56,224,220719,2,0,B|120:216|120:216|200:232,1,125.999996154785
384,312,221094,2,0,B|320:320|320:320|240:304,1,125.999996154785
48,192,221469,2,0,B|112:184|112:184|192:200,1,125.999996154785
344,80,221844,6,0,B|400:80|400:80|472:120,1,125.999996154785
448,378,222219,1,0,0:0:0:0:
384,160,222406,1,0,0:0:0:0:
224,362,222594,1,0,0:0:0:0:
416,274,222781,1,0,0:0:0:0:
208,130,222969,1,0,0:0:0:0:
304,322,223156,1,0,0:0:0:0:
266,74,223344,6,0,B|200:56|200:56|138:82,1,125.999996154785
277,164,223719,2,0,B|336:184|336:184|405:156,1,125.999996154785
504,42,224094,2,0,B|496:98|496:98|504:130|504:130|496:178,1,125.999996154785
352,274,224469,2,0,P|288:264|216:282,1,125.999996154785
88,162,224844,6,0,P|152:186|208:170,1,125.999996154785
432,74,225219,1,0,0:0:0:0:
352,274,225406,1,0,0:0:0:0:
152,106,225594,1,0,0:0:0:0:
360,146,225781,1,0,0:0:0:0:
176,330,225969,1,0,0:0:0:0:
240,122,226156,1,0,0:0:0:0:
476,253,226344,6,0,P|408:272|332:277,1,125.999996154785
160,218,226719,2,0,P|224:200|304:194,1,125.999996154785
496,288,227094,2,0,P|432:304|352:312,1,125.999996154785
180,247,227469,2,0,P|248:224|324:223,1,125.999996154785
192,336,227844,6,0,B|88:352|88:352|48:336,1,125.999996154785
168,122,228219,1,0,0:0:0:0:
368,194,228406,1,0,0:0:0:0:
128,242,228594,1,0,0:0:0:0:
200,42,228781,1,0,0:0:0:0:
328,266,228969,1,0,0:0:0:0:
400,58,229156,1,0,0:0:0:0:
256,192,229344,5,0,0:0:0:0:
232,229,229437,1,0,0:0:0:0:
227,272,229531,1,0,0:0:0:0:
241,314,229625,1,0,0:0:0:0:
272,344,229719,1,0,0:0:0:0:
314,358,229812,1,0,0:0:0:0:
357,351,229906,1,0,0:0:0:0:
393,326,230000,1,0,0:0:0:0:
414,288,230094,1,0,0:0:0:0:
416,240,230187,1,0,0:0:0:0:
392,200,230281,1,0,0:0:0:0:
352,176,230374,1,0,0:0:0:0:
336,136,230468,1,0,0:0:0:0:
360,96,230562,1,0,0:0:0:0:
400,88,230656,1,0,0:0:0:0:
440,112,230749,1,0,0:0:0:0:
464,152,230844,6,0,P|496:216|472:288,1,125.999996154785
288,216,231219,2,0,P|248:152|264:80,1,125.999996154785
464,152,231594,2,0,P|496:216|472:288,1,125.999996154785
288,216,231969,2,0,P|248:152|264:80,1,125.999996154785
408,296,232344,6,0,P|296:352|160:296,1,270.000010299683
0,264,232719,2,0,L|248:144,1,270.000010299683
328,56,233094,2,0,P|392:40|320:104,1,270.000010299683
176,32,233469,2,0,B|160:128|160:128|184:200|184:200|160:312,1,270.000010299683
352,128,233844,6,0,L|256:112,1,85.4999977169037
152,168,234031,2,0,L|56:152,1,85.4999977169037
376,176,234219,2,0,L|280:160,1,85.4999977169037
176,216,234406,2,0,L|80:200,1,85.4999977169037
400,224,234594,2,0,L|304:208,1,85.4999977169037
200,264,234781,2,0,L|104:248,1,85.4999977169037
424,272,234969,2,0,L|328:256,1,85.4999977169037
224,312,235156,2,0,L|128:296,1,85.4999977169037
32,152,235344,6,0,P|24:96|104:168,1,270.000010299683
16,280,235719,2,0,L|288:352,1,270.000010299683
424,280,236094,2,0,L|248:40,1,270.000010299683
80,0,236469,2,0,B|40:120|40:120|72:200|72:200|92:146,1,270.000010299683
264,62,236844,6,0,L|370:206,1,170.999995433807
24,280,237219,1,0,0:0:0:0:
80,0,237406,1,0,0:0:0:0:
365,199,237594,1,0,0:0:0:0:
128,376,237781,1,0,0:0:0:0:
264,62,237969,1,0,0:0:0:0:
352,344,238156,1,0,0:0:0:0:
248,136,238344,6,0,P|200:24|320:8,1,270.000010299683
368,200,238719,2,0,L|96:288,1,270.000010299683
0,168,239094,2,0,P|-16:72|64:144,1,270.000010299683
8,336,239469,2,0,B|104:360|104:360|280:344,1,270.000010299683
432,144,239844,6,0,P|384:128|336:144,1,85.4999977169037
256,248,240031,2,0,P|214:254|174:239,1,85.4999977169037
405,108,240219,2,0,P|355:118|321:155,1,85.4999977169037
282,283,240406,2,0,P|249:310|208:316,1,85.4999977169037
364,90,240594,2,0,P|326:123|316:173,1,85.4999977169037
323,301,240781,2,0,P|308:340|275:367,1,85.4999977169037
320,96,240969,2,0,P|303:144|320:191,1,85.4999977169037
368,296,241156,2,0,P|374:337|359:377,1,85.4999977169037
192,232,241344,6,0,L|464:176,1,270.000010299683
368,32,241719,2,0,L|96:88,1,270.000010299683
32,224,242094,2,0,P|88:288|72:184,1,270.000010299683
8,288,242469,2,0,P|144:312|168:200,1,270.000010299683
80,0,242844,6,0,B|32:80|32:80|64:176,1,170.999995433807
327,352,243219,1,0,0:0:0:0:
384,72,243406,1,0,0:0:0:0:
83,237,243594,1,0,0:0:0:0:
360,216,243781,1,0,0:0:0:0:
32,352,243969,1,0,0:0:0:0:
144,88,244156,1,0,0:0:0:0:
327,352,244344,6,0,L|75:233,1,270.000010299683
66,72,244719,2,0,P|154:8|210:128,1,270.000010299683
144,264,245094,2,0,B|56:224|56:224|128:184|128:184|224:224,1,270.000010299683
328,352,245469,2,0,P|304:184|336:88,1,270.000010299683
128,64,245844,6,0,B|104:112|104:112|112:152,1,85.4999977169037
144,264,246031,2,0,B|150:295|150:295|126:343,1,85.4999977169037
280,192,246219,2,0,B|232:168|232:168|192:176,1,85.4999977169037
80,208,246406,2,0,B|48:214|48:214|0:190,1,85.4999977169037
160,48,246594,2,0,B|136:96|136:96|144:136,1,85.4999977169037
176,248,246781,2,0,B|182:279|182:279|158:327,1,85.4999977169037
312,176,246969,2,0,B|264:152|264:152|224:160,1,85.4999977169037
112,192,247156,2,0,B|80:198|80:198|32:174,1,85.4999977169037
104,88,247344,6,0,B|176:32|176:32|352:72,1,270.000010299683
512,120,247719,2,0,L|264:240,1,270.000010299683
184,328,248094,2,0,P|120:344|192:280,1,270.000010299683
336,352,248469,2,0,B|320:304|352:256|352:256|328:184|328:184|352:136|352:72,1,270.000010299683
173,73,248844,6,0,B|138:104|139:152|139:152|169:179|227:184,1,170.999995433807
512,0,249219,1,0,0:0:0:0:
448,280,249406,1,0,0:0:0:0:
173,73,249594,1,0,0:0:0:0:
464,96,249781,1,0,0:0:0:0:
232,352,249969,1,0,0:0:0:0:
173,73,250156,1,0,0:0:0:0:
448,280,250344,6,0,L|168:256,1,270.000010299683
48,104,250719,2,0,L|328:128,1,270.000010299683
200,288,251094,2,0,B|208:184|208:184|232:120|232:120|240:8,1,270.000010299683
392,48,251469,2,0,B|384:152|384:152|360:216|360:216|352:328,1,270.000010299683
184,352,251844,6,0,L|136:264,1,85.4999977169037
88,168,252031,2,0,L|40:80,1,85.4999977169037
328,32,252219,2,0,L|376:120,1,85.4999977169037
424,216,252406,2,0,L|472:304,1,85.4999977169037
96,120,252594,2,0,L|184:72,1,85.4999977169037
280,24,252781,2,0,L|368:-24,1,85.4999977169037
336,240,252969,2,0,L|248:288,1,85.4999977169037
152,336,253156,2,0,L|64:384,1,85.4999977169037
48,88,253344,6,0,L|137:209,1,144
379,234,253719,2,0,L|296:108,1,144
337,313,254094,2,0,P|424:320|463:270,1,144
300,115,254469,1,0,0:0:0:0:
176,216,254656,1,0,0:0:0:0:
256,192,254844,12,0,256344,0:0:0:0:
256,192,257375,12,0,262156,0:0:0:0:
