osu file format v14

[General]
AudioFilename: audio.mp3
AudioLeadIn: 0
PreviewTime: -1
Countdown: 1
SampleSet: Normal
StackLeniency: 0.7
Mode: 0
LetterboxInBreaks: 0
WidescreenStoryboard: 0

[Editor]
DistanceSpacing: 1.1
BeatDivisor: 4
GridSize: 8
TimelineZoom: 2.3

[Metadata]
Title:Melodymania
TitleUnicode:Melodymania
Artist:Pegboard Nerds
ArtistUnicode:Pegboard Nerds
Creator:MagBlood
Version:Melodymania
Source:
Tags:Electro
BeatmapID:1253434
BeatmapSetID:592391

[Difficulty]
HPDrainRate:6
CircleSize:5
OverallDifficulty:7
ApproachRate:9.3
SliderMultiplier:2.5
SliderTickRate:3

[Events]
//Background and Video events
0,0,"maxresdefault.jpg",0,0
//Break Periods
2,96984,104609
//Storyboard Layer 0 (Background)
//Storyboard Layer 1 (Fail)
//Storyboard Layer 2 (Pass)
//Storyboard Layer 3 (Foreground)
//Storyboard Sound Samples

[TimingPoints]
7664,468.745718296678,4,1,0,100,1,0
9773,-200,4,1,0,100,0,0
10508,-100,4,1,0,100,0,0
12852,-200,4,1,0,100,0,0
14024,-200,4,1,0,100,0,0
15430,-100,4,1,0,100,0,0
18679,-200,4,1,0,100,0,0
22195,-100,4,1,0,100,0,0
25007,-200,4,1,0,100,0,0
25945,-100,4,1,0,100,0,0
28991,-200,4,1,0,100,0,0
30398,-100,4,1,0,100,0,0
36257,-200,4,1,0,100,0,0
37429,-100,4,1,0,100,0,0
39538,-66.6666666666667,4,1,0,100,0,0
40007,-100,4,1,0,100,0,0
41413,-66.6666666666667,4,1,0,100,0,0
41882,-100,4,1,0,100,0,0
43991,-200,4,1,0,100,0,0
45163,-100,4,1,0,100,0,0
48913,-100,4,1,0,100,0,0
50788,-100,4,1,0,100,0,0
53132,-100,4,1,0,100,0,0
66725,-200,4,1,0,100,0,0
68132,-100,4,1,0,100,0,0
95788,-100,4,1,0,100,0,0
96960,-100,4,1,0,100,0,0
123678,-100,4,1,0,100,0,0
128131,-200,4,1,0,100,0,0
129537,-66.6666666666667,4,1,0,100,0,0
130006,-200,4,1,0,100,0,0
131412,-66.6666666666667,4,1,0,100,0,0
132115,-200,4,1,0,100,0,0
133287,-100,4,1,0,100,0,0
152037,-50,4,1,0,100,0,0
152506,-50,4,1,0,100,0,0
153443,-100,4,1,0,100,0,0
155670,-100,4,1,0,100,0,0
183912,-200,4,1,0,100,0,0

[HitObjects]
168,112,7664,5,0,0:0:0:0:
248,224,8132,1,0,0:0:0:0:
296,256,8367,1,0,0:0:0:0:
352,272,8601,1,0,0:0:0:0:
400,256,8836,1,0,0:0:0:0:
424,208,9070,1,0,0:0:0:0:
424,136,9304,2,0,P|384:64|352:80,1,125
328,112,9773,1,0,0:0:0:0:
304,176,10007,2,0,B|288:240|272:264|200:272|208:272,1,125
192,168,10710,5,0,0:0:0:0:
144,80,10945,1,0,0:0:0:0:
240,64,11179,2,0,P|312:40|488:72,1,250
376,112,11882,1,0,0:0:0:0:
400,168,12117,1,0,0:0:0:0:
384,224,12351,1,0,0:0:0:0:
344,264,12585,1,0,0:0:0:0:
264,272,12820,6,0,B|224:264|224:224|160:304|152:272|152:232|136:240|136:232,1,125
144,176,13288,1,0,0:0:0:0:
160,120,13523,1,0,0:0:0:0:
184,104,13757,1,0,0:0:0:0:
256,80,13992,2,0,B|296:96|328:96|344:64|344:56|336:48|336:48|336:40|328:40|312:32|304:32|288:24|272:24|272:48|280:152|320:176,1,312.5
376,288,15632,5,0,0:0:0:0:
392,224,15867,1,0,0:0:0:0:
376,288,16101,1,0,0:0:0:0:
392,224,16335,1,0,0:0:0:0:
368,168,16570,1,0,0:0:0:0:
288,224,16804,2,0,P|272:296|208:272,1,125
136,200,17273,2,0,P|176:192|176:160,2,62.5
240,184,17742,1,0,0:0:0:0:
224,128,17976,1,0,0:0:0:0:
256,80,18210,1,0,0:0:0:0:
296,72,18445,1,0,0:0:0:0:
352,96,18679,6,0,B|372:165|328:200|280:208,1,125
208,256,19382,1,0,0:0:0:0:
176,144,19617,1,0,0:0:0:0:
120,248,19851,1,0,0:0:0:0:
248,184,20085,1,0,0:0:0:0:
112,184,20320,1,0,0:0:0:0:
216,264,20554,1,0,0:0:0:0:
184,192,20788,1,0,0:0:0:0:
200,184,21023,1,0,0:0:0:0:
200,208,21257,1,0,0:0:0:0:
184,200,21491,2,0,B|152:184|152:160|176:136|216:120|232:120,1,125
320,112,22195,5,0,0:0:0:0:
376,136,22429,1,0,0:0:0:0:
400,184,22664,1,0,0:0:0:0:
336,248,22898,2,0,P|296:304|240:288,1,125
168,240,23366,1,0,0:0:0:0:
184,176,23601,2,0,P|240:144|224:80,1,125
192,64,24070,2,0,P|264:32|296:72,1,125
368,120,24538,1,0,0:0:0:0:
400,200,24773,1,0,0:0:0:0:
320,272,25007,2,0,B|272:288|248:304|256:312|264:320|272:328|272:344|264:352|248:352|248:352|240:352|232:336|232:336|224:320|224:320|224:312|216:296|192:288,1,187.5
184,232,25945,1,0,0:0:0:0:
184,152,26179,1,0,0:0:0:0:
208,72,26413,1,0,0:0:0:0:
320,72,26648,6,0,P|392:88|424:144,1,125
408,224,27116,1,0,0:0:0:0:
320,296,27351,1,0,0:0:0:0:
184,296,27585,1,0,0:0:0:0:
88,208,27820,1,0,0:0:0:0:
136,104,28054,2,0,P|184:56|248:56,1,125
336,88,28523,1,0,0:0:0:0:
328,112,28757,1,0,0:0:0:0:
296,248,28991,6,0,B|304:288|320:296|352:304|352:312|352:320|352:336|352:336|344:352|336:352|288:352|248:344|176:272,1,312.5
128,240,30398,2,0,P|80:184|96:136,1,125
160,104,30866,1,0,0:0:0:0:
240,72,31101,1,0,0:0:0:0:
328,96,31335,1,0,0:0:0:0:
312,184,31570,1,0,0:0:0:0:
328,96,31804,1,0,0:0:0:0:
400,64,32038,6,0,P|456:112|448:176,1,125
400,224,32507,2,0,P|320:216|288:176,1,125
232,120,32976,1,0,0:0:0:0:
112,88,33210,1,0,0:0:0:0:
128,224,33445,1,0,0:0:0:0:
232,120,33679,1,0,0:0:0:0:
112,88,33913,1,0,0:0:0:0:
112,88,34148,2,0,P|184:64|256:88,1,125
304,128,34616,1,0,0:0:0:0:
296,160,34734,1,0,0:0:0:0:
272,184,34851,1,0,0:0:0:0:
192,240,35085,1,0,0:0:0:0:
280,320,35319,1,0,0:0:0:0:
368,280,35554,2,0,P|424:224|416:176,1,125
368,112,36023,5,0,0:0:0:0:
272,72,36257,2,0,B|192:160|144:24|96:88|96:88|72:136,1,250
48,264,37429,1,0,0:0:0:0:
264,192,37663,2,0,P|192:224|136:208,1,125
96,72,38132,6,0,B|120:56|160:64|184:64|208:64|208:64|208:56|240:104,1,125
312,104,38601,2,0,P|352:160|296:200,1,125
232,240,39069,1,0,0:0:0:0:
104,240,39304,1,0,0:0:0:0:
176,152,39538,2,0,P|235:80|273:151,1,187.500007152558
280,152,40007,1,0,0:0:0:0:
368,200,40241,1,0,0:0:0:0:
440,128,40476,1,0,0:0:0:0:
384,80,40710,2,0,P|312:48|256:64,1,125
168,104,41179,5,0,0:0:0:0:
168,272,41413,2,0,P|240:336|256:240,1,187.500007152558
288,224,41882,1,0,0:0:0:0:
376,280,42116,1,0,0:0:0:0:
256,328,42351,1,0,0:0:0:0:
408,144,42585,1,0,0:0:0:0:
296,128,42819,1,0,0:0:0:0:
192,136,43054,1,0,0:0:0:0:
112,272,43288,5,0,0:0:0:0:
256,96,43523,1,0,0:0:0:0:
304,296,43757,1,0,0:0:0:0:
216,96,43991,2,0,B|240:128|248:160|248:176|240:208|224:216|192:200|184:200|152:168|168:160|216:144|272:144,1,250
384,72,45163,2,0,L|344:128,2,62.5
320,192,45632,1,0,0:0:0:0:
208,320,45866,2,0,L|256:272,2,62.5
176,192,46335,1,0,0:0:0:0:
64,192,46569,1,0,0:0:0:0:
192,80,46804,2,0,L|248:112,2,62.5
320,144,47273,5,0,0:0:0:0:
400,200,47507,1,0,0:0:0:0:
328,280,47741,2,0,L|256:312,2,62.5
184,272,48210,1,0,0:0:0:0:
240,64,48444,1,0,0:0:0:0:
72,64,48679,1,0,0:0:0:0:
120,176,48913,1,0,0:0:0:0:
162,195,49030,1,0,0:0:0:0:
206,211,49147,1,0,0:0:0:0:
252,222,49264,1,0,0:0:0:0:
298,227,49381,1,0,0:0:0:0:
345,226,49498,1,0,0:0:0:0:
392,248,49616,1,0,0:0:0:0:
368,288,49733,1,0,0:0:0:0:
328,311,49850,1,0,0:0:0:0:
282,319,49967,1,0,0:0:0:0:
235,318,50084,1,0,0:0:0:0:
189,311,50201,1,0,0:0:0:0:
152,272,50319,1,0,0:0:0:0:
150,225,50436,1,0,0:0:0:0:
170,183,50553,1,0,0:0:0:0:
203,150,50670,1,0,0:0:0:0:
240,120,50788,6,0,L|272:96,20,31.25
352,208,52194,2,0,B|384:232|400:208|408:232|392:264|360:272|336:256,1,125
256,240,52663,1,0,0:0:0:0:
264,96,52897,1,0,0:0:0:0:
352,80,53132,2,0,P|408:120|400:192,1,125
280,248,53601,2,0,P|192:232|160:192,1,125
240,56,54069,1,0,0:0:0:0:
368,296,54304,1,0,0:0:0:0:
104,176,54538,1,0,0:0:0:0:
192,104,54772,2,0,P|272:64|328:80,1,125
368,160,55241,2,0,P|360:232|312:288,1,125
176,304,55710,1,0,0:0:0:0:
288,96,55944,1,0,0:0:0:0:
184,96,56179,2,0,P|128:136|104:200,1,125
152,280,56647,5,0,0:0:0:0:
400,248,56882,2,0,P|416:184|384:128,1,125
136,96,57351,2,0,P|104:160|128:216,1,125
256,280,57820,1,0,0:0:0:0:
256,64,58054,1,0,0:0:0:0:
248,184,58288,2,0,P|168:192|104:152,1,125
200,48,58757,2,0,P|288:32|352:56,1,125
424,128,59226,2,0,B|416:160|384:192|320:112|288:192|344:256|440:280|224:240,1,250
136,216,59929,5,0,0:0:0:0:
216,56,60163,1,0,0:0:0:0:
336,64,60397,2,0,P|400:80|456:120,1,125
288,344,60866,2,0,P|224:304|192:248,1,125
200,176,61335,1,0,0:0:0:0:
400,216,61569,1,0,0:0:0:0:
296,192,61804,1,0,0:0:0:0:
320,72,62038,6,0,P|232:48|160:56,1,125
80,224,62507,2,0,P|144:280|208:304,1,125
328,280,62975,1,0,0:0:0:0:
392,208,63210,1,0,0:0:0:0:
384,48,63444,2,0,P|304:64|272:104,1,125
272,288,63913,2,0,P|336:256|360:200,1,125
64,48,64382,2,0,L|160:128,1,125
152,288,64850,1,0,0:0:0:0:
264,104,65085,1,0,0:0:0:0:
304,192,65319,6,0,P|384:200|400:248,1,125
336,344,65788,2,0,P|256:344|216:304,1,125
136,232,66257,1,0,0:0:0:0:
168,96,66491,1,0,0:0:0:0:
272,80,66725,2,0,B|368:80|440:136|464:248,1,250
80,56,68132,5,0,0:0:0:0:
184,64,68366,2,0,P|256:72|312:112,1,125
360,128,68835,1,0,0:0:0:0:
288,216,69069,1,0,0:0:0:0:
416,208,69304,1,0,0:0:0:0:
432,304,69538,2,0,P|360:336|304:328,1,125
224,96,70007,2,0,P|288:64|384:72,1,125
336,240,70475,1,0,0:0:0:0:
224,96,70710,1,0,0:0:0:0:
416,304,70944,2,0,B|344:328|264:328|200:312|136:304,1,250
416,64,71647,6,0,P|336:72|272:96,1,125
128,168,72115,1,0,0:0:0:0:
176,280,72350,1,0,0:0:0:0:
304,312,72584,1,0,0:0:0:0:
400,120,72819,2,0,P|344:80|288:72,1,125
408,64,73287,2,0,P|448:112|432:176,1,125
144,328,73756,2,0,P|96:280|96:216,1,125
160,96,74225,2,0,B|216:56|224:64|240:80|280:96|312:96|304:72|304:56|344:56|384:64|408:80,1,250
448,160,74929,1,0,0:0:0:0:
408,304,75163,2,0,P|320:336|240:336,1,125
120,296,75632,6,0,P|64:232|72:192,1,125
256,80,76100,2,0,P|344:80|400:120,1,125
360,256,76569,1,0,0:0:0:0:
104,80,76803,1,0,0:0:0:0:
176,272,77038,2,0,P|96:272|72:240,1,125
328,32,77507,2,0,P|400:64|416:120,1,125
384,240,77975,1,0,0:0:0:0:
328,32,78210,1,0,0:0:0:0:
192,48,78444,2,0,P|96:64|48:104,1,125
64,200,78913,1,0,0:0:0:0:
120,296,79147,2,0,P|200:312|256:288,1,125
336,264,79616,5,0,0:0:0:0:
432,80,79850,1,0,0:0:0:0:
264,184,80085,1,0,0:0:0:0:
440,208,80319,1,0,0:0:0:0:
320,104,80553,1,0,0:0:0:0:
288,344,80788,6,0,P|192:336|144:312,1,125
64,184,81257,2,0,P|64:112|120:80,1,125
432,64,81725,2,0,P|448:128|448:208,1,125
408,304,82194,1,0,0:0:0:0:
256,152,82428,1,0,0:0:0:0:
200,296,82663,1,0,0:0:0:0:
139,295,82780,1,0,0:0:0:0:
104,246,82897,1,0,0:0:0:0:
72,112,83132,2,0,B|88:80|96:72|104:72|192:72,1,125
280,112,83600,1,0,0:0:0:0:
368,232,83835,1,0,0:0:0:0:
280,320,84069,6,0,B|264:328|264:328|256:328|248:320|240:320|240:312|248:296|144:280,1,125
120,224,84538,1,0,0:0:0:0:
160,112,84772,1,0,0:0:0:0:
272,80,85007,2,0,B|312:72|352:80|392:120,1,125
408,224,85475,1,0,0:0:0:0:
336,272,85710,1,0,0:0:0:0:
224,296,85944,2,0,B|184:312|144:320|88:296,1,125
40,264,86413,1,0,0:0:0:0:
216,40,86647,1,0,0:0:0:0:
224,296,86882,2,0,P|288:312|352:264,1,125
368,64,87350,1,0,0:0:0:0:
312,80,87585,1,0,0:0:0:0:
280,128,87819,1,0,0:0:0:0:
376,248,88053,5,0,0:0:0:0:
96,128,88288,2,0,P|96:200|152:240,1,125
480,208,88757,2,0,P|440:152|392:120,1,125
128,32,89225,2,0,B|128:104|127:153|232:256,1,250
320,304,89928,1,0,0:0:0:0:
448,64,90163,1,0,0:0:0:0:
320,152,90397,2,0,B|288:128|256:128|232:112|240:88|200:96,1,125
72,72,90866,1,0,0:0:0:0:
424,320,91100,1,0,0:0:0:0:
424,320,91335,5,0,0:0:0:0:
376,136,91569,1,0,0:0:0:0:
168,304,91803,1,0,0:0:0:0:
296,88,92038,2,0,P|240:56|176:56,1,125
48,152,92506,2,0,P|48:224|88:272,1,125
232,304,92975,1,0,0:0:0:0:
320,304,93210,2,0,P|376:272|384:208,1,125
368,160,93678,2,0,L|368:88,7,62.5
328,56,94616,1,0,0:0:0:0:
266,46,94733,1,0,0:0:0:0:
204,53,94850,1,0,0:0:0:0:
146,76,94967,1,0,0:0:0:0:
99,117,95084,1,0,0:0:0:0:
69,171,95201,1,0,0:0:0:0:
66,233,95319,1,0,0:0:0:0:
94,288,95436,1,0,0:0:0:0:
143,326,95553,1,0,0:0:0:0:
202,348,95670,1,0,0:0:0:0:
256,352,95788,6,0,L|288:352,17,31.25
96,80,105163,5,0,0:0:0:0:
176,88,105397,2,0,P|208:80|288:128,1,125
336,192,105866,1,0,0:0:0:0:
416,120,106100,1,0,0:0:0:0:
432,240,106334,2,0,P|416:304|352:320,1,125
264,312,106803,1,0,0:0:0:0:
136,264,107038,1,0,0:0:0:0:
96,168,107272,6,0,P|80:88|120:72,1,125
336,192,107741,2,0,P|368:136|328:80,1,125
288,72,108209,1,0,0:0:0:0:
192,80,108444,1,0,0:0:0:0:
288,72,108678,1,0,0:0:0:0:
64,96,108913,1,0,0:0:0:0:
64,96,109147,6,0,P|96:160|104:176,2,62.5
64,96,109616,1,0,0:0:0:0:
136,200,109850,1,0,0:0:0:0:
216,288,110084,2,0,P|272:328|336:304,1,125
376,272,110553,1,0,0:0:0:0:
376,184,110788,1,0,0:0:0:0:
328,112,111022,2,0,P|264:40|200:24,1,125
72,144,111491,6,0,P|144:192|208:192,1,125
264,208,111959,1,0,0:0:0:0:
320,288,112194,1,0,0:0:0:0:
264,208,112428,1,0,0:0:0:0:
104,304,112663,5,0,0:0:0:0:
104,304,112897,6,0,P|128:240|176:200,1,125
296,144,113366,1,0,0:0:0:0:
392,240,113600,1,0,0:0:0:0:
288,328,113834,2,0,P|208:352|152:312,1,125
104,216,114303,1,0,0:0:0:0:
192,112,114538,1,0,0:0:0:0:
288,80,114772,2,0,P|352:80|392:128,1,125
408,216,115241,5,0,0:0:0:0:
360,304,115475,1,0,0:0:0:0:
248,312,115709,2,0,P|176:304|144:248,1,125
208,88,116178,2,0,P|280:72|344:96,1,125
376,160,116647,1,0,0:0:0:0:
96,176,116881,1,0,0:0:0:0:
376,248,117116,1,0,0:0:0:0:
96,264,117350,1,0,0:0:0:0:
376,328,117584,1,0,0:0:0:0:
96,352,117819,1,0,0:0:0:0:
176,352,118053,6,0,P|224:296|208:248,1,125
328,256,118522,2,0,P|280:208|296:144,1,125
168,160,118991,2,0,P|208:112|208:40,1,125
320,56,119459,1,0,0:0:0:0:
408,136,119694,1,0,0:0:0:0:
440,256,119928,1,0,0:0:0:0:
352,312,120162,2,0,B|256:320|192:304|144:272|112:216,1,250
80,176,120866,5,0,0:0:0:0:
144,80,121100,1,0,0:0:0:0:
224,56,121334,2,0,P|288:40|336:80,1,125
400,160,121803,1,0,0:0:0:0:
424,264,122037,1,0,0:0:0:0:
328,312,122272,2,0,P|256:320|176:288,1,125
112,256,122741,1,0,0:0:0:0:
72,144,122975,1,0,0:0:0:0:
168,96,123209,6,0,P|216:56|296:72,1,125
388,124,123678,2,0,P|428:124|372:132,1,375
408,184,124616,1,0,0:0:0:0:
352,272,124850,1,0,0:0:0:0:
296,304,125084,1,0,0:0:0:0:
168,288,125319,2,0,P|104:280|56:240,1,125
96,128,125787,1,0,0:0:0:0:
192,72,126022,1,0,0:0:0:0:
296,56,126256,5,0,0:0:0:0:
424,200,126491,2,0,B|288:272|344:208|488:296|448:376|200:296,1,375
144,288,127662,2,0,P|88:240|72:184,1,125
160,96,128131,1,0,0:0:0:0:
264,80,128366,1,0,0:0:0:0:
360,120,128600,2,0,P|408:144|416:168,1,62.5
144,304,129069,2,0,P|112:248|112:232,1,62.5
256,200,129537,2,0,P|256:104|264:200,1,281.250010728836
256,272,130006,5,0,0:0:0:0:
360,328,130241,1,0,0:0:0:0:
456,232,130475,2,0,P|464:176|448:152,1,62.5
384,96,130944,1,0,0:0:0:0:
272,56,131178,1,0,0:0:0:0:
176,72,131412,2,0,P|120:80|192:80,1,375.000014305115
64,208,132115,2,0,P|96:248|128:264,1,62.5
408,208,132584,2,0,P|408:160|384:136,1,62.5
64,208,133053,1,0,0:0:0:0:
392,128,133287,1,0,0:0:0:0:
336,96,133522,1,0,0:0:0:0:
280,72,133756,1,0,0:0:0:0:
216,56,133990,2,0,B|288:64|352:96|440:176,1,250
448,240,134694,1,0,0:0:0:0:
280,320,134928,1,0,0:0:0:0:
152,312,135162,6,0,L|88:344,2,62.5
256,256,135631,1,0,0:0:0:0:
256,56,135865,1,0,0:0:0:0:
368,280,136100,2,0,L|416:328,2,62.5
256,32,136569,1,0,0:0:0:0:
256,344,136803,1,0,0:0:0:0:
104,192,137037,2,0,L|32:192,2,62.5
440,192,137506,1,0,0:0:0:0:
80,192,137740,1,0,0:0:0:0:
377,192,137975,2,0,L|481:192,2,62.5
368,192,138444,1,0,0:0:0:0:
360,192,138678,1,0,0:0:0:0:
264,216,138912,5,0,0:0:0:0:
204,233,139029,1,0,0:0:0:0:
142,225,139146,1,0,0:0:0:0:
91,192,139263,1,0,0:0:0:0:
65,136,139380,1,0,0:0:0:0:
84,78,139497,1,0,0:0:0:0:
136,45,139615,1,0,0:0:0:0:
197,33,139732,1,0,0:0:0:0:
258,46,139849,1,0,0:0:0:0:
247,96,139966,1,0,0:0:0:0:
197,133,140083,1,0,0:0:0:0:
148,172,140201,1,0,0:0:0:0:
122,228,140318,1,0,0:0:0:0:
136,287,140435,1,0,0:0:0:0:
195,295,140552,1,0,0:0:0:0:
253,298,140669,1,0,0:0:0:0:
296,304,140787,2,0,L|336:304,20,31.25
336,280,143131,6,0,P|400:256|424:200,1,125
408,112,143600,1,0,0:0:0:0:
288,48,143834,1,0,0:0:0:0:
112,112,144069,2,0,P|104:184|120:240,1,125
184,296,144537,1,0,0:0:0:0:
304,328,144772,1,0,0:0:0:0:
384,272,145006,2,0,P|424:224|416:160,1,125
168,56,145475,2,0,P|96:88|56:136,1,125
240,344,145943,1,0,0:0:0:0:
112,136,146178,1,0,0:0:0:0:
264,96,146412,2,0,P|328:64|368:104,1,125
384,224,146881,5,0,0:0:0:0:
296,312,147115,1,0,0:0:0:0:
216,336,147350,2,0,P|144:312|120:264,1,125
144,128,147818,1,0,0:0:0:0:
280,80,148053,1,0,0:0:0:0:
400,184,148287,2,0,P|400:264|328:312,1,125
96,240,148756,2,0,P|104:176|144:120,1,125
360,224,149225,2,0,P|346:159|300:119,1,125
304,121,149693,5,0,0:0:0:0:
120,144,149928,2,0,B|40:160|32:200|32:256|72:288|144:288,1,250
320,96,150631,1,0,0:0:0:0:
160,304,150865,1,0,0:0:0:0:
368,304,151100,2,0,P|400:248|368:192,1,125
288,112,151568,1,0,0:0:0:0:
168,128,151803,1,0,0:0:0:0:
128,256,152037,2,0,B|168:280|192:296|224:312|248:328|264:280|248:272|232:264|208:256,1,187.5
160,312,152506,6,0,B|176:264|168:232|112:232|80:224|80:208|88:200|88:192|96:184|104:176|112:168|120:168|128:168|144:168|176:168|184:176|208:200|208:144|160:224,1,312.5
161,221,152975,1,0,0:0:0:0:
280,216,153209,1,0,0:0:0:0:
400,152,153443,2,0,P|456:112|416:96,1,125
240,64,153912,2,0,P|168:96|136:152,1,125
272,320,154381,2,0,P|336:296|360:232,1,125
184,288,154850,2,0,P|144:224|144:168,1,125
312,80,155318,2,0,P|368:112|376:176,1,125
352,216,155670,2,0,B|312:232|280:200|264:168|256:144|272:128|288:128|296:136|304:152|320:208|304:240|288:256|264:264|240:272|232:264,1,281.25
248,256,156490,5,0,0:0:0:0:
128,192,156725,2,0,P|80:136|96:80,1,125
88,90,157193,1,0,0:0:0:0:
88,192,157428,1,0,0:0:0:0:
352,80,158131,2,0,P|408:120|400:192,1,125
280,248,158600,2,0,P|192:232|160:192,1,125
240,56,159068,1,0,0:0:0:0:
368,296,159303,1,0,0:0:0:0:
104,176,159537,1,0,0:0:0:0:
192,104,159771,2,0,P|272:64|328:80,1,125
368,160,160240,2,0,P|360:232|312:288,1,125
176,304,160709,1,0,0:0:0:0:
288,96,160943,1,0,0:0:0:0:
184,96,161178,2,0,P|128:136|104:200,1,125
152,280,161646,5,0,0:0:0:0:
400,248,161881,2,0,P|416:184|384:128,1,125
136,96,162350,2,0,P|104:160|128:216,1,125
256,280,162819,1,0,0:0:0:0:
256,64,163053,1,0,0:0:0:0:
248,184,163287,2,0,P|168:192|104:152,1,125
200,48,163756,2,0,P|288:32|352:56,1,125
424,128,164225,2,0,B|416:160|384:192|320:112|288:192|344:256|440:280|224:240,1,250
136,216,164928,5,0,0:0:0:0:
216,56,165162,1,0,0:0:0:0:
336,64,165396,2,0,P|400:80|456:120,1,125
288,344,165865,2,0,P|224:304|192:248,1,125
200,176,166334,1,0,0:0:0:0:
400,216,166568,1,0,0:0:0:0:
296,192,166803,1,0,0:0:0:0:
320,72,167037,6,0,P|232:48|160:56,1,125
80,224,167506,2,0,P|144:280|208:304,1,125
328,280,167974,1,0,0:0:0:0:
392,208,168209,1,0,0:0:0:0:
384,48,168443,2,0,P|304:64|272:104,1,125
272,288,168912,2,0,P|336:256|360:200,1,125
64,48,169381,2,0,L|160:128,1,125
152,288,169849,1,0,0:0:0:0:
264,104,170084,1,0,0:0:0:0:
304,192,170318,6,0,P|384:200|400:248,1,125
336,344,170787,2,0,P|256:344|216:304,1,125
136,232,171256,1,0,0:0:0:0:
168,96,171490,1,0,0:0:0:0:
288,80,171725,2,0,B|352:128|384:176|384:240|344:224|328:208|304:176|272:152,1,250
200,128,172428,1,0,0:0:0:0:
144,248,172662,1,0,0:0:0:0:
184,280,172779,1,0,0:0:0:0:
232,288,172896,1,0,0:0:0:0:
344,304,173131,6,0,P|392:256|408:184,1,125
288,56,173599,2,0,P|200:72|168:112,1,125
144,280,174068,1,0,0:0:0:0:
360,112,174303,1,0,0:0:0:0:
424,240,174537,2,0,P|384:296|304:296,1,125
232,72,175006,1,0,0:0:0:0:
96,72,175240,1,0,0:0:0:0:
72,256,175474,2,0,P|112:208|72:160,1,125
216,256,175943,2,0,P|176:200|208:160,1,125
256,80,176412,6,0,B|344:72|384:96|384:32|320:16|320:112|368:176|384:184,1,250
392,272,177115,2,0,P|416:200|400:152,1,125
152,72,177584,2,0,P|80:112|56:160,1,125
88,288,178053,1,0,0:0:0:0:
208,176,178287,1,0,0:0:0:0:
120,312,178521,1,0,0:0:0:0:
248,208,178756,1,0,0:0:0:0:
304,352,178990,2,0,P|376:328|400:280,1,125
352,72,179459,2,0,P|288:48|224:56,1,125
232,53,179928,5,0,0:0:0:0:
128,112,180162,2,0,B|72:168|56:224|96:288|144:336,1,250
272,336,180865,1,0,0:0:0:0:
408,280,181099,2,0,P|456:224|432:160,1,125
352,96,181568,1,0,0:0:0:0:
208,192,181803,1,0,0:0:0:0:
320,336,182037,2,0,B|400:320|416:272|416:256,1,125
272,56,182506,2,0,P|200:56|152:96,1,125
80,160,182974,5,0,0:0:0:0:
88,336,183209,1,0,0:0:0:0:
232,232,183443,5,0,0:0:0:0:
80,248,183678,1,0,0:0:0:0:
80,248,183912,1,0,0:0:0:0:
108,261,184029,1,0,0:0:0:0:
136,275,184146,1,0,0:0:0:0:
164,288,184263,1,0,0:0:0:0:
193,299,184380,1,0,0:0:0:0:
223,309,184497,1,0,0:0:0:0:
253,317,184615,1,0,0:0:0:0:
284,321,184732,1,0,0:0:0:0:
315,317,184849,1,0,0:0:0:0:
342,301,184966,1,0,0:0:0:0:
358,275,185083,1,0,0:0:0:0:
363,244,185201,1,0,0:0:0:0:
355,214,185318,1,0,0:0:0:0:
333,193,185435,1,0,0:0:0:0:
304,199,185552,1,0,0:0:0:0:
283,222,185669,1,0,0:0:0:0:
269,250,185786,1,0,0:0:0:0:
255,278,185904,1,0,0:0:0:0:
239,305,186021,1,0,0:0:0:0:
219,328,186138,1,0,0:0:0:0:
192,344,186255,1,0,0:0:0:0:
164,335,186372,1,0,0:0:0:0:
156,306,186490,1,0,0:0:0:0:
161,275,186607,1,0,0:0:0:0:
173,246,186724,1,0,0:0:0:0:
188,219,186841,1,0,0:0:0:0:
207,194,186958,1,0,0:0:0:0:
280,128,187076,5,0,0:0:0:0:
320,112,187193,1,0,0:0:0:0:
368,128,187310,1,0,0:0:0:0:
392,168,187427,1,0,0:0:0:0:
400,208,187545,1,0,0:0:0:0:
256,192,187662,12,0,190474,0:0:0:0:
