osu file format v14

[General]
AudioFilename: Here it comes short.mp3
AudioLeadIn: 0
PreviewTime: 37653
Countdown: 1
SampleSet: Normal
StackLeniency: 0.7
Mode: 0
LetterboxInBreaks: 1
WidescreenStoryboard: 0

[Editor]
DistanceSpacing: 1.6
BeatDivisor: 6
GridSize: 4
TimelineZoom: 1.5

[Metadata]
Title:Here It Comes
TitleUnicode:Here It Comes
Artist:Pegboard Nerds
ArtistUnicode:Pegboard Nerds
Creator:DerThan
Version:Insane
Source:
Tags:
BeatmapID:659299
BeatmapSetID:293023

[Difficulty]
HPDrainRate:8.4
CircleSize:4
OverallDifficulty:7.1
ApproachRate:8.7
SliderMultiplier:1.7
SliderTickRate:1

[Events]
//Background and Video events
0,0,"Pegboard-Nerds_-Art_Heart.jpg",0,0
//Break Periods
2,13875,19208
//Storyboard Layer 0 (Background)
//Storyboard Layer 1 (Fail)
//Storyboard Layer 2 (Pass)
//Storyboard Layer 3 (Foreground)
//Storyboard Sound Samples

[TimingPoints]
453,400,4,1,0,50,1,0
13453,333.333333333333,4,1,0,50,1,0
13619,400,4,1,0,50,1,0
38985,-200,4,1,0,50,0,1
39885,-100,4,1,0,50,0,1
41853,-200,4,1,0,50,0,1
42285,-100,4,1,0,50,0,1
45286,-100,4,1,0,50,0,0
46053,-100,4,1,0,50,0,1
48953,-100,4,1,0,50,0,0
52053,-200,4,1,0,50,0,1
52685,-100,4,1,0,50,0,1
58753,-100,4,1,0,50,0,0
58754,-100,4,1,0,50,0,1
61653,-100,4,1,0,50,0,0
77653,-100,4,1,0,50,0,1
86853,-100,4,1,0,50,0,0
90453,-100,4,1,0,50,0,0

[Colours]
Combo1 : 97,97,97
Combo2 : 221,221,221
Combo3 : 255,38,0
Combo4 : 255,217,0

[HitObjects]
168,264,853,5,0,0:0:0:0:
384,304,1253,1,0,0:0:0:0:
384,304,1453,1,0,0:0:0:0:
216,160,1853,5,0,0:0:0:0:
220,48,2053,1,0,0:0:0:0:
136,120,2253,2,0,L|88:120,2,42.5
248,120,2653,6,0,P|220:152|164:184,1,85
116,264,3053,1,0,0:0:0:0:
228,276,3253,1,0,0:0:0:0:
128,152,3453,1,0,0:0:0:0:
104,304,3653,1,0,0:0:0:0:
136,80,3853,6,0,P|184:56|240:68,2,85
124,192,4453,1,0,0:0:0:0:
204,268,4653,1,0,0:0:0:0:
304,220,4853,5,0,0:0:0:0:
304,220,4953,1,0,0:0:0:0:
304,220,5053,1,0,0:0:0:0:
384,296,5253,1,0,0:0:0:0:
372,88,5453,6,0,P|332:56|300:52,2,85
288,160,6053,1,0,0:0:0:0:
184,196,6253,2,0,L|100:196,2,85
288,160,6853,1,0,0:0:0:0:
364,240,7053,1,0,0:0:0:0:
256,252,7253,1,0,0:0:0:0:
92,76,7653,6,0,P|136:60|208:64,1,85
284,48,8053,1,0,0:0:0:0:
92,76,8253,1,0,0:0:0:0:
96,188,8453,1,0,0:0:0:0:
244,196,8653,1,0,0:0:0:0:
244,196,8753,1,0,0:0:0:0:
244,196,8853,1,0,0:0:0:0:
364,100,9053,6,0,L|412:100,2,42.5
304,144,9453,6,0,L|256:144,2,42.5
412,208,9853,1,0,0:0:0:0:
320,300,10053,1,0,0:0:0:0:
252,164,10253,1,0,0:0:0:0:
416,176,10453,2,0,L|344:92,1,85
188,40,10853,5,0,0:0:0:0:
188,40,10953,1,0,0:0:0:0:
188,40,11053,1,0,0:0:0:0:
276,144,11253,1,0,0:0:0:0:
276,144,11353,1,0,0:0:0:0:
276,144,11453,1,0,0:0:0:0:
400,240,11653,1,0,0:0:0:0:
404,104,11853,1,0,0:0:0:0:
284,240,12053,1,0,0:0:0:0:
128,48,12253,5,0,0:0:0:0:
132,184,12453,1,0,0:0:0:0:
48,76,12653,1,0,0:0:0:0:
180,112,12853,1,0,0:0:0:0:
296,40,13053,1,0,0:0:0:0:
128,48,13253,1,0,0:0:0:0:
188,240,13453,2,0,L|300:188,1,113.333333333333
112,296,19853,5,0,0:0:0:0:
112,296,19953,5,0,0:0:0:0:
112,296,20053,1,0,0:0:0:0:
324,100,20453,1,0,0:0:0:0:
328,288,20853,1,0,0:0:0:0:
148,132,21253,1,0,0:0:0:0:
360,72,21653,6,0,B|383:131|384:180|360:244,1,170
448,148,22453,2,0,B|387:171|339:171|275:147,1,170
112,280,23053,1,0,0:0:0:0:
112,280,23153,1,0,0:0:0:0:
112,280,23253,5,0,0:0:0:0:
268,176,23453,1,0,0:0:0:0:
88,100,23653,1,0,0:0:0:0:
112,280,23853,1,0,0:0:0:0:
248,300,24053,1,0,0:0:0:0:
224,184,24253,1,0,0:0:0:0:
216,104,24453,2,0,L|168:80,2,42.5
304,108,24853,2,0,L|348:88,2,42.5
316,292,25253,5,0,0:0:0:0:
208,308,25453,1,0,0:0:0:0:
180,200,25653,1,0,0:0:0:0:
312,288,25853,1,0,0:0:0:0:
388,180,26053,2,0,P|364:128|316:96,1,85
72,56,26453,1,0,0:0:0:0:
240,240,26853,5,0,0:0:0:0:
384,128,27053,1,0,0:0:0:0:
400,260,27253,1,0,0:0:0:0:
288,168,27453,1,0,0:0:0:0:
312,312,27653,1,0,0:0:0:0:
136,80,28053,1,0,0:0:0:0:
340,72,28453,5,0,0:0:0:0:
340,72,28553,1,0,0:0:0:0:
340,72,28653,1,0,0:0:0:0:
404,160,28853,1,0,0:0:0:0:
308,284,29053,1,0,0:0:0:0:
248,136,29253,1,0,0:0:0:0:
440,232,29453,2,0,P|424:288|380:304,1,85
108,284,30053,5,0,0:0:0:0:
108,284,30153,1,0,0:0:0:0:
108,284,30253,1,0,0:0:0:0:
236,288,30453,2,0,L|180:288,2,42.5
240,176,30853,1,0,0:0:0:0:
156,224,31053,1,0,0:0:0:0:
156,224,31253,2,0,P|218:252|260:244,1,85
296,80,31653,6,0,P|344:68|384:96,1,85
400,192,32053,1,0,0:0:0:0:
400,192,32253,1,0,0:0:0:0:
296,236,32453,2,0,P|248:224|216:188,1,85
172,296,32853,1,0,0:0:0:0:
172,296,33053,1,0,0:0:0:0:
180,76,33253,6,0,L|180:164,1,85
292,160,33653,2,0,L|292:60,1,85
404,76,34053,2,0,L|404:172,1,85
312,240,34453,1,0,0:0:0:0:
324,120,34653,1,0,0:0:0:0:
412,200,34853,1,0,0:0:0:0:
364,308,35053,1,0,0:0:0:0:
244,304,35253,1,0,0:0:0:0:
160,220,35453,2,0,P|144:260|86:292,2,85
176,112,36053,5,0,0:0:0:0:
248,68,36253,1,0,0:0:0:0:
332,60,36453,1,0,0:0:0:0:
404,100,36653,1,0,0:0:0:0:
412,184,36853,1,0,0:0:0:0:
396,220,36953,1,0,0:0:0:0:
368,248,37053,1,0,0:0:0:0:
336,268,37153,1,0,0:0:0:0:
300,272,37253,1,0,0:0:0:0:
260,272,37353,1,0,0:0:0:0:
220,272,37453,6,0,L|172:272,1,42.5
256,192,37753,12,0,38853,0:0:0:0:
136,188,39253,6,0,B|160:164|168:192|188:168|212:172|204:180|204:180|180:176|240:164,1,127.5
416,160,40003,6,0,L|416:88,1,63.75
316,48,40353,1,0,0:0:0:0:
304,164,40553,2,0,L|368:164,1,42.5
236,164,40853,2,0,L|176:164,1,42.5
228,60,41153,1,0,0:0:0:0:
328,248,41353,1,0,0:0:0:0:
328,248,41453,1,0,0:0:0:0:
420,188,41653,5,0,0:0:0:0:
420,188,41853,2,0,B|408:152|436:152|356:136|476:128|420:112,1,85
276,96,42453,1,0,0:0:0:0:
112,120,42753,6,0,L|112:148,4,21.25
164,216,43153,1,0,0:0:0:0:
264,172,43353,2,0,L|264:120,1,42.5
372,116,43653,1,0,0:0:0:0:
372,116,43753,1,0,0:0:0:0:
360,280,43919,2,0,P|400:256|428:160,1,141.666666666667
336,48,44453,1,0,0:0:0:0:
224,48,44653,1,0,0:0:0:0:
196,156,44853,2,0,L|196:204,2,42.5
92,116,45253,1,0,0:0:0:0:
92,116,45353,1,0,0:0:0:0:
92,116,45453,1,0,0:0:0:0:
92,256,45653,5,0,0:0:0:0:
372,68,46053,6,0,L|372:128,1,42.5
440,196,46353,1,0,0:0:0:0:
412,304,46553,1,0,0:0:0:0:
412,304,46653,1,0,0:0:0:0:
340,220,46853,1,0,0:0:0:0:
340,220,46953,1,0,0:0:0:0:
396,124,47153,1,0,0:0:0:0:
236,76,47353,1,0,0:0:0:0:
236,76,47453,2,0,B|280:44|344:40|360:48,1,113.333333333333
412,76,47853,5,0,0:0:0:0:
408,188,48053,1,0,0:0:0:0:
324,260,48253,1,0,0:0:0:0:
224,308,48453,1,0,0:0:0:0:
224,308,48553,1,0,0:0:0:0:
224,308,48653,1,0,0:0:0:0:
224,308,48753,1,0,0:0:0:0:
224,308,48853,1,0,0:0:0:0:
108,204,49021,6,0,P|124:152|172:120,1,85
252,60,49453,1,0,0:0:0:0:
280,280,49853,1,0,0:0:0:0:
392,88,50253,1,0,0:0:0:0:
396,200,50453,1,0,0:0:0:0:
396,200,50553,1,0,0:0:0:0:
396,200,50653,1,0,0:0:0:0:
364,304,50853,1,0,0:0:0:0:
296,216,51053,1,0,0:0:0:0:
208,280,51253,1,0,0:0:0:0:
116,220,51453,5,0,0:0:0:0:
116,220,51553,1,0,0:0:0:0:
116,220,51653,1,0,0:0:0:0:
116,220,51753,1,0,0:0:0:0:
116,220,51853,1,0,0:0:0:0:
116,132,52053,6,0,B|148:100|160:144|184:108|196:148|204:108|204:144|212:116|220:128|212:128,1,106.25
296,60,52853,6,0,L|328:112,1,42.5
428,68,53153,1,0,0:0:0:0:
376,164,53353,1,0,0:0:0:0:
376,164,53453,1,0,0:0:0:0:
276,120,53653,2,0,L|244:176,1,42.5
320,248,53953,1,0,0:0:0:0:
376,164,54153,1,0,0:0:0:0:
376,164,54253,1,0,0:0:0:0:
412,268,54453,5,0,0:0:0:0:
296,300,54653,1,0,0:0:0:0:
188,252,54853,1,0,0:0:0:0:
296,204,55053,1,0,0:0:0:0:
296,204,55153,1,0,0:0:0:0:
324,152,55253,1,0,0:0:0:0:
152,100,55553,6,0,L|180:112,5,21.25
260,128,55953,1,0,0:0:0:0:
356,56,56153,2,0,L|292:16,1,42.5
264,180,56453,2,0,L|292:132,1,42.5
404,192,56753,1,0,0:0:0:0:
400,64,56953,1,0,0:0:0:0:
400,64,57053,1,0,0:0:0:0:
148,56,57253,6,0,P|104:108|100:164,1,85
124,232,57653,1,0,0:0:0:0:
212,300,57853,1,0,0:0:0:0:
324,296,58053,1,0,0:0:0:0:
416,232,58253,1,0,0:0:0:0:
356,140,58453,2,0,L|304:92,2,42.5
152,272,58853,6,0,L|80:244,1,42.5
232,208,59153,1,0,0:0:0:0:
252,60,59353,1,0,0:0:0:0:
252,60,59453,1,0,0:0:0:0:
148,100,59653,1,0,0:0:0:0:
148,100,59753,1,0,0:0:0:0:
192,200,59953,1,0,0:0:0:0:
80,200,60153,2,0,L|116:160,1,42.5
192,96,60453,5,0,0:0:0:0:
192,96,60553,1,0,0:0:0:0:
192,96,60653,1,0,0:0:0:0:
292,48,60853,1,0,0:0:0:0:
392,96,61053,1,0,0:0:0:0:
412,204,61253,1,0,0:0:0:0:
316,260,61453,2,0,L|420:308,1,85
404,60,62053,5,0,0:0:0:0:
416,168,62253,1,0,0:0:0:0:
416,168,62353,1,0,0:0:0:0:
416,168,62453,2,0,P|400:224|364:236,1,85
300,312,62853,1,0,0:0:0:0:
224,108,63053,1,0,0:0:0:0:
112,292,63253,1,0,0:0:0:0:
356,168,64853,5,0,0:0:0:0:
268,104,65053,1,0,0:0:0:0:
268,104,65153,1,0,0:0:0:0:
268,104,65253,1,0,0:0:0:0:
172,156,65453,1,0,0:0:0:0:
152,188,65553,1,0,0:0:0:0:
144,224,65653,1,0,0:0:0:0:
312,272,65853,5,0,0:3:0:0:
345,257,65953,1,0,0:3:0:0:
378,233,66053,1,0,0:3:0:0:
408,207,66153,1,0,0:3:0:0:
432,179,66253,1,0,0:3:0:0:
284,176,66453,6,0,L|284:128,2,42.5
400,200,66853,1,0,0:0:0:0:
452,92,67053,1,0,0:0:0:0:
340,52,67253,1,0,0:0:0:0:
196,288,67653,1,0,0:0:0:0:
88,80,68053,5,0,0:0:0:0:
272,88,68253,1,0,0:0:0:0:
152,236,68453,1,0,0:0:0:0:
336,184,68653,1,0,0:0:0:0:
200,132,68853,1,0,0:0:0:0:
304,72,69053,1,0,0:0:0:0:
408,132,69253,1,0,0:0:0:0:
384,292,69653,5,0,0:0:0:0:
340,180,69853,1,0,0:0:0:0:
340,180,69953,1,0,0:0:0:0:
340,180,70053,1,0,0:0:0:0:
224,208,70253,2,0,P|192:268|212:300,1,85
148,168,70653,2,0,L|96:132,2,42.5
84,108,71253,5,0,0:0:0:0:
188,52,71453,1,0,0:0:0:0:
308,48,71653,1,0,0:0:0:0:
380,144,71853,2,0,L|432:92,2,42.5
304,236,72253,2,0,P|272:264|228:280,1,85
56,116,72853,5,0,0:0:0:0:
164,64,73053,1,0,0:0:0:0:
260,136,73253,2,0,L|260:188,2,42.5
364,76,73653,2,0,L|364:32,2,42.5
364,196,74053,2,0,P|332:228|272:236,1,85
184,280,74453,1,0,0:0:0:0:
76,88,74853,5,0,0:0:0:0:
76,88,74953,1,0,0:0:0:0:
76,88,75053,1,0,0:0:0:0:
188,44,75253,1,0,0:0:0:0:
308,56,75453,1,0,0:0:0:0:
388,144,75653,2,0,P|428:176|444:224,1,85
340,268,76053,2,0,P|300:236|284:188,1,85
104,104,76853,1,0,0:0:0:0:
264,60,77653,6,0,P|316:52|360:72,1,85
452,116,78053,1,0,0:0:0:0:
344,168,78253,1,0,0:0:0:0:
344,168,78353,1,0,0:0:0:0:
344,168,78453,2,0,P|416:204|468:276,1,170
232,312,79253,5,0,0:0:0:0:
196,96,79453,1,0,0:0:0:0:
144,204,79653,1,0,0:0:0:0:
312,160,79853,1,0,0:0:0:0:
176,324,80053,2,0,P|92:308|72:228,1,170
96,88,80853,5,0,0:0:0:0:
212,120,81053,1,0,0:0:0:0:
212,120,81153,1,0,0:0:0:0:
308,272,81453,1,0,0:0:0:0:
380,176,81653,2,0,P|348:132|284:116,1,85
152,280,82053,1,0,0:0:0:0:
80,88,82453,5,0,0:0:0:0:
196,56,82653,2,0,L|144:68,1,42.5
204,224,83053,1,0,0:0:0:0:
344,108,83253,2,0,P|344:164|320:188,1,85
160,128,83653,1,0,0:0:0:0:
120,280,84053,5,0,0:0:0:0:
240,280,84253,1,0,0:0:0:0:
340,216,84453,1,0,0:0:0:0:
232,168,84653,2,0,L|188:168,2,42.5
284,52,85053,2,0,L|328:52,2,42.5
164,56,85453,5,0,0:0:0:0:
80,140,85653,1,0,0:0:0:0:
92,260,85853,1,0,0:0:0:0:
200,312,86053,1,0,0:0:0:0:
200,312,86153,1,0,0:0:0:0:
200,312,86253,1,0,0:0:0:0:
316,292,86453,2,0,P|395:239|417:141,1,170
284,80,87253,6,0,P|228:72|180:80,1,85
284,80,87653,2,0,P|252:116|236:160,1,85
132,176,88053,1,0,0:0:0:0:
216,244,88253,1,0,0:0:0:0:
104,248,88453,2,0,L|148:248,3,42.5
196,36,89053,5,0,0:0:0:0:
396,288,89253,1,0,0:0:0:0:
392,48,89453,1,0,0:0:0:0:
284,284,89653,1,0,0:0:0:0:
196,292,89853,1,0,0:0:0:0:
168,280,89953,1,0,0:0:0:0:
148,256,90053,1,0,0:0:0:0:
140,228,90153,1,0,0:0:0:0:
140,200,90253,1,0,0:0:0:0:
256,192,90453,12,0,93253,0:0:0:0:
