osu file format v14

[General]
AudioFilename: audio.mp3
AudioLeadIn: 0
PreviewTime: 43566
Countdown: 0
SampleSet: Soft
StackLeniency: 0.3
Mode: 0
LetterboxInBreaks: 0
WidescreenStoryboard: 1

[Editor]
Bookmarks: 9687,23480,34514,45549,56583,67618,78652,95204,106238,117273,128307,139342,150376
DistanceSpacing: 0.3
BeatDivisor: 4
GridSize: 4
TimelineZoom: 1.5

[Metadata]
Title:Gunslinga (feat. MC Mota)
TitleUnicode:Gunslinga (feat. MC Mota)
Artist:Pegboard Nerds
ArtistUnicode:Pegboard Nerds
Creator:Sylas
Version:Sylas & jamesjan's Insane
Source:
Tags:plaudible jamesjan3 edm electronic drumstep dubstep dnb drum and bass english jamaican raggaeton patwa patois monstercat gunslinger finger thekoala hardcore carnival uncaged vol 7 best of 2019
BeatmapID:2636530
BeatmapSetID:1234094

[Difficulty]
HPDrainRate:5
CircleSize:3.5
OverallDifficulty:8
ApproachRate:9
SliderMultiplier:2
SliderTickRate:1

[Events]
//Background and Video events
0,0,"cyberpunk-anime-girl-pistol-gun-uhdpaper.com-4K-125.jpg",0,0
//Break Periods
2,78852,81673
2,84369,86213
2,89887,91845
//Storyboard Layer 0 (Background)
//Storyboard Layer 1 (Fail)
//Storyboard Layer 2 (Pass)
//Storyboard Layer 3 (Foreground)
//Storyboard Layer 4 (Overlay)
//Storyboard Sound Samples

[TimingPoints]
32,344.827586206897,4,2,2,70,1,0
9687,-133.333333333333,4,2,2,70,0,0
12445,-66.6666666666667,4,2,2,70,0,0
12703,-66.6666666666667,4,2,2,5,0,0
12790,-100,4,2,2,70,0,0
13910,-100,4,2,2,5,0,0
13997,-100,4,2,2,70,0,0
14169,-80,4,2,2,70,0,0
14427,-80,4,2,2,5,0,0
14514,-80,4,2,2,70,0,0
14945,-80,4,2,2,5,0,0
15032,-80,4,2,2,70,0,0
15118,-80,4,2,2,5,0,0
15204,-80,4,2,2,70,0,0
16152,-80,4,2,2,5,0,0
16238,-80,4,2,2,70,0,0
17876,-80,4,2,2,5,0,0
17963,-80,4,2,2,70,0,0
19945,-80,4,2,2,5,0,0
20032,-80,4,2,2,70,0,0
23393,-80,4,2,2,5,0,0
23480,-80,4,2,2,70,0,0
23738,-80,4,2,2,5,0,0
23825,-80,4,2,2,70,0,0
26152,-80,4,2,2,5,0,0
26238,-80,4,2,2,70,0,0
26496,-80,4,2,2,5,0,0
26583,-80,4,2,2,70,0,0
27014,-80,4,2,2,5,0,0
27100,-80,4,2,2,70,0,0
27186,-80,4,2,2,5,0,0
27273,-80,4,2,2,70,0,0
28221,-80,4,2,2,5,0,0
28307,-80,4,2,2,70,0,0
28910,-80,4,2,2,5,0,0
28997,-80,4,2,2,70,0,0
31669,-80,4,2,2,5,0,0
31756,-80,4,2,2,70,0,0
33393,-80,4,2,2,5,0,0
33480,-80,4,2,2,70,0,0
34169,-66.6666666666667,4,2,2,70,0,0
34427,-66.6666666666667,4,2,2,5,0,0
34514,-80,4,2,2,75,0,0
44169,-200,4,2,2,75,0,0
44772,-200,4,2,2,5,0,0
44859,-66.6666666666667,4,2,2,75,0,0
45204,-200,4,2,2,75,0,0
45462,-200,4,2,2,5,0,0
45549,-71.4285714285714,4,2,1,80,0,1
46497,-71.4285714285714,4,2,1,5,0,1
46583,-71.4285714285714,4,2,1,80,0,1
47187,-71.4285714285714,4,2,1,5,0,1
47273,-71.4285714285714,4,2,1,80,0,1
47876,-71.4285714285714,4,2,1,5,0,1
47963,-71.4285714285714,4,2,1,80,0,1
48307,-62.5,4,2,1,80,0,1
48565,-62.5,4,2,1,5,0,1
48652,-125,4,2,1,80,0,1
50721,-71.4285714285714,4,2,1,80,0,1
52014,-71.4285714285714,4,2,1,5,0,1
52100,-71.4285714285714,4,2,1,80,0,1
52704,-71.4285714285714,4,2,1,5,0,1
52790,-71.4285714285714,4,2,1,80,0,1
53221,-71.4285714285714,4,2,1,5,0,1
53307,-71.4285714285714,4,2,1,80,0,1
53394,-71.4285714285714,4,2,1,5,0,1
53480,-71.4285714285714,4,2,1,80,0,1
53825,-62.5,4,2,1,80,0,1
54083,-62.5,4,2,1,5,0,1
54169,-62.5,4,2,1,80,0,1
54427,-62.5,4,2,1,5,0,1
54514,-76.9230769230769,4,2,1,80,0,1
55462,-76.9230769230769,4,2,1,5,0,1
55549,-76.9230769230769,4,2,1,80,0,1
55807,-76.9230769230769,4,2,1,5,0,1
55894,-76.9230769230769,4,2,1,80,0,1
56583,-62.5,4,2,1,80,0,1
56841,-62.5,4,2,1,5,0,1
56928,-133.333333333333,4,2,1,80,0,1
57445,-76.9230769230769,4,2,1,80,0,1
57532,-76.9230769230769,4,2,1,5,0,1
57618,-76.9230769230769,4,2,1,80,0,1
58221,-76.9230769230769,4,2,1,5,0,1
58307,-76.9230769230769,4,2,1,80,0,1
58825,-100,4,2,1,80,0,1
58911,-100,4,2,1,5,0,1
58997,-71.4285714285714,4,2,1,80,0,1
59342,-62.5,4,2,1,80,0,1
59600,-62.5,4,2,1,5,0,1
59687,-133.333333333333,4,2,1,80,0,1
59773,-133.333333333333,4,2,1,5,0,1
59859,-133.333333333333,4,2,1,80,0,1
60290,-133.333333333333,4,2,1,5,0,1
60376,-76.9230769230769,4,2,1,80,0,1
60894,-133.333333333333,4,2,1,80,0,1
60980,-133.333333333333,4,2,1,5,0,1
61066,-76.9230769230769,4,2,1,80,0,1
61583,-133.333333333333,4,2,1,80,0,1
62100,-62.5,4,2,1,80,0,1
62358,-62.5,4,2,1,5,0,1
62445,-133.333333333333,4,2,1,80,0,1
63825,-100,4,2,1,80,0,1
64428,-100,4,2,1,5,0,1
64514,-71.4285714285714,4,2,1,80,0,1
64859,-62.5,4,2,1,80,0,1
65117,-62.5,4,2,1,5,0,1
65204,-62.5,4,2,1,80,0,1
65462,-62.5,4,2,1,5,0,1
65549,-62.5,4,2,1,80,0,1
65894,-76.9230769230769,4,2,1,80,0,1
66496,-76.9230769230769,4,2,1,5,0,1
66583,-76.9230769230769,4,2,1,80,0,1
66842,-76.9230769230769,4,2,1,5,0,1
66928,-76.9230769230769,4,2,1,80,0,1
67618,-80,4,2,1,70,0,0
69255,-80,4,2,1,5,0,0
69342,-80,4,2,1,70,0,0
69600,-80,4,2,1,5,0,0
69687,-80,4,2,1,70,0,0
71411,-100,4,2,1,70,0,0
73135,-80,4,2,1,70,0,0
74772,-80,4,2,1,5,0,0
74859,-80,4,2,1,70,0,0
75462,-80,4,2,1,5,0,0
75549,-80,4,2,1,70,0,0
78652,-80,4,2,2,70,0,0
86813,-100,4,2,2,70,0,0
93566,-100,4,2,2,5,0,0
93652,-100,4,2,2,70,0,0
93825,-80,4,2,2,70,0,0
95204,-66.6666666666667,4,2,2,70,0,0
95462,-66.6666666666667,4,2,2,5,0,0
95549,-100,4,2,2,70,0,0
96669,-100,4,2,2,5,0,0
96756,-100,4,2,2,70,0,0
96928,-80,4,2,2,70,0,0
97186,-80,4,2,2,5,0,0
97273,-80,4,2,2,70,0,0
97704,-80,4,2,2,5,0,0
97790,-80,4,2,2,70,0,0
97876,-80,4,2,2,5,0,0
97963,-80,4,2,2,70,0,0
98910,-80,4,2,2,5,0,0
98997,-80,4,2,2,70,0,0
100635,-80,4,2,2,5,0,0
100721,-80,4,2,2,70,0,0
102703,-80,4,2,2,5,0,0
102790,-80,4,2,2,70,0,0
106152,-80,4,2,2,5,0,0
106238,-80,4,2,2,70,0,0
108911,-80,4,2,2,5,0,0
108997,-80,4,2,2,70,0,0
109255,-80,4,2,2,5,0,0
109342,-80,4,2,2,70,0,0
109773,-80,4,2,2,5,0,0
109859,-80,4,2,2,70,0,0
109945,-80,4,2,2,5,0,0
110032,-80,4,2,2,70,0,0
110979,-80,4,2,2,5,0,0
111066,-80,4,2,2,70,0,0
111669,-80,4,2,2,5,0,0
111756,-80,4,2,2,70,0,0
113738,-80,4,2,2,5,0,0
113825,-80,4,2,2,70,0,0
114428,-80,4,2,2,5,0,0
114514,-80,4,2,2,70,0,0
116928,-200,4,2,2,70,0,0
117187,-200,4,2,2,5,0,0
117273,-100,4,2,2,70,0,0
127876,-100,4,2,2,5,0,0
127963,-100,4,2,2,70,0,0
128049,-100,4,2,2,5,0,0
128135,-100,4,2,2,70,0,0
128221,-100,4,2,2,5,0,0
128307,-66.6666666666667,4,2,1,85,0,1
128652,-62.5,4,2,1,85,0,1
128997,-71.4285714285714,4,2,1,85,0,1
129256,-71.4285714285714,4,2,1,5,0,1
129342,-71.4285714285714,4,2,1,85,0,1
129600,-71.4285714285714,4,2,1,5,0,1
129687,-71.4285714285714,4,2,1,85,0,1
131324,-71.4285714285714,4,2,1,5,0,1
131411,-71.4285714285714,4,2,1,85,0,1
131669,-71.4285714285714,4,2,1,5,0,1
131756,-133.333333333333,4,2,1,85,0,1
133566,-133.333333333333,4,2,1,5,0,1
133652,-133.333333333333,4,2,1,85,0,1
133825,-66.6666666666667,4,2,1,85,0,1
134169,-62.5,4,2,1,85,0,1
136066,-71.4285714285714,4,2,1,85,0,1
136583,-62.5,4,2,1,85,0,1
136841,-62.5,4,2,1,5,0,1
136928,-62.5,4,2,1,85,0,1
137186,-62.5,4,2,1,5,0,1
137273,-76.9230769230769,4,2,1,85,0,1
138825,-133.333333333333,4,2,1,85,0,1
138997,-133.333333333333,4,2,1,5,0,1
139169,-66.6666666666667,4,2,1,85,0,1
139255,-66.6666666666667,4,2,1,5,0,1
139342,-66.6666666666667,4,2,1,85,0,1
139687,-58.8235294117647,4,2,1,85,0,1
140032,-71.4285714285714,4,2,1,85,0,1
141583,-100,4,2,1,85,0,1
141669,-100,4,2,1,5,0,1
141756,-71.4285714285714,4,2,1,85,0,1
142100,-66.6666666666667,4,2,1,85,0,1
142445,-62.5,4,2,1,85,0,1
142790,-71.4285714285714,4,2,1,85,0,1
144859,-62.5,4,2,1,85,0,1
145204,-55.5555555555556,4,2,1,85,0,1
145549,-71.4285714285714,4,2,1,85,0,1
147100,-100,4,2,1,85,0,1
147186,-100,4,2,1,5,0,1
147273,-71.4285714285714,4,2,1,85,0,1
147618,-62.5,4,2,1,85,0,1
147876,-62.5,4,2,1,5,0,1
147963,-62.5,4,2,1,85,0,1
148221,-62.5,4,2,1,5,0,1
148307,-71.4285714285714,4,2,1,85,0,1
149255,-71.4285714285714,4,2,1,5,0,1
149342,-71.4285714285714,4,2,1,85,0,1
149600,-71.4285714285714,4,2,1,5,0,1
149687,-71.4285714285714,4,2,1,85,0,1
150376,-80,4,2,1,70,0,0
150634,-80,4,2,1,5,0,0
150721,-80,4,2,1,70,0,0
152014,-80,4,2,1,5,0,0
152100,-80,4,2,1,70,0,0
152703,-80,4,2,1,5,0,0
152790,-80,4,2,1,70,0,0
154514,-100,4,2,1,70,0,0
155894,-80,4,2,1,70,0,0
156152,-80,4,2,1,5,0,0
156238,-80,4,2,1,70,0,0
157531,-80,4,2,1,5,0,0
157618,-80,4,2,1,70,0,0
158221,-80,4,2,1,5,0,0
158307,-80,4,2,1,70,0,0
163825,-80,4,2,2,5,0,0

[Colours]
Combo1 : 230,152,74
Combo2 : 72,88,181
Combo3 : 164,96,189
Combo4 : 199,61,85

[HitObjects]
256,192,9687,12,0,11756,1:2:0:0:
206,152,11928,5,2,0:0:0:0:
153,221,12100,1,2,0:0:0:0:
218,273,12273,1,2,0:0:0:0:
288,28,12445,6,0,B|243:23|243:23|130:84|130:84|55:72,1,225.000008583069,6|0,1:2|2:0,0:0:0:0:
137,52,12790,2,0,L|270:73,1,100,2|0,0:2|0:0,0:0:0:0:
390,184,13135,5,10,0:2:0:0:
306,166,13307,1,2,0:2:0:0:
365,94,13480,1,2,0:2:0:0:
451,113,13652,6,0,B|480:155|480:155|471:258,1,150.000005722046,2|0,0:2|2:0,0:0:0:0:
471,253,13997,1,2,0:2:0:0:
289,327,14169,2,0,B|257:350|257:350|418:330,1,187.5,2|0,0:2|2:0,0:0:0:0:
404,332,14514,5,10,0:2:0:0:
302,240,14687,1,2,0:2:0:0:
182,297,14859,2,0,B|165:271|165:271|166:237,1,62.5,2|0,0:2|2:0,0:0:0:0:
87,215,15032,2,0,L|82:285,1,62.5,2|0,0:2|2:0,0:0:0:0:
107,362,15204,6,0,B|188:345|188:345|196:349|196:349|294:327,2,187.5,2|2|2,1:2|0:2|0:2,0:0:0:0:
1,292,15894,2,0,B|28:336|28:336|91:207,1,187.5,10|0,0:2|2:0,0:0:0:0:
94,202,16238,1,0,0:0:0:0:
150,103,16411,6,0,B|180:58|180:58|218:266,1,250,2|2,0:2|0:2,0:0:0:0:
294,339,16928,2,0,L|318:205,1,125,2|0,0:2|0:0,0:0:0:0:
398,29,17273,5,10,0:2:0:0:
446,104,17445,1,2,0:2:0:0:
369,145,17618,1,2,0:2:0:0:
329,77,17790,2,0,B|364:82|364:82|402:121,1,62.5,2|0,0:2|2:0,0:0:0:0:
488,205,17963,6,0,B|503:225|503:225|464:395,2,187.5,2|2|2,1:2|0:2|0:2,0:0:0:0:
329,77,18652,5,10,0:2:0:0:
160,227,18911,5,2,0:2:0:0:
372,310,19169,5,2,0:2:0:0:
289,206,19342,6,0,B|244:253|244:253|250:339,1,125,2|0,0:2|0:0,0:0:0:0:
93,382,19687,2,0,B|144:356|144:356|166:178,1,187.5,2|0,0:2|2:0,0:0:0:0:
160,207,20032,1,10,0:2:0:0:
56,64,20204,1,2,0:2:0:0:
45,150,20376,2,0,B|110:140|110:140|146:74,1,125
341,85,20721,5,2,1:2:0:0:
207,21,20894,1,2,0:2:0:0:
296,0,21066,1,2,0:2:0:0:
225,115,21238,1,2,0:2:0:0:
400,192,21411,6,0,P|419:146|344:200,1,250,10|2,0:2|0:2,0:0:0:0:
349,260,21928,1,2,0:2:0:0:
428,359,22100,6,0,P|431:322|496:269,1,125,2|0,1:2|0:0,0:0:0:0:
242,317,22445,2,0,P|257:283|228:205,1,125,2|0,0:2|0:0,0:0:0:0:
446,185,22790,5,10,0:2:0:0:
349,260,22963,1,2,1:2:0:0:
305,146,23135,1,2,1:2:0:0:
402,75,23307,2,0,L|383:140,1,62.5,2|0,1:2|2:0,0:0:0:0:
264,221,23480,6,0,B|194:196|194:196|189:158|189:158|92:130,1,187.5,6|0,1:2|2:0,0:0:0:0:
99,133,23825,1,2,0:2:0:0:
152,56,23997,1,2,0:2:0:0:
14,101,24169,5,10,0:2:0:0:
25,187,24342,1,2,0:2:0:0:
100,229,24514,1,2,0:2:0:0:
268,74,24687,6,0,B|243:13|243:13|23:40,2,250,2|2|2,0:2|0:2|0:2,0:0:0:0:
305,246,25549,1,10,0:2:0:0:
348,172,25721,1,0,0:0:0:0:
262,153,25894,1,2,0:2:0:0:
225,229,26066,2,0,L|290:270,1,62.5,2|0,0:2|2:0,0:0:0:0:
436,213,26238,6,0,B|453:183|453:183|392:39,1,187.5,2|0,1:2|2:0,0:0:0:0:
414,26,26583,2,0,L|381:147,1,125,2|0,0:2|0:0,0:0:0:0:
412,347,26928,2,0,L|400:266,1,62.5,10|0,0:2|2:0,0:0:0:0:
327,237,27100,2,0,B|317:255|317:255|321:298,1,62.5,2|0,0:2|2:0,0:0:0:0:
337,375,27273,5,2,0:2:0:0:
418,166,27445,2,0,B|323:147|323:147|283:163|283:163|139:142,1,250,2|2,0:2|0:2,0:0:0:0:
25,40,27963,6,0,B|48:20|48:20|15:193,1,187.5,2|0,0:2|2:0,0:0:0:0:
17,193,28307,1,10,0:2:0:0:
147,100,28480,1,2,0:2:0:0:
96,310,28652,6,0,P|144:364|163:265,1,187.5,2|0,0:2|2:0,0:0:0:0:
177,272,28997,1,2,1:2:0:0:
105,223,29169,1,2,0:2:0:0:
27,255,29342,1,2,0:2:0:0:
96,310,29514,1,2,0:2:0:0:
234,200,29687,6,0,L|252:59,1,125,10|2,0:2|0:2,0:0:0:0:
430,187,30032,1,2,0:2:0:0:
395,96,30204,1,2,0:2:0:0:
298,256,30376,6,0,B|346:204|346:204|536:272,2,250,2|2|10,0:2|0:2|0:2,0:0:0:0:
197,350,31238,1,2,0:2:0:0:
117,328,31411,1,2,0:2:0:0:
33,322,31583,2,0,L|105:314,1,62.5,2|0,0:2|2:0,0:0:0:0:
229,212,31756,5,2,1:2:0:0:
55,55,32014,5,2,0:2:0:0:
33,322,32273,5,2,0:2:0:0:
132,248,32445,6,0,L|116:119,1,125,10|2,0:2|0:2,0:0:0:0:
266,22,32790,1,2,0:2:0:0:
219,145,32963,1,2,0:2:0:0:
87,18,33135,6,0,B|123:42|123:42|292:18,1,187.5,2|0,1:2|2:0,0:0:0:0:
291,23,33480,1,2,0:2:0:0:
347,161,33652,1,2,0:2:0:0:
470,88,33825,2,0,B|445:60|445:60|319:83,1,125,10|2,0:2|0:2,0:0:0:0:
280,274,34169,6,0,B|330:304|388:297|381:241|409:194|507:251,1,225.000008583069,0|0,0:0|2:0,0:0:0:0:
480,237,34514,5,6,1:2:0:0:
381,377,34859,1,0,1:2:0:0:
169,243,35204,5,0,1:2:0:0:
70,383,35549,1,0,1:2:0:0:
51,70,35894,5,2,1:2:0:0:
266,172,36239,1,0,1:2:0:0:
256,24,36583,5,0,1:2:0:0:
104,207,36928,1,0,1:2:0:0:
135,125,37100,1,0,1:2:0:0:
26,317,37273,5,2,1:2:0:0:
256,384,37618,1,0,1:2:0:0:
488,232,37963,5,0,1:2:0:0:
256,296,38308,1,0,1:2:0:0:
24,144,38652,5,2,1:2:0:0:
256,208,38997,1,0,1:2:0:0:
488,80,39342,5,0,1:2:0:0:
256,120,39687,1,0,1:2:0:0:
256,120,40032,5,2,1:2:0:0:
360,104,40204,1,2,1:2:0:0:
256,208,40376,5,2,1:2:0:0:
160,184,40549,1,2,1:2:0:0:
256,296,40721,5,2,1:2:0:0:
352,272,40894,1,2,1:2:0:0:
256,384,41066,5,2,1:2:0:0:
168,352,41238,1,2,1:2:0:0:
352,272,41411,5,2,1:2:0:0:
256,296,41583,1,0,1:2:0:0:
160,184,41756,5,2,1:2:0:0:
256,208,41928,1,0,1:2:0:0:
360,104,42100,5,2,1:2:0:0:
256,120,42272,1,2,1:2:0:0:
152,16,42445,5,2,1:2:0:0:
256,32,42617,1,2,1:2:0:0:
256,120,42790,5,2,1:2:0:0:
256,149,42876,1,0,1:2:0:0:
256,178,42963,1,0,1:2:0:0:
256,207,43049,1,0,1:2:0:0:
256,237,43135,1,0,1:2:0:0:
256,266,43221,1,0,1:2:0:0:
256,295,43307,1,0,1:2:0:0:
256,325,43394,1,0,1:2:0:0:
256,325,44169,6,0,B|248:312|248:312|264:296|264:296|248:280|248:280|264:264|264:264|248:248|248:248|264:232|264:232|248:216|248:216|264:200|264:200|248:184,1,175,0|0,0:0|2:0,0:0:0:0:
263,199,44859,6,0,P|303:246|410:240,1,150.000005722046,2|2,0:2|0:2,0:0:0:0:
353,149,45204,6,0,P|340:160|362:152,1,75,0|0,1:2|2:0,0:0:0:0:
439,76,45549,6,0,B|339:6|262:90|267:119|166:208|46:135,1,419.999987182618,6|0,1:2|0:0,0:0:0:0:
56,141,46238,5,10,0:2:0:0:
120,13,46411,2,0,L|134:112,1,69.9999978637696,2|0,0:2|0:0,0:0:0:0:
125,196,46583,2,0,P|60:229|-6:203,1,139.999995727539,2|2,0:2|0:2,0:0:0:0:
230,140,46928,5,2,1:2:0:0:
210,307,47100,2,0,L|200:237,1,69.9999978637696,2|0,0:2|0:0,0:0:0:0:
241,128,47273,2,0,P|306:107|366:140,1,139.999995727539,2|2,0:2|0:2,0:0:0:0:
364,300,47618,5,10,0:2:0:0:
298,194,47790,2,0,L|288:263,1,69.9999978637696,2|0,0:2|0:0,0:0:0:0:
454,310,47963,6,0,B|446:257|446:257|421:229|421:229|404:146,1,139.999995727539,2|0,0:2|0:0,0:0:0:0:
311,38,48307,6,0,B|333:21|370:43|370:43|354:79|253:110|171:63,1,240,6|0,1:2|2:0,0:0:0:0:
197,62,48652,5,2,0:2:0:0:
212,159,48825,1,2,0:2:0:0:
114,40,48997,2,0,L|13:47,2,80,10|2|2,0:2|0:2|0:2,0:0:0:0:
215,47,49514,1,2,0:2:0:0:
113,134,49687,6,0,L|129:225,1,80,2|2,1:2|0:2,0:0:0:0:
245,248,50032,2,0,L|229:339,1,80,2|2,0:2|0:2,0:0:0:0:
161,366,50376,1,10,0:2:0:0:
161,366,50549,1,2,0:2:0:0:
169,189,50721,6,0,B|218:146|218:146|322:168,1,139.999995727539,2|0,0:2|0:0,0:0:0:0:
476,179,51066,6,0,P|367:215|437:41,1,419.999987182618,6|0,1:2|0:0,0:0:0:0:
431,38,51756,5,10,0:2:0:0:
397,123,51928,2,0,P|396:151|407:210,1,69.9999978637696,2|0,0:2|0:0,0:0:0:0:
477,267,52100,1,2,0:2:0:0:
477,267,52273,1,2,0:2:0:0:
331,239,52445,5,2,1:2:0:0:
393,353,52618,2,0,P|398:318|397:283,1,69.9999978637696,2|0,0:2|0:0,0:0:0:0:
313,157,52790,1,2,0:2:0:0:
313,157,52963,1,2,0:2:0:0:
211,319,53135,6,0,P|247:322|281:298,1,69.9999978637696,10|0,0:2|0:0,0:0:0:0:
256,231,53307,2,0,P|220:227|185:251,1,69.9999978637696,2|0,0:2|0:0,0:0:0:0:
64,257,53480,6,0,B|32:274|32:274|169:310,1,139.999995727539,2|0,0:2|0:0,0:0:0:0:
212,137,53825,6,0,B|235:100|232:85|232:85|192:82|143:116|150:125|126:195|26:154,1,240,6|0,1:2|2:0,0:0:0:0:
73,86,54169,2,0,B|120:72|120:72|222:167|222:167|281:157,1,240,2|0,0:2|2:0,0:0:0:0:
300,149,54514,5,10,0:2:0:0:
314,271,54687,1,0,0:0:0:0:
391,148,54859,2,0,P|375:97|307:58,1,129.999994049073,2|0,0:2|0:0,0:0:0:0:
252,336,55204,6,0,P|337:283|447:274,1,194.999991073609,2|0,1:2|2:0,0:0:0:0:
440,259,55549,1,2,0:2:0:0:
300,149,55721,2,0,P|280:179|279:207,1,64.9999970245363,2|0,0:2|0:0,0:0:0:0:
402,175,55894,6,0,P|384:74|379:21,1,129.999994049073,10|0,0:2|0:0,0:0:0:0:
283,12,56238,1,0,0:0:0:0:
186,94,56411,1,0,0:0:0:0:
187,110,56497,1,0,0:0:0:0:
189,126,56583,6,0,B|218:114|224:81|224:81|129:75|87:147|111:220,1,240,6|0,1:2|2:0,0:0:0:0:
108,187,56928,6,0,P|112:210|112:189,1,75.0000028610231
22,133,57273,5,10,0:2:0:0:
34,336,57445,2,0,L|20:265,1,64.9999970245363,2|0,0:2|0:0,0:0:0:0:
26,137,57618,2,0,L|48:273,1,129.999994049073,2|2,0:2|0:2,0:0:0:0:
154,364,57963,5,2,1:2:0:0:
216,231,58135,2,0,L|227:302,1,64.9999970245363,2|0,0:2|0:0,0:0:0:0:
241,364,58308,2,0,L|220:232,1,129.999994049073,2|2,0:2|0:2,0:0:0:0:
232,61,58652,5,10,0:2:0:0:
339,151,58825,2,0,L|285:157,1,50,2|0,0:2|2:0,0:0:0:0:
236,65,58997,6,0,B|301:59|301:59|312:70|312:70|385:65,1,139.999995727539,2|0,0:2|0:0,0:0:0:0:
498,131,59342,6,0,B|503:94|503:94|436:97|393:208|459:296,1,240,6|0,1:2|2:0,0:0:0:0:
450,265,59687,6,0,L|452:227,1,37.5000014305115,2|0,0:2|2:0,0:0:0:0:
470,221,59859,1,2,0:2:0:0:
461,377,60032,1,10,0:2:0:0:
299,309,60204,6,0,L|303:346,1,37.5000014305115,2|0,0:2|2:0,0:0:0:0:
291,359,60376,2,0,L|276:228,2,129.999994049073,2|2|2,0:2|0:2|1:2,0:0:0:0:
164,274,60894,6,0,L|177:227,1,37.5000014305115,2|0,0:2|2:0,0:0:0:0:
165,225,61066,2,0,L|126:353,1,129.999994049073,2|2,0:2|0:2,0:0:0:0:
0,354,61411,1,10,0:2:0:0:
62,210,61583,6,0,B|68:186|52:177|52:177|38:194|53:212,2,75.0000028610231
97,285,62100,6,0,B|136:269|146:222|146:222|197:304|287:267,1,240,6|0,1:2|2:0,0:0:0:0:
241,169,62445,6,0,P|245:192|245:171,1,75.0000028610231,2|0,0:2|0:0,0:0:0:0:
164,29,62790,5,10,0:2:0:0:
153,33,62876,1,2,0:2:0:0:
144,40,62963,1,2,0:2:0:0:
137,49,63049,1,2,0:2:0:0:
133,59,63135,2,0,L|127:105,3,37.5000014305115,2|2|2|2,0:2|0:2|0:2|0:2,0:0:0:0:
45,156,63480,5,2,1:2:0:0:
62,160,63566,1,2,0:2:0:0:
79,173,63653,1,2,0:2:0:0:
94,190,63739,1,2,0:2:0:0:
99,209,63825,2,0,L|110:293,3,50,2|2|2|2,0:2|0:2|0:2|0:2,0:0:0:0:
166,326,64169,5,10,0:2:0:0:
345,214,64342,2,0,P|319:211|298:219,1,50,2|0,0:2|2:0,0:0:0:0:
215,255,64514,6,0,B|271:259|271:259|290:278|290:278|353:287,1,139.999995727539,2|2,0:2|0:2,0:0:0:0:
512,115,64859,6,0,B|528:93|528:93|471:61|434:100|438:110|397:172|311:106,1,240,6|0,1:2|2:0,0:0:0:0:
377,52,65204,6,0,B|421:88|421:88|433:280,1,240,2|0,0:2|2:0,0:0:0:0:
435,303,65549,5,10,0:2:0:0:
274,307,65721,1,0,0:0:0:0:
326,220,65894,2,0,P|328:265|283:347,1,129.999994049073,2|0,0:2|0:0,0:0:0:0:
64,364,66238,6,0,B|17:312|37:215|132:236|122:285,1,194.999991073609,6|0,1:2|2:0,0:0:0:0:
117,296,66583,1,2,0:2:0:0:
24,186,66756,2,0,P|12:151|18:112,1,64.9999970245363,2|0,0:2|0:0,0:0:0:0:
90,71,66928,6,0,B|177:76|177:76|185:80|185:80|298:86,2,194.999991073609,10|0|0,0:2|0:0|0:0,0:0:0:0:
186,51,67618,5,6,1:2:0:0:
194,129,67790,1,2,0:0:0:0:
203,207,67963,1,2,0:0:0:0:
212,286,68135,1,2,0:0:0:0:
307,209,68307,5,10,0:2:0:0:
311,213,68652,2,0,P|383:225|417:272,1,125,2|0,0:0|0:0,0:0:0:0:
423,133,68997,6,0,P|309:171|193:183,1,187.5,2|0,1:2|2:0,0:0:0:0:
231,202,69342,2,0,P|117:164|1:152,1,187.5,2|0,0:0|2:0,0:0:0:0:
28,141,69687,6,0,P|98:130|172:97,1,125,10|0,0:2|0:0,0:0:0:0:
156,278,70032,2,0,P|97:256|35:247,1,125,2|0,0:0|0:0,0:0:0:0:
295,136,70376,6,0,B|254:58|254:58|221:256,2,250,2|2|10,1:2|0:0|0:2,0:0:0:0:
295,136,71411,5,2,0:0:0:0:
368,103,71583,1,2,0:0:0:0:
342,209,71756,2,0,P|352:276|387:318,1,100,2|0,1:2|0:0,0:0:0:0:
470,174,72100,2,0,P|460:107|425:65,1,100,2|0,0:0|0:0,0:0:0:0:
315,27,72445,5,10,0:2:0:0:
295,136,72618,1,2,0:0:0:0:
319,31,72790,2,0,L|201:15,1,100,2|2,0:0|0:0,0:0:0:0:
100,146,73135,5,2,1:2:0:0:
179,137,73307,1,2,0:0:0:0:
257,128,73480,1,2,0:0:0:0:
335,120,73652,1,2,0:0:0:0:
241,227,73825,5,10,0:2:0:0:
245,231,74169,2,0,P|236:290|261:350,1,125,2|0,0:0|0:0,0:0:0:0:
134,201,74514,6,0,P|217:204|329:150,1,187.5,2|0,1:2|2:0,0:0:0:0:
320,153,74859,2,0,P|305:84|248:84,1,125,2|0,0:0|0:0,0:0:0:0:
68,139,75204,6,0,P|48:221|161:295,1,187.5,10|0,0:2|2:0,0:0:0:0:
119,311,75549,2,0,P|199:284|264:278,1,125
374,110,75894,6,0,B|238:40|187:120|207:143|114:213|1:132,1,375,2|0,1:2|0:0,0:0:0:0:
0,45,76583,1,8,0:2:0:0:
76,8,76756,1,2,0:0:0:0:
131,71,76928,2,0,L|107:217,1,125,2|2,0:0|0:0,0:0:0:0:
72,312,77273,6,0,P|83:233|165:328,1,250,2|2,1:2|0:0,0:0:0:0:
138,369,77790,1,2,0:0:0:0:
270,208,77963,5,10,0:2:0:0:
279,295,78135,2,0,L|287:380,2,62.5,2|0|0,0:0|0:0|0:0,0:0:0:0:
263,118,78480,1,0,0:0:0:0:
270,208,78652,5,0,1:2:0:0:
256,192,82273,12,0,83997,0:0:0:0:
172,255,84169,5,0,0:0:0:0:
320,217,86813,6,0,L|300:162,2,33.3333333333333,0|0|8,0:0|0:0|0:0,0:0:0:0:
256,192,87043,12,0,89514,0:0:0:0:
147,252,89687,5,0,1:0:0:0:
443,268,92445,5,0,1:2:0:0:
462,265,92532,1,0,0:0:0:0:
476,278,92618,1,0,0:0:0:0:
428,351,92790,1,8,0:2:0:0:
301,230,92963,5,0,1:2:0:0:
286,218,93050,1,0,0:0:0:0:
267,222,93136,1,0,0:0:0:0:
272,309,93308,1,0,1:2:0:0:
385,210,93480,2,0,L|372:144,1,50,0|0,1:2|2:0,0:0:0:0:
368,142,93652,1,0,1:2:0:0:
257,80,93825,6,0,L|123:118,2,125,0|0|8,1:2|1:2|0:2,0:0:0:0:
385,52,94342,1,0,1:2:0:0:
361,30,94428,1,0,0:0:0:0:
334,32,94514,1,0,1:2:0:0:
257,80,94687,5,0,0:0:0:0:
261,165,94859,1,0,0:0:0:0:
281,246,95032,1,0,0:0:0:0:
120,295,95204,6,0,B|115:250|115:250|176:137|176:137|164:62,1,225.000008583069,6|0,1:2|2:0,0:0:0:0:
144,144,95549,2,0,L|165:277,1,100,2|0,0:2|0:0,0:0:0:0:
29,300,95894,5,10,0:2:0:0:
1,219,96066,1,2,0:2:0:0:
41,142,96238,1,2,0:2:0:0:
83,62,96411,6,0,L|262:42,1,150,2|0,0:2|2:0,0:0:0:0:
232,45,96756,1,2,0:2:0:0:
332,171,96928,2,0,B|385:142|385:142|325:7,1,187.5,2|0,0:2|2:0,0:0:0:0:
333,25,97273,5,10,0:2:0:0:
222,135,97445,1,2,0:2:0:0:
333,254,97618,2,0,L|420:243,1,62.5,2|0,0:2|2:0,0:0:0:0:
332,171,97790,2,0,B|292:177|292:177|266:201,1,62.5,2|0,0:2|2:0,0:0:0:0:
266,311,97963,6,0,B|308:341|308:341|490:319,2,187.5,2|2|2,1:2|0:2|0:2,0:0:0:0:
133,179,98652,2,0,B|144:256|144:256|164:281|164:281|177:368,1,187.5,10|0,0:2|2:0,0:0:0:0:
178,372,98997,1,0,0:0:0:0:
262,286,99169,6,0,B|276:184|276:184|302:151|302:151|319:37,1,250,2|2,0:2|0:2,0:0:0:0:
193,14,99687,2,0,L|64:35,1,125,2|0,0:2|0:0,0:0:0:0:
180,185,100032,5,10,0:2:0:0:
227,112,100204,1,2,0:2:0:0:
143,106,100376,1,2,0:2:0:0:
95,177,100549,2,0,L|177:196,1,62.5,2|0,0:2|2:0,0:0:0:0:
315,154,100721,6,0,B|331:64|331:64|214:0,2,187.5,2|2|2,1:2|0:2|0:2,0:0:0:0:
185,248,101411,5,10,0:2:0:0:
449,235,101669,5,2,0:2:0:0:
242,361,101928,5,2,0:2:0:0:
325,192,102100,6,0,L|317:351,1,125,2|0,0:2|0:0,0:0:0:0:
474,157,102445,2,0,B|403:142|403:142|373:107|373:107|252:95,1,187.5,2|0,0:2|2:0,0:0:0:0:
290,101,102790,1,10,0:2:0:0:
128,176,102963,1,2,0:2:0:0:
207,66,103135,2,0,L|215:225,1,125
60,293,103480,5,2,1:2:0:0:
22,166,103652,1,2,0:2:0:0:
157,284,103825,1,2,0:2:0:0:
166,150,103997,1,2,0:2:0:0:
118,364,104169,6,0,B|199:397|245:336|228:328|267:276|358:305,1,250,10|2,0:2|0:2,0:0:0:0:
428,343,104687,1,2,0:2:0:0:
273,216,104859,6,0,P|314:173|295:116,1,125,2|0,1:2|0:0,0:0:0:0:
489,281,105204,2,0,P|469:233|537:181,1,125,2|0,0:2|0:0,0:0:0:0:
365,21,105549,5,10,0:2:0:0:
402,154,105721,1,2,1:2:0:0:
512,63,105894,1,2,1:2:0:0:
450,7,106066,2,0,L|427:87,1,62.5,2|0,1:2|2:0,0:0:0:0:
318,182,106238,6,0,L|324:225,6,31.25,2|0|0|0|0|0|0,1:2|0:0|0:0|0:0|0:0|0:0|0:0,0:0:0:0:
262,117,106583,1,2,0:2:0:0:
262,117,106756,1,2,0:2:0:0:
120,224,106928,6,0,L|104:362,1,125,10|2,0:2|0:2,0:0:0:0:
47,154,107273,1,2,0:2:0:0:
201,318,107445,2,0,B|310:302|310:302|318:305|318:305|459:285,2,250,2|2|2,0:2|0:2|0:2,0:0:0:0:
47,154,108307,5,10,0:2:0:0:
139,159,108480,1,0,0:0:0:0:
131,251,108652,1,2,0:2:0:0:
39,245,108825,2,0,P|35:205|42:176,1,62.5,2|0,0:2|2:0,0:0:0:0:
147,49,108997,6,0,B|200:40|200:40|322:104,1,187.5,2|0,1:2|2:0,0:0:0:0:
216,113,109342,2,0,L|313:32,1,125,2|0,0:2|0:0,0:0:0:0:
479,78,109687,2,0,B|497:55|497:55|493:22,1,62.5,10|0,0:2|2:0,0:0:0:0:
415,5,109859,2,0,B|395:29|395:29|400:60,1,62.5,2|0,0:2|2:0,0:0:0:0:
483,213,110032,5,2,0:2:0:0:
395,376,110204,2,0,B|368:315|368:315|425:121,1,250,2|2,0:2|0:2,0:0:0:0:
271,38,110721,6,0,B|248:-2|248:-2|276:158,1,187.5,2|0,0:2|2:0,0:0:0:0:
284,161,111066,1,10,0:2:0:0:
134,131,111238,1,2,0:2:0:0:
195,278,111411,6,0,P|190:211|176:273,1,187.5,2|0,0:2|2:0,0:0:0:0:
175,272,111756,1,2,1:2:0:0:
257,347,111928,1,2,0:2:0:0:
341,306,112100,1,2,0:2:0:0:
411,367,112273,1,2,0:2:0:0:
501,190,112445,6,0,P|512:120|503:65,2,125,10|2|2,0:2|0:2|0:2,0:0:0:0:
418,241,112962,1,2,0:2:0:0:
389,132,113135,6,0,P|361:79|300:41,1,125,2|0,0:2|0:0,0:0:0:0:
261,205,113480,2,0,P|169:188|81:222,1,187.5,2|0,0:2|2:0,0:0:0:0:
82,220,113825,5,10,0:2:0:0:
136,297,113997,1,2,0:2:0:0:
218,263,114169,1,2,0:2:0:0:
164,192,114342,2,0,P|163:233|185:271,1,62.5,2|0,0:2|2:0,0:0:0:0:
299,349,114514,5,2,1:2:0:0:
398,191,114773,5,2,0:2:0:0:
319,24,115032,5,2,0:2:0:0:
286,191,115204,2,0,P|260:141|249:45,1,125,10|2,0:2|0:2,0:0:0:0:
80,10,115549,1,2,0:2:0:0:
161,44,115721,1,2,0:2:0:0:
89,99,115894,1,2,1:2:0:0:
89,99,116238,5,2,0:2:0:0:
166,266,116411,1,2,0:2:0:0:
47,222,116583,1,10,0:2:0:0:
216,146,116756,2,0,B|363:101|309:285|512:210,1,312.5,2|0,0:2|2:0,0:0:0:0:
497,215,117273,5,6,1:2:0:0:
435,87,117618,1,0,1:2:0:0:
331,315,117963,5,0,1:2:0:0:
393,186,118308,1,0,1:2:0:0:
103,197,118652,5,2,1:2:0:0:
178,353,118997,1,0,1:2:0:0:
261,84,119342,5,0,1:2:0:0:
194,244,119687,1,0,1:2:0:0:
182,156,119859,1,0,1:2:0:0:
83,334,120032,5,2,1:2:0:0:
256,192,120376,1,0,1:2:0:0:
389,339,120721,5,0,1:2:0:0:
257,108,121066,1,0,1:2:0:0:
255,356,121411,5,2,1:2:0:0:
255,28,121756,1,0,1:2:0:0:
257,276,122100,5,0,1:2:0:0:
257,108,122445,1,0,1:2:0:0:
257,276,122790,5,2,1:2:0:0:
361,292,122962,1,2,1:2:0:0:
255,194,123135,5,2,1:2:0:0:
159,218,123307,1,2,1:2:0:0:
257,108,123480,5,2,1:2:0:0:
353,132,123652,1,2,1:2:0:0:
257,20,123824,5,2,1:2:0:0:
169,52,123997,1,2,1:2:0:0:
353,132,124169,5,2,1:2:0:0:
257,108,124342,1,0,1:2:0:0:
159,218,124514,5,2,1:2:0:0:
255,194,124687,1,0,1:2:0:0:
361,292,124859,5,2,1:2:0:0:
257,276,125032,1,2,1:2:0:0:
153,379,125204,5,2,1:2:0:0:
257,363,125376,1,2,1:2:0:0:
181,214,125549,5,2,1:2:0:0:
172,176,125635,1,0,1:2:0:0:
180,139,125721,1,0,1:2:0:0:
204,109,125807,1,0,1:2:0:0:
238,92,125893,1,0,1:2:0:0:
277,92,125980,1,0,1:2:0:0:
311,110,126066,1,0,1:2:0:0:
335,140,126152,1,0,1:2:0:0:
342,178,126238,1,0,1:2:0:0:
332,216,126324,1,0,1:2:0:0:
332,216,127618,6,0,P|260:206|184:231,1,150,0|0,0:0|2:0,0:0:0:0:
123,165,127963,6,0,L|131:109,1,50,0|0,1:2|2:0,0:0:0:0:
141,119,128135,2,0,L|133:168,1,50,0|0,1:2|2:0,0:0:0:0:
40,292,128307,6,0,L|223:321,1,150.000005722046,6|0,1:2|0:0,0:0:0:0:
188,315,128652,6,0,B|108:261|100:360|30:282,1,160,10|0,0:0|0:0,0:0:0:0:
0,126,128997,5,2,1:2:0:0:
0,126,129169,2,0,L|14:56,1,69.9999978637696,2|0,0:0|0:0,0:0:0:0:
126,0,129342,5,10,0:0:0:0:
126,0,129514,2,0,L|145:89,1,69.9999978637696,2|0,0:0|0:0,0:0:0:0:
235,172,129687,5,2,1:2:0:0:
235,172,129859,1,2,0:0:0:0:
280,43,130032,5,10,0:0:0:0:
280,43,130204,1,2,0:0:0:0:
381,139,130376,5,2,1:2:0:0:
381,139,130549,1,2,0:0:0:0:
455,25,130721,6,0,B|484:55|484:55|491:184,1,139.999995727539,10|0,0:0|0:0,0:0:0:0:
380,281,131066,6,0,B|358:271|335:285|335:285|217:345|217:345|191:355|174:329,1,209.999993591309,6|0,1:2|2:0,0:0:0:0:
198,265,131411,2,0,B|203:252|227:267|227:267|331:349|331:349|351:366|374:361,1,209.999993591309,10|0,0:0|2:0,0:0:0:0:
447,333,131756,6,0,P|490:326|520:280,1,75.0000028610231,2|2,1:2|0:0,0:0:0:0:
374,144,132100,2,0,P|331:137|301:91,1,75.0000028610231,10|2,0:0|0:0,0:0:0:0:
103,24,132445,6,0,P|133:67|134:112,1,75.0000028610231,2|2,1:2|0:0,0:0:0:0:
18,281,132790,2,0,P|40:233|78:210,1,75.0000028610231,10|2,0:0|0:0,0:0:0:0:
284,227,133135,2,0,P|231:231|192:209,1,75.0000028610231,2|2,1:2|0:0,0:0:0:0:
136,88,133480,6,0,L|141:43,1,37.5000014305115,10|0,0:0|2:0,0:0:0:0:
142,36,133652,1,0,0:0:0:0:
293,36,133825,6,0,L|464:60,1,150.000005722046,6|0,1:2|0:0,0:0:0:0:
441,56,134169,6,0,B|405:41|405:41|328:60|328:60|291:34,1,160,10|0,0:0|0:0,0:0:0:0:
497,149,134514,5,2,1:2:0:0:
506,169,134687,1,2,0:0:0:0:
373,137,134859,5,10,0:0:0:0:
419,183,135032,1,2,0:0:0:0:
258,193,135204,5,2,1:2:0:0:
338,213,135376,1,2,0:0:0:0:
157,269,135549,5,10,0:0:0:0:
273,278,135721,1,2,0:0:0:0:
78,381,135894,5,2,1:2:0:0:
211,352,136066,2,0,B|273:335|273:335|279:336|279:336|365:317,2,139.999995727539,2|10|0,0:0|0:0|0:0,0:0:0:0:
26,98,136583,6,0,B|1:104|1:104|-26:173|54:251|136:193,1,240,6|0,1:2|2:0,0:0:0:0:
82,127,136928,6,0,P|53:239|171:281,1,240,10|0,0:0|2:0,0:0:0:0:
159,283,137273,1,2,1:2:0:0:
231,163,137445,1,0,0:0:0:0:
329,286,137618,2,0,P|320:231|351:139,1,129.999994049073,10|0,0:0|0:0,0:0:0:0:
485,36,137963,5,10,0:0:0:0:
447,193,138135,1,0,1:2:0:0:
422,103,138307,1,2,1:2:0:0:
183,79,138480,5,10,0:0:0:0:
337,159,138652,1,2,1:2:0:0:
282,81,138825,2,0,P|271:48|273:7,1,75.0000028610231,2|0,1:2|0:0,0:0:0:0:
272,8,139169,6,0,P|283:55|281:92,1,75.0000028610231,0|0,0:0|2:0,0:0:0:0:
213,192,139342,6,0,L|64:168,1,150.000005722046,6|0,1:2|0:0,0:0:0:0:
64,167,139687,6,0,B|107:193|107:193|164:164|164:164|213:192,1,170.000003242493,2|0,0:0|0:0,0:0:0:0:
305,345,140032,5,10,0:0:0:0:
295,327,140118,1,2,0:0:0:0:
291,308,140204,1,2,0:0:0:0:
295,288,140290,1,2,0:0:0:0:
306,271,140376,2,0,L|402:258,3,69.9999978637696,2|2|2|2,0:0|0:0|0:0|0:0,0:0:0:0:
447,201,140721,5,2,1:2:0:0:
460,176,140807,1,2,0:0:0:0:
465,149,140893,1,2,0:0:0:0:
460,122,140979,1,2,0:0:0:0:
444,98,141066,2,0,L|309:79,3,69.9999978637696,2|2|2|2,0:0|0:0|0:0|0:0,0:0:0:0:
322,177,141411,5,10,0:0:0:0:
251,31,141583,2,0,L|248:91,1,50,2|0,0:0|2:0,0:0:0:0:
326,181,141756,6,0,B|294:156|294:156|254:169|254:169|180:153,1,139.999995727539,2|2,0:0|0:0,0:0:0:0:
55,28,142100,6,0,P|62:102|83:174,1,150.000005722046,6|0,1:2|0:0,0:0:0:0:
84,175,142445,6,0,B|95:129|95:129|82:56|82:56|55:28,1,160,2|0,0:0|0:0,0:0:0:0:
8,227,142790,5,10,0:0:0:0:
18,243,142876,1,2,0:0:0:0:
32,256,142962,1,2,0:0:0:0:
49,265,143048,1,2,0:0:0:0:
67,270,143135,2,0,L|146:257,3,69.9999978637696,2|2|2|2,0:0|0:0|0:0|0:0,0:0:0:0:
201,187,143480,5,2,1:2:0:0:
230,189,143566,1,2,0:0:0:0:
260,192,143652,1,2,0:0:0:0:
290,195,143738,1,2,0:0:0:0:
320,198,143825,2,0,L|389:203,3,69.9999978637696,2|2|2|2,0:0|0:0|0:0|0:0,0:0:0:0:
296,82,144169,5,10,0:0:0:0:
296,82,144859,6,0,B|272:120|292:162|301:154|325:199|289:248,1,160,6|0,1:2|0:0,0:0:0:0:
297,235,145204,6,0,B|277:190|277:190|324:121|324:121|288:69,1,179.999994506836,2|0,0:0|0:0,0:0:0:0:
100,6,145549,5,10,0:0:0:0:
103,33,145635,1,2,0:0:0:0:
107,61,145721,1,2,0:0:0:0:
112,89,145807,1,2,0:0:0:0:
116,118,145894,2,0,L|136:240,3,69.9999978637696,2|2|2|2,0:0|0:0|0:0|0:0,0:0:0:0:
56,243,146238,5,2,1:2:0:0:
82,269,146324,1,2,0:0:0:0:
119,282,146410,1,2,0:0:0:0:
158,278,146496,1,2,0:0:0:0:
192,259,146583,2,0,P|242:241|286:242,3,69.9999978637696,2|2|2|2,0:0|0:0|0:0|0:0,0:0:0:0:
241,142,146928,5,10,0:0:0:0:
332,280,147100,2,0,P|347:226|344:205,1,50,2|0,0:0|2:0,0:0:0:0:
237,138,147273,6,0,B|223:104|223:104|372:130,1,139.999995727539,2|2,0:0|0:0,0:0:0:0:
499,325,147618,6,0,B|505:290|444:257|404:326|404:326|354:399|251:332,1,240,6|0,1:2|2:0,0:0:0:0:
219,322,147963,6,0,B|270:370|270:370|289:147,1,240,0|0,0:0|2:0,0:0:0:0:
281,175,148307,5,8,0:0:0:0:
112,214,148480,1,0,0:0:0:0:
179,118,148652,2,0,P|250:111|316:178,1,139.999995727539,2|0,0:0|0:0,0:0:0:0:
100,304,148997,6,0,P|101:204|86:70,1,209.999993591309,6|0,1:2|2:0,0:0:0:0:
75,79,149342,1,2,0:0:0:0:
2,198,149514,2,0,P|4:235|22:276,1,69.9999978637696,2|0,0:0|0:0,0:0:0:0:
192,292,149687,6,0,B|292:275|292:275|296:280|296:280|420:255,2,209.999993591309,10|0|0,0:0|0:0|0:0,0:0:0:0:
308,370,150376,6,0,L|273:174,1,187.5,6|0,1:2|2:0,0:0:0:0:
268,166,150721,1,2,0:0:0:0:
337,99,150894,1,2,0:0:0:0:
138,50,151066,5,10,0:2:0:0:
141,53,151411,2,0,P|103:103|88:189,1,125,2|0,0:0|0:0,0:0:0:0:
206,349,151756,6,0,P|180:282|65:269,1,187.5,2|0,1:2|2:0,0:0:0:0:
64,274,152100,2,0,P|64:337|136:349,1,125,2|0,0:0|0:0,0:0:0:0:
334,373,152445,6,0,B|365:345|365:345|380:172,1,187.5,10|0,0:2|2:0,0:0:0:0:
362,195,152790,2,0,B|360:232|360:232|402:318,1,125,2|0,0:0|0:0,0:0:0:0:
451,130,153135,6,0,B|421:91|421:91|323:79|323:79|292:95|292:95|150:76|150:76|105:104,1,375,2|0,1:2|0:0,0:0:0:0:
12,282,153825,1,10,0:2:0:0:
12,282,154169,5,2,0:0:0:0:
100,299,154342,1,2,0:0:0:0:
180,247,154514,2,0,P|174:202|118:152,1,100,2|0,1:2|0:0,0:0:0:0:
246,316,154859,2,0,P|273:279|269:204,1,100,2|0,0:0|0:0,0:0:0:0:
344,81,155204,5,10,0:2:0:0:
253,60,155376,1,2,0:0:0:0:
347,84,155549,2,0,L|237:111,1,100,2|2,0:0|0:0,0:0:0:0:
45,51,155894,6,0,P|100:71|141:189,1,187.5,2|0,1:2|2:0,0:0:0:0:
133,198,156238,1,2,0:0:0:0:
38,183,156411,1,2,0:0:0:0:
170,307,156583,5,10,0:2:0:0:
170,307,156928,2,0,B|309:311,1,125,2|0,0:0|0:0,0:0:0:0:
476,182,157273,6,0,P|384:167|340:250,1,187.5,2|0,1:2|2:0,0:0:0:0:
342,240,157618,2,0,P|372:213|368:118,1,125,2|0,0:0|0:0,0:0:0:0:
264,45,157963,6,0,B|182:39|182:39|173:47|173:47|74:37,1,187.5,10|0,0:2|2:0,0:0:0:0:
84,41,158307,2,0,L|221:57,1,125
366,70,158652,6,0,B|398:102|362:162|307:140|307:140|239:112|169:172|205:294|323:264|318:217,1,375,2|0,1:2|0:0,0:0:0:0:
404,227,159342,1,8,0:2:0:0:
404,227,159514,2,0,L|392:354,2,125,2|2|2,0:0|0:0|0:0,0:0:0:0:
336,95,160032,6,0,P|310:149|243:160,1,125,2|0,1:2|0:0,0:0:0:0:
199,98,160376,2,0,P|225:44|292:33,1,125,2|2,0:0|0:0,0:0:0:0:
404,227,160721,6,0,B|420:289|420:289|377:342,1,125,10|2,0:2|0:0,0:0:0:0:
296,316,161066,2,0,B|279:253|279:253|322:200,1,125
380,151,161411,5,4,1:2:0:0:
256,192,161497,12,0,163825,0:0:0:0:
