osu file format v14

[General]
AudioFilename: audio.mp3
AudioLeadIn: 0
PreviewTime: 43566
Countdown: 0
SampleSet: Soft
StackLeniency: 0.5
Mode: 0
LetterboxInBreaks: 0
WidescreenStoryboard: 1

[Editor]
Bookmarks: 9687,16411,23480,27445,34514,45549,56583,67618,82790,95204,106238,117273,128307,139342,150376
DistanceSpacing: 4.3
BeatDivisor: 12
GridSize: 4
TimelineZoom: 1.4

[Metadata]
Title:Gunslinga (feat. MC Mota)
TitleUnicode:Gunslinga (feat. MC Mota)
Artist:Pegboard Nerds
ArtistUnicode:Pegboard Nerds
Creator:Sylas
Version:Normal
Source:
Tags:plaudible jamesjan3 edm electronic drumstep dubstep dnb drum and bass english jamaican raggaeton patwa patois monstercat gunslinger finger thekoala hardcore carnival uncaged vol 7 best of 2019
BeatmapID:2641869
BeatmapSetID:1234094

[Difficulty]
HPDrainRate:4
CircleSize:3
OverallDifficulty:4.5
ApproachRate:6
SliderMultiplier:1.2
SliderTickRate:1

[Events]
//Background and Video events
0,0,"cyberpunk-anime-girl-pistol-gun-uhdpaper.com-4K-125.jpg",0,0
//Break Periods
2,78852,91395
//Storyboard Layer 0 (Background)
//Storyboard Layer 1 (Fail)
//Storyboard Layer 2 (Pass)
//Storyboard Layer 3 (Foreground)
//Storyboard Layer 4 (Overlay)
//Storyboard Sound Samples

[TimingPoints]
32,344.827586206897,4,2,2,70,1,0
9687,-100,4,2,2,70,0,0
12445,-100,4,2,2,70,0,0
45549,-90.9090909090909,4,2,1,80,0,1
67618,-100,4,2,1,70,0,0
78652,-100,4,2,2,70,0,0
128307,-90.9090909090909,4,2,1,85,0,1
138997,-90.9090909090909,4,2,1,85,0,0
139342,-90.9090909090909,4,2,1,85,0,1
150376,-100,4,2,1,70,0,0
161583,-100,4,2,1,70,0,0
163825,-100,4,2,2,5,0,0

[Colours]
Combo1 : 230,152,74
Combo2 : 72,88,181
Combo3 : 164,96,189
Combo4 : 199,61,85

[HitObjects]
78,181,12445,6,0,P|114:157|198:170,1,120,6|2,1:2|0:2,0:0:0:0:
267,236,13135,2,0,L|260:311,1,60,10|2,0:2|0:2,0:0:0:0:
271,353,13480,1,2,0:2:0:0:
271,353,13652,2,0,P|307:377|391:364,1,120,2|2,0:2|0:2,0:0:0:0:
421,334,14169,1,2,0:2:0:0:
480,244,14514,2,0,L|474:184,1,60,10|2,0:2|0:2,0:0:0:0:
470,130,14859,1,2,0:2:0:0:
370,88,15204,6,0,P|357:39|363:-14,2,90,2|2|2,1:2|0:2|0:2,0:0:0:0:
350,138,15894,2,0,L|242:124,1,90,10|0,0:2|2:0,0:0:0:0:
212,61,16411,2,0,L|82:77,1,120,2|2,0:2|0:2,0:0:0:0:
40,88,16928,1,2,0:2:0:0:
13,192,17273,2,0,P|10:241|19:276,1,60,10|2,0:2|0:2,0:0:0:0:
34,301,17618,1,2,0:2:0:0:
139,279,17963,6,0,P|138:216|126:174,2,90,2|2|2,1:2|0:2|0:2,0:0:0:0:
181,312,18652,2,0,P|229:329|285:318,1,90,10|2,0:2|0:2,0:0:0:0:
340,290,19169,1,2,0:2:0:0:
340,290,19342,2,0,P|358:217|361:170,1,120,2|2,0:2|0:2,0:0:0:0:
310,76,20032,2,0,L|244:83,2,60,10|2|0,0:2|0:2|0:0,0:0:0:0:
411,38,20721,6,0,P|425:70|424:103,1,60,2|2,1:2|0:2,0:0:0:0:
417,148,21066,1,2,0:2:0:0:
319,195,21411,1,10,0:2:0:0:
211,187,21756,2,0,L|149:196,1,60,2|2,0:2|0:2,0:0:0:0:
99,183,22100,2,0,P|74:127|93:65,1,120,2|2,1:2|0:2,0:0:0:0:
180,16,22790,1,10,0:2:0:0:
278,59,23135,2,0,L|286:130,1,60,2|2,1:2|1:2,0:0:0:0:
319,159,23480,6,0,L|301:297,1,120,6|2,1:2|0:2,0:0:0:0:
295,334,23997,1,2,0:2:0:0:
295,334,24169,2,0,P|242:354|170:332,1,120,10|2,0:2|0:2,0:0:0:0:
146,298,24687,1,2,0:2:0:0:
111,195,25032,1,2,0:2:0:0:
152,97,25376,1,2,0:2:0:0:
152,97,25549,2,0,P|205:77|277:99,1,120,10|2,0:2|0:2,0:0:0:0:
312,126,26066,1,2,0:2:0:0:
312,126,26238,6,0,L|446:143,1,120,2|2,1:2|0:2,0:0:0:0:
476,245,26928,1,10,0:2:0:0:
476,245,27100,2,0,L|389:255,1,60,2|2,0:2|0:2,0:0:0:0:
374,287,27445,2,0,L|254:271,1,120,2|2,0:2|0:2,0:0:0:0:
200,265,27963,1,2,0:2:0:0:
97,297,28307,2,0,P|89:340|92:374,2,60,10|2|2,0:2|0:2|0:2,0:0:0:0:
115,190,28997,6,0,L|102:63,1,120,2|2,1:2|0:2,0:0:0:0:
137,30,29514,1,2,0:2:0:0:
137,30,29687,2,0,P|203:24|261:61,1,120,10|2,0:2|0:2,0:0:0:0:
284,89,30204,1,2,0:2:0:0:
284,89,30376,1,2,0:2:0:0:
373,29,30721,1,2,0:2:0:0:
480,39,31066,2,0,L|474:113,1,60,10|2,0:2|0:2,0:0:0:0:
470,152,31411,1,2,0:2:0:0:
409,241,31756,6,0,P|448:264|506:258,2,90,2|2|2,1:2|0:2|0:2,0:0:0:0:
367,206,32445,2,0,P|299:194|242:233,1,120,10|2,0:2|0:2,0:0:0:0:
186,300,33135,1,2,1:2:0:0:
85,260,33480,2,0,L|74:192,1,60,2|2,0:2|0:2,0:0:0:0:
64,147,33825,1,10,0:2:0:0:
246,32,34514,6,0,L|382:55,1,120,6|0,1:2|1:2,0:0:0:0:
471,65,35204,1,0,1:2:0:0:
510,165,35549,1,0,1:2:0:0:
460,261,35894,2,0,L|437:397,2,120,2|0|0,1:2|1:2|1:2,0:0:0:0:
361,216,36928,2,0,L|287:223,1,60,0|0,1:2|1:2,0:0:0:0:
247,218,37273,6,0,P|217:168|232:83,1,120,2|0,1:2|1:2,0:0:0:0:
309,47,37963,1,0,1:2:0:0:
213,0,38307,1,0,1:2:0:0:
125,63,38652,2,0,P|65:65|14:35,2,120,2|0|0,1:2|1:2|1:2,0:0:0:0:
219,108,39687,1,0,1:2:0:0:
256,192,40032,12,0,43394,1:2:0:0:
407,100,45204,5,0,1:2:0:0:
457,193,45549,2,0,B|388:234|333:192|348:175|282:106|188:164,1,264.000008056641,6|10,1:2|0:2,0:0:0:0:
168,178,46411,1,2,0:2:0:0:
168,178,46583,2,0,L|176:255,1,66.0000020141602,2|2,0:2|0:2,0:0:0:0:
185,295,46928,1,2,1:2:0:0:
105,364,47273,2,0,P|55:356|38:339,1,66.0000020141602,2|2,0:2|0:2,0:0:0:0:
27,296,47618,2,0,L|13:162,1,132.00000402832,10|2,0:2|0:2,0:0:0:0:
53,66,48307,5,6,1:2:0:0:
149,109,48652,2,0,L|219:98,1,66.0000020141602,2|2,0:2|0:2,0:0:0:0:
256,66,48997,2,0,L|396:88,1,132.00000402832,10|2,0:2|0:2,0:0:0:0:
437,100,49514,1,2,0:2:0:0:
437,100,49687,1,2,1:2:0:0:
491,190,50032,2,0,L|474:262,1,66.0000020141602,2|2,0:2|0:2,0:0:0:0:
426,271,50376,2,0,L|295:291,1,132.00000402832,10|2,0:2|0:2,0:0:0:0:
203,343,51066,6,0,B|162:274|204:219|221:234|290:168|232:74,1,264.000008056641,6|10,1:2|0:2,0:0:0:0:
211,66,51928,1,2,0:2:0:0:
211,66,52100,2,0,L|134:75,1,66.0000020141602,2|2,0:2|0:2,0:0:0:0:
92,81,52445,1,2,1:2:0:0:
23,161,52790,2,0,L|34:239,1,66.0000020141602,2|2,0:2|0:2,0:2:0:0:
49,276,53135,1,10,0:2:0:0:
132,341,53480,1,2,0:2:0:0:
225,291,53825,6,0,B|249:257|249:257|352:270,1,132.00000402832,6|2,1:2|0:2,0:0:0:0:
425,327,54514,2,0,B|458:342|458:342|499:92,1,264.000008056641,10|2,0:2|1:2,0:0:0:0:
426,37,55549,2,0,P|388:20|352:23,1,66.0000020141602,2|0,0:0|0:0,0:0:0:0:
311,20,55894,1,10,0:2:0:0:
105,81,56583,6,0,B|121:138|121:138|114:154|114:154|132:221,1,132.00000402832,6|0,1:2|0:0,0:0:0:0:
178,301,57273,2,0,P|220:288|244:286,1,66.0000020141602,10|2,0:2|0:2,0:0:0:0:
285,315,57618,2,0,P|327:328|351:330,1,66.0000020141602,2|2,0:2|0:2,0:0:0:0:
397,308,57963,2,0,L|429:150,1,132.00000402832,2|2,1:2|0:2,0:0:0:0:
438,130,58480,1,2,0:2:0:0:
438,130,58652,1,10,0:2:0:0:
366,50,58997,2,0,P|315:50|290:69,1,66.0000020141602,2|0,0:2|0:0,0:0:0:0:
269,97,59342,6,0,B|217:110|217:110|125:90,1,132.00000402832,6|2,1:2|0:2,0:0:0:0:
89,78,59859,1,2,0:2:0:0:
89,78,60032,2,0,L|76:158,1,66.0000020141602,10|2,0:2|0:2,0:0:0:0:
69,194,60376,1,2,0:2:0:0:
67,299,60721,2,0,L|219:274,1,132.00000402832,2|2,1:2|0:2,0:0:0:0:
252,268,61238,1,2,0:2:0:0:
252,268,61411,1,10,0:2:0:0:
358,85,62100,6,0,B|368:61|368:61|241:78,1,132.00000402832,6|2,1:2|0:2,0:0:0:0:
158,57,62790,2,0,P|154:92|166:121,1,66.0000020141602,10|2,0:2|0:2,0:0:0:0:
207,152,63135,2,0,P|211:187|199:216,1,66.0000020141602,2|2,0:2|0:2,0:0:0:0:
164,254,63480,2,0,P|235:264|324:286,1,132.00000402832,2|2,1:2|0:2,0:0:0:0:
334,310,63997,1,2,0:2:0:0:
334,310,64169,1,10,0:2:0:0:
431,269,64514,2,0,L|427:192,1,66.0000020141602,2|2,0:2|0:2,0:0:0:0:
404,155,64859,5,6,1:2:0:0:
455,62,65204,1,2,0:2:0:0:
358,19,65549,2,0,B|243:41|243:41|211:35|211:35|76:58,1,264.000008056641,10|6,0:2|1:2,0:0:0:0:
12,115,66583,2,0,L|18:189,1,66.0000020141602,2|0,0:0|0:0,0:0:0:0:
26,233,66928,1,10,0:2:0:0:
209,358,67618,6,0,P|232:319|220:234,1,120,6|2,1:2|0:0,0:0:0:0:
162,159,68307,1,10,0:2:0:0:
254,103,68652,2,0,L|321:119,1,60,2|0,0:0|0:0,0:0:0:0:
344,160,68997,2,0,L|481:144,1,120,2|2,1:2|0:0,0:0:0:0:
486,251,69687,2,0,L|366:264,1,120,10|2,0:2|0:0,0:0:0:0:
288,338,70376,5,2,1:2:0:0:
106,220,71066,1,10,0:2:0:0:
159,125,71411,1,2,0:0:0:0:
258,83,71756,2,0,L|377:69,2,120,2|2|10,1:2|0:0|0:2,0:0:0:0:
160,37,72790,1,2,0:0:0:0:
65,89,73135,6,0,P|52:142|74:201,1,120,2|2,1:2|0:0,0:0:0:0:
146,282,73825,1,10,0:2:0:0:
247,245,74169,2,0,P|281:235|310:240,1,60,2|0,0:0|0:0,0:0:0:0:
338,280,74514,2,0,P|382:294|455:297,1,120,2|2,1:2|0:0,0:0:0:0:
480,191,75204,2,0,P|436:177|363:174,1,120,10|0,0:2|0:0,0:0:0:0:
260,210,75894,6,0,P|173:239|50:136,1,240,2|8,1:2|0:2,0:0:0:0:
70,53,76928,1,2,0:0:0:0:
174,23,77273,2,0,L|300:48,1,120,2|2,1:2|0:0,0:0:0:0:
339,143,77963,2,0,L|465:118,1,120,10|0,0:2|0:0,0:0:0:0:
509,25,78652,1,0,1:2:0:0:
256,192,92445,12,0,94514,1:2:0:0:
232,209,95204,6,0,L|352:198,1,120,6|2,1:2|0:2,0:0:0:0:
455,169,95894,2,0,P|459:138|448:94,1,60,10|2,0:2|0:2,0:0:0:0:
418,77,96239,1,2,0:2:0:0:
418,77,96411,2,0,L|298:88,1,120,2|2,0:2|0:2,0:0:0:0:
245,96,96928,1,2,0:2:0:0:
143,59,97273,2,0,P|134:101|138:121,1,60,10|2,0:2|0:2,0:0:0:0:
161,165,97618,1,2,0:2:0:0:
187,269,97963,6,0,P|188:313|176:356,2,90,2|2|2,1:2|0:2|0:2,0:0:0:0:
228,234,98653,2,0,P|276:233|317:245,1,90,10|0,0:2|2:0,0:0:0:0:
390,212,99170,2,0,L|375:92,1,120,2|2,0:2|0:2,0:0:0:0:
364,39,99687,1,2,0:2:0:0:
469,59,100032,2,0,L|479:143,1,60,10|2,0:2|0:2,0:0:0:0:
483,172,100377,1,2,0:2:0:0:
458,277,100722,6,0,P|459:340|471:382,2,90,2|2|2,1:2|0:2|0:2,0:0:0:0:
416,242,101411,2,0,P|371:238|329:255,1,90,10|2,0:2|0:2,0:0:0:0:
287,325,101928,1,2,0:2:0:0:
287,325,102101,2,0,P|214:343|167:346,1,120,2|2,0:2|0:2,0:0:0:0:
87,275,102791,2,0,P|55:274|21:282,2,60,10|2|0,0:2|0:2|0:0,0:0:0:0:
185,231,103480,6,0,P|199:199|198:166,1,60,2|2,1:2|0:2,0:0:0:0:
180,123,103825,1,2,0:2:0:0:
249,39,104170,1,10,0:2:0:0:
329,111,104515,2,0,L|391:120,1,60,2|2,0:2|0:2,0:0:0:0:
439,136,104859,2,0,P|464:192|445:254,1,120,2|2,1:2|0:2,0:0:0:0:
377,327,105549,1,10,0:2:0:0:
283,273,105894,2,0,P|247:273|223:279,2,60,2|2|2,1:2|1:2|1:2,0:0:0:0:
329,61,106928,6,0,P|276:41|204:63,1,120,10|2,0:2|0:2,0:0:0:0:
179,95,107446,1,2,0:2:0:0:
121,186,107791,1,2,0:2:0:0:
188,276,108135,1,2,0:2:0:0:
188,276,108308,2,0,L|313:274,1,120,10|2,0:2|0:2,0:0:0:0:
366,281,108825,1,2,0:2:0:0:
366,281,108997,6,0,P|398:236|395:166,1,120,2|2,1:2|0:2,0:0:0:0:
367,74,109687,1,10,0:2:0:0:
367,74,109859,2,0,P|330:72|286:87,1,60,2|2,0:2|0:2,0:0:0:0:
270,116,110204,2,0,P|199:120|150:100,1,120,2|2,0:2|0:2,0:0:0:0:
106,75,110722,1,2,0:2:0:0:
58,171,111066,2,0,P|15:179|-19:176,2,60,10|2|2,0:2|0:2|0:2,0:0:0:0:
144,236,111756,6,0,L|271:249,1,120,2|2,1:2|0:2,0:0:0:0:
317,245,112273,1,2,0:2:0:0:
317,245,112445,2,0,L|330:118,1,120,10|2,0:2|0:2,0:0:0:0:
341,75,112963,1,2,0:2:0:0:
341,75,113135,1,2,0:2:0:0:
435,127,113480,1,2,0:2:0:0:
447,234,113825,2,0,P|449:264|441:308,1,60,10|2,0:2|0:2,0:0:0:0:
407,332,114170,1,2,0:2:0:0:
308,286,114515,6,0,P|285:247|291:189,2,90,2|2|2,1:2|0:2|0:2,0:0:0:0:
290,336,115204,2,0,P|222:348|165:309,1,120,10|2,0:2|0:2,0:0:0:0:
90,262,115894,1,2,1:2:0:0:
72,155,116239,2,0,L|61:87,1,60,2|2,0:2|0:2,0:0:0:0:
52,42,116583,1,10,0:2:0:0:
251,124,117273,6,0,L|387:101,1,120,6|0,1:2|1:2,0:0:0:0:
474,76,117963,1,0,1:2:0:0:
460,183,118308,1,0,1:2:0:0:
372,246,118653,2,0,L|349:382,2,120,2|0|0,1:2|1:2|1:2,0:0:0:0:
293,171,119687,2,0,L|219:178,1,60,0|0,1:2|1:2,0:0:0:0:
179,179,120032,6,0,P|149:229|164:314,1,120,2|0,1:2|1:2,0:0:0:0:
63,351,120722,1,0,1:2:0:0:
20,252,121066,1,0,1:2:0:0:
74,158,121411,2,0,P|76:98|46:47,2,120,2|0|0,1:2|1:2|1:2,0:0:0:0:
179,179,122446,1,0,1:2:0:0:
256,192,122791,12,0,126325,1:2:0:0:
133,79,127963,6,0,L|146:145,1,60,0|0,1:2|1:2,0:0:0:0:
186,169,128307,2,0,B|246:152|246:152|256:155|256:155|320:141,1,132.00000402832,6|10,1:2|0:0,0:0:0:0:
380,60,128997,6,0,P|426:108|424:175,1,132.00000402832,2|10,1:2|0:0,0:0:0:0:
404,220,129514,1,2,0:0:0:0:
404,220,129687,2,0,L|411:297,1,66.0000020141602,2|2,1:2|0:0,0:0:0:0:
377,327,130032,1,10,0:0:0:0:
284,275,130376,2,0,B|248:274|248:274|226:297,1,66.0000020141602,2|2,1:2|0:2,1:2:0:0:
192,335,130721,1,10,0:0:0:0:
93,297,131066,6,0,B|71:236|71:236|88:153,1,132.00000402832,6|10,1:2|0:0,0:0:0:0:
103,65,131756,1,2,1:2:0:0:
189,124,132100,1,10,0:0:0:0:
293,104,132445,2,0,L|452:89,2,132.00000402832,2|10|2,1:2|0:0|1:2,0:0:0:0:
223,24,133480,1,10,0:0:0:0:
190,125,133825,6,0,B|186:175|186:175|208:200|208:200|200:266,1,132.00000402832,6|10,1:2|0:0,0:0:0:0:
258,337,134514,2,0,L|341:332,1,66.0000020141602,2|2,1:2|0:0,0:0:0:0:
371,309,134859,2,0,L|454:314,1,66.0000020141602,10|2,0:0|0:0,0:0:0:0:
483,338,135204,1,2,1:2:0:0:
486,232,135549,2,0,B|477:195|477:195|488:150,1,66.0000020141602,10|2,0:0|0:0,0:0:0:0:
505,119,135894,1,2,1:2:0:0:
413,67,136238,2,0,P|358:61|327:79,1,66.0000020141602,10|0,0:0|0:0,0:0:0:0:
321,109,136583,6,0,B|296:133|296:133|201:107,1,132.00000402832,6|10,1:2|0:0,0:0:0:0:
111,52,137273,1,2,1:2:0:0:
46,135,137618,1,10,0:0:0:0:
104,223,137963,2,0,L|115:301,1,66.0000020141602,10|0,0:0|1:2,0:0:0:0:
152,331,138307,1,2,1:2:0:0:
152,331,138480,2,0,L|230:320,1,66.0000020141602,10|2,0:0|1:2,0:0:0:0:
269,314,138824,1,2,1:2:0:0:
421,358,139342,6,0,B|430:297|430:297|438:293|438:293|449:219,1,132.00000402832,6|2,1:2|0:0,0:0:0:0:
476,130,140032,2,0,P|444:120|399:146,1,66.0000020141602,10|2,0:0|0:0,0:0:0:0:
367,154,140376,2,0,P|335:164|290:138,1,66.0000020141602,2|2,0:0|0:0,0:0:0:0:
268,115,140721,2,0,P|192:77|132:77,1,132.00000402832,2|2,1:2|0:0,0:0:0:0:
98,90,141238,1,2,0:0:0:0:
98,90,141411,1,10,0:0:0:0:
43,180,141756,2,0,L|54:261,1,66.0000020141602,2|2,0:0|0:0,0:0:0:0:
84,286,142100,6,0,B|113:255|113:255|227:263,1,132.00000402832,6|2,1:2|0:0,0:0:0:0:
298,304,142790,2,0,L|287:385,2,66.0000020141602,10|2|2,0:0|0:0|0:0,0:0:0:0:
311,256,143307,1,2,0:0:0:0:
311,256,143480,2,0,P|345:224|438:235,1,132.00000402832,2|2,1:2|0:0,0:0:0:0:
466,268,143997,1,2,0:0:0:0:
466,268,144169,1,10,0:0:0:0:
489,60,144859,6,0,B|491:37|491:37|356:59,1,132.00000402832,6|2,1:2|0:0,0:0:0:0:
296,114,145549,2,0,L|223:102,1,66.0000020141602,10|2,0:0|0:0,0:0:0:0:
191,68,145894,2,0,L|118:80,1,66.0000020141602,2|2,0:0|0:0,0:0:0:0:
73,85,146238,1,2,1:2:0:0:
35,183,146583,2,0,P|40:230|70:269,1,66.0000020141602,2|2,0:0|0:0,0:0:0:0:
92,275,146928,2,0,B|151:265|151:265|165:274|165:274|227:264,1,132.00000402832,10|2,0:0|0:0,0:0:0:0:
273,251,147445,1,2,0:0:0:0:
273,251,147618,5,6,1:2:0:0:
357,314,147963,1,0,0:0:0:0:
455,275,148307,2,0,B|513:156|513:156|440:45,1,264.000008056641,8|6,0:0|1:2,0:0:0:0:
344,26,149342,2,0,L|272:20,1,66.0000020141602,2|0,0:0|0:0,0:0:0:0:
225,15,149687,1,10,0:0:0:0:
48,116,150376,6,0,P|39:174|66:227,1,120,6|2,1:2|0:0,0:0:0:0:
166,267,151065,1,10,0:2:0:0:
249,197,151410,2,0,P|267:188|316:181,1,60,2|0,0:0|0:0,0:0:0:0:
350,212,151756,2,0,L|366:349,1,120,2|2,1:2|0:0,0:0:0:0:
468,305,152445,2,0,L|455:185,1,120,10|2,0:2|0:0,0:0:0:0:
423,81,153135,5,2,1:2:0:0:
213,28,153825,1,10,0:2:0:0:
173,128,154169,1,2,0:0:0:0:
66,109,154514,2,0,L|80:228,2,120,2|2|10,1:2|0:0|0:2,0:0:0:0:
106,8,155549,1,2,0:0:0:0:
212,28,155894,6,0,P|262:43|343:32,1,120,2|2,1:2|0:0,0:0:0:0:
433,8,156583,1,10,0:2:0:0:
466,110,156927,2,0,L|471:173,1,60,2|0,0:0|0:0,0:0:0:0:
471,224,157273,2,0,P|411:225|353:241,1,120,2|2,1:2|0:0,0:0:0:0:
249,210,157963,2,0,P|189:210|131:194,1,120,10|0,0:2|0:0,0:0:0:0:
72,103,158652,6,0,B|120:154|77:224|67:212|22:256|68:335,1,240,2|8,1:2|0:2,0:0:0:0:
164,365,159687,1,2,0:0:0:0:
262,320,160032,2,0,L|379:296,1,120,2|2,1:2|0:0,0:0:0:0:
484,268,160721,2,0,L|460:150,1,120,10|0,0:2|0:0,0:0:0:0:
429,46,161411,1,4,1:2:0:0:
256,192,161583,12,0,163825,0:0:0:0:
