osu file format v14

[General]
AudioFilename: audio.mp3
AudioLeadIn: 0
PreviewTime: 43566
Countdown: 0
SampleSet: Soft
StackLeniency: 0.5
Mode: 0
LetterboxInBreaks: 0
WidescreenStoryboard: 1

[Editor]
Bookmarks: 9687,23480,34514,45549,56583,67618,82790,95204,106238,117273,128307,139342,150376
DistanceSpacing: 1.2
BeatDivisor: 4
GridSize: 4
TimelineZoom: 1

[Metadata]
Title:Gunslinga (feat. MC Mota)
TitleUnicode:Gunslinga (feat. MC Mota)
Artist:Pegboard Nerds
ArtistUnicode:Pegboard Nerds
Creator:Sylas
Version:Hard
Source:
Tags:plaudible jamesjan3 edm electronic drumstep dubstep dnb drum and bass english jamaican raggaeton patwa patois monstercat gunslinger finger thekoala hardcore carnival uncaged vol 7 best of 2019
BeatmapID:2638543
BeatmapSetID:1234094

[Difficulty]
HPDrainRate:5
CircleSize:3.5
OverallDifficulty:6.5
ApproachRate:8
SliderMultiplier:1.4
SliderTickRate:1

[Events]
//Background and Video events
0,0,"cyberpunk-anime-girl-pistol-gun-uhdpaper.com-4K-125.jpg",0,0
//Break Periods
2,78852,83344
2,85403,88862
//Storyboard Layer 0 (Background)
//Storyboard Layer 1 (Fail)
//Storyboard Layer 2 (Pass)
//Storyboard Layer 3 (Foreground)
//Storyboard Layer 4 (Overlay)
//Storyboard Sound Samples

[TimingPoints]
32,344.827586206897,4,2,2,70,1,0
9687,-133.333333333333,4,2,2,70,0,0
12445,-111.111111111111,4,2,2,70,0,0
28911,-111.111111111111,4,2,2,5,0,0
28997,-111.111111111111,4,2,2,70,0,0
34514,-111.111111111111,4,2,2,75,0,0
45463,-111.111111111111,4,2,2,5,0,0
45549,-76.9230769230769,4,2,1,80,0,1
46238,-90.9090909090909,4,2,1,80,0,1
48307,-76.9230769230769,4,2,1,80,0,1
48566,-76.9230769230769,4,2,1,5,0,1
48652,-111.111111111111,4,2,1,80,0,1
51066,-76.9230769230769,4,2,1,80,0,1
51756,-90.9090909090909,4,2,1,80,0,1
53825,-76.9230769230769,4,2,1,80,0,1
53997,-76.9230769230769,4,2,1,5,0,1
54169,-76.9230769230769,4,2,1,80,0,1
57273,-90.9090909090909,4,2,1,80,0,1
59342,-76.9230769230769,4,2,1,80,0,1
59600,-76.9230769230769,4,2,1,5,0,1
59687,-90.9090909090909,4,2,1,80,0,1
62100,-76.9230769230769,4,2,1,80,0,1
62790,-90.9090909090909,4,2,1,80,0,1
64859,-76.9230769230769,4,2,1,80,0,1
65721,-90.9090909090909,4,2,1,80,0,1
66497,-90.9090909090909,4,2,1,5,0,1
66583,-90.9090909090909,4,2,1,80,0,1
66665,-90.9090909090909,4,2,1,80,0,1
67618,-111.111111111111,4,2,1,70,0,0
78652,-111.111111111111,4,2,2,70,0,0
84169,-125,4,2,2,70,0,0
95204,-111.111111111111,4,2,2,70,0,0
111669,-111.111111111111,4,2,2,5,0,0
111756,-111.111111111111,4,2,2,70,0,0
116928,-200,4,2,2,70,0,0
117273,-111.111111111111,4,2,2,70,0,0
128307,-76.9230769230769,4,2,1,85,0,1
128997,-90.9090909090909,4,2,1,85,0,1
131066,-76.9230769230769,4,2,1,85,0,1
131325,-76.9230769230769,4,2,1,5,0,1
131411,-76.9230769230769,4,2,1,85,0,1
131756,-111.111111111111,4,2,1,85,0,1
133825,-76.9230769230769,4,2,1,85,0,1
134514,-76.9230769230769,4,2,1,85,0,1
136583,-76.9230769230769,4,2,1,85,0,1
136842,-76.9230769230769,4,2,1,5,0,1
136928,-76.9230769230769,4,2,1,85,0,1
137273,-90.9090909090909,4,2,1,85,0,1
137532,-90.9090909090909,4,2,1,5,0,1
137618,-90.9090909090909,4,2,1,85,0,1
138997,-90.9090909090909,4,2,1,85,0,0
139342,-76.9230769230769,4,2,1,85,0,1
139600,-76.9230769230769,4,2,1,5,0,1
139687,-90.9090909090909,4,2,1,85,0,1
142100,-76.9230769230769,4,2,1,85,0,1
142359,-76.9230769230769,4,2,1,5,0,1
142445,-90.9090909090909,4,2,1,85,0,1
144859,-71.4285714285714,4,2,1,85,0,1
145118,-71.4285714285714,4,2,1,5,0,1
145204,-71.4285714285714,4,2,1,85,0,1
145549,-83.3333333333333,4,2,1,85,0,1
147618,-76.9230769230769,4,2,1,85,0,1
148480,-83.3333333333333,4,2,1,85,0,1
149256,-83.3333333333333,4,2,1,5,0,1
149342,-83.3333333333333,4,2,1,85,0,1
150376,-111.111111111111,4,2,1,70,0,0
161583,-111.111111111111,4,2,1,70,0,0
163825,-111.111111111111,4,2,2,5,0,0

[Colours]
Combo1 : 230,152,74
Combo2 : 72,88,181
Combo3 : 164,96,189
Combo4 : 199,61,85

[HitObjects]
75,61,9687,6,0,P|127:37|177:48,1,105.000004005432,0|8,1:2|0:2,0:0:0:0:
233,95,10204,2,0,P|285:119|335:108,1,105.000004005432,0|0,1:2|1:2,0:0:0:0:
389,58,10721,1,0,1:2:0:0:
389,58,10894,1,0,1:2:0:0:
431,123,11066,2,0,L|422:193,1,52.5000020027161,0|0,1:2|1:2,0:0:0:0:
358,219,11411,2,0,L|367:289,1,52.5000020027161,8|0,0:2|1:2,0:0:0:0:
403,339,11756,1,0,1:2:0:0:
219,68,12445,6,0,P|159:61|116:107,1,125.999996154785,6|2,1:2|0:2,0:0:0:0:
106,187,12963,1,0,0:0:0:0:
106,187,13135,2,0,L|120:257,1,62.9999980773926,10|2,0:2|0:2,0:0:0:0:
187,292,13480,1,2,0:2:0:0:
257,250,13652,2,0,P|276:196|276:120,1,125.999996154785,2|2,0:2|0:2,0:0:0:0:
219,68,14169,1,2,0:2:0:0:
377,25,14514,5,10,0:2:0:0:
405,102,14687,1,2,0:2:0:0:
388,181,14859,1,2,0:2:0:0:
388,181,15032,1,2,0:2:0:0:
428,251,15204,6,0,P|482:249|519:200,2,94.499997116089,2|2|2,1:2|0:2|0:2,0:0:0:0:
358,294,15894,2,0,P|321:308|262:347,1,94.499997116089,10|2,0:2|0:2,0:0:0:0:
152,323,16411,2,0,P|90:281|96:209,1,125.999996154785,2|2,0:2|0:2,0:0:0:0:
119,160,16928,6,0,L|104:78,1,62.9999980773926,2|0,0:2|0:0,0:0:0:0:
98,16,17273,1,10,0:2:0:0:
178,31,17445,1,2,0:2:0:0:
257,9,17618,2,0,P|292:9|337:26,1,62.9999980773926,2|2,0:2|0:2,0:0:0:0:
374,77,17963,6,0,P|445:73|487:50,2,94.499997116089,2|2|2,1:2|0:2|0:2,0:0:0:0:
303,118,18652,2,0,L|316:232,1,94.499997116089,10|2,0:2|0:2,0:0:0:0:
329,333,19169,1,2,0:2:0:0:
252,302,19342,6,0,P|213:309|145:372,1,125.999996154785,2|2,0:2|0:2,0:0:0:0:
24,256,20032,1,10,0:2:0:0:
24,256,20204,2,0,L|34:182,2,62.9999980773926,2|0|0,0:2|0:0|0:0,0:0:0:0:
93,300,20721,5,2,1:2:0:0:
157,248,20894,1,2,0:2:0:0:
145,167,21066,1,2,0:2:0:0:
145,167,21238,1,2,0:2:0:0:
194,101,21411,2,0,P|227:94|272:96,1,62.9999980773926,10|2,0:2|0:2,0:0:0:0:
309,156,21756,2,0,P|342:163|387:161,1,62.9999980773926,2|2,0:2|0:2,0:0:0:0:
433,110,22100,5,2,1:2:0:0:
463,271,22445,1,2,0:2:0:0:
327,363,22790,2,0,L|254:349,1,62.9999980773926,10|2,0:2|1:2,0:0:0:0:
209,290,23135,1,2,1:2:0:0:
209,290,23307,1,2,1:2:0:0:
105,342,23480,6,0,P|94:269|78:199,1,125.999996154785,6|2,1:2|0:2,0:0:0:0:
34,151,23997,1,2,0:2:0:0:
78,82,24169,2,0,P|101:70|157:81,1,62.9999980773926,10|2,0:2|0:2,0:0:0:0:
200,123,24514,1,2,0:2:0:0:
280,107,24687,6,0,P|335:75|388:28,2,125.999996154785,2|2|2,0:2|0:2|0:2,0:0:0:0:
270,188,25549,1,10,0:2:0:0:
311,258,25721,1,0,0:0:0:0:
288,337,25894,1,2,0:2:0:0:
288,337,26066,1,2,0:2:0:0:
215,298,26238,6,0,L|72:320,1,125.999996154785,2|2,1:2|0:2,0:0:0:0:
9,173,26928,1,10,0:2:0:0:
28,93,27100,1,2,0:2:0:0:
108,107,27273,1,2,0:2:0:0:
177,64,27445,6,0,P|223:45|315:53,1,125.999996154785,2|2,0:2|0:2,0:0:0:0:
363,97,27963,2,0,L|344:168,1,62.9999980773926,2|0,0:2|0:0,0:0:0:0:
384,235,28307,1,10,0:2:0:0:
384,235,28480,1,2,0:2:0:0:
355,311,28652,2,0,L|250:329,1,94.499997116089,2|0,0:2|0:0,0:0:0:0:
256,335,28997,6,0,L|182:326,1,62.9999980773926,2|2,1:2|0:2,0:0:0:0:
133,271,29342,2,0,L|59:279,1,62.9999980773926,2|2,0:2|0:2,0:0:0:0:
24,217,29687,1,10,0:2:0:0:
24,217,29859,1,2,0:2:0:0:
76,153,30032,2,0,L|138:160,1,62.9999980773926,2|2,0:2|0:2,0:0:0:0:
215,189,30376,6,0,P|219:142|209:49,2,125.999996154785,2|2|10,0:2|0:2|0:2,0:0:0:0:
275,244,31238,1,2,0:2:0:0:
353,214,31411,1,2,0:2:0:0:
353,214,31583,1,2,0:2:0:0:
429,243,31756,6,0,L|416:345,2,94.499997116089,2|2|2,1:2|0:2|0:2,0:0:0:0:
445,163,32445,1,10,0:2:0:0:
428,87,32618,1,2,0:2:0:0:
428,87,32791,2,0,P|401:70|370:67,1,62.9999980773926,2|2,0:2|0:2,0:0:0:0:
307,120,33135,6,0,P|261:142|172:134,1,125.999996154785,2|2,1:2|0:2,0:0:0:0:
126,85,33652,1,2,0:2:0:0:
47,108,33825,1,10,0:2:0:0:
47,108,33997,2,0,L|65:179,1,62.9999980773926,2|0,0:2|0:0,0:0:0:0:
141,312,34514,6,0,L|12:301,2,125.999996154785,6|0|0,1:2|1:2|1:2,0:0:0:0:
304,328,35549,1,0,1:2:0:0:
333,166,35894,6,0,L|462:155,2,125.999996154785,2|0|0,1:2|1:2|1:2,0:0:0:0:
196,74,36928,1,0,1:2:0:0:
196,74,37100,1,0,1:2:0:0:
135,129,37273,6,0,L|6:118,2,125.999996154785,2|0|0,1:2|1:2|1:2,0:0:0:0:
283,60,38307,1,0,1:2:0:0:
343,212,38652,6,0,L|354:341,2,125.999996154785,2|0|0,1:2|1:2|1:2,0:0:0:0:
446,84,39687,1,0,1:2:0:0:
283,60,40032,6,0,L|214:68,1,62.9999980773926,2|2,1:2|1:2,0:0:0:0:
180,138,40376,2,0,L|111:130,1,62.9999980773926,2|2,1:2|1:2,0:0:0:0:
39,128,40721,5,2,1:2:0:0:
39,128,40894,1,2,1:2:0:0:
37,213,41066,1,2,1:2:0:0:
37,213,41238,1,2,1:2:0:0:
81,281,41411,5,2,1:2:0:0:
157,252,41583,1,0,1:2:0:0:
235,284,41756,2,0,L|305:292,1,62.9999980773926,2|0,1:2|1:2,0:0:0:0:
377,309,42100,5,2,1:2:0:0:
394,228,42273,1,2,1:2:0:0:
372,149,42445,1,2,1:2:0:0:
389,68,42618,1,2,1:2:0:0:
315,32,42790,6,0,L|282:34,3,31.4999990386963,2|0|0|0,1:2|1:2|1:2|1:2,0:0:0:0:
248,55,43135,2,0,L|215:53,3,31.4999990386963,0|0|0|0,1:2|1:2|1:2|1:2,0:0:0:0:
213,56,44859,6,0,P|210:107|221:129,1,62.9999980773926,2|2,0:2|0:2,0:0:0:0:
272,174,45204,2,0,P|314:161|386:157,1,94.499997116089,0|0,1:2|0:0,0:0:0:0:
372,161,45549,6,0,B|412:254|412:254|239:276,1,272.999987503052,6|0,1:2|0:0,0:0:0:0:
158,288,46238,5,10,0:2:0:0:
94,231,46411,1,2,0:2:0:0:
105,148,46583,2,0,P|139:131|191:124,1,77.0000023498536,2|2,0:2|0:2,0:0:0:0:
260,109,46928,6,0,L|243:21,2,77.0000023498536,2|2|2,1:2|0:2|0:2,0:0:0:0:
320,169,47445,1,2,0:2:0:0:
393,126,47618,6,0,P|430:132|465:150,1,77.0000023498536,10|2,0:2|0:2,0:0:0:0:
498,228,47963,1,2,0:2:0:0:
331,332,48307,6,0,B|270:335|270:335|254:345|254:345|198:347,1,136.499993751526,6|0,1:2|0:0,0:0:0:0:
190,342,48652,6,0,L|122:354,1,62.9999980773926,2|2,0:2|0:2,0:0:0:0:
82,294,48997,1,10,0:2:0:0:
82,294,49169,2,0,L|14:282,2,62.9999980773926,2|2|2,0:2|0:2|0:2,0:0:0:0:
146,246,49687,6,0,L|158:178,1,62.9999980773926,2|2,1:2|0:2,0:0:0:0:
121,116,50032,2,0,L|109:48,1,62.9999980773926,2|2,0:2|0:2,0:0:0:0:
177,17,50376,5,10,0:2:0:0:
177,17,50549,1,2,0:2:0:0:
243,51,50721,1,2,0:2:0:0:
418,40,51066,6,0,B|466:4|466:4|474:109|474:109|468:114|468:114|476:226,1,272.999987503052,6|0,1:2|0:0,0:0:0:0:
461,297,51756,5,10,0:2:0:0:
387,255,51928,1,2,0:2:0:0:
302,260,52100,2,0,L|219:275,1,77.0000023498536,2|2,0:2|0:2,0:0:0:0:
162,329,52445,6,0,P|139:273|143:231,1,77.0000023498536,2|2,1:2|0:2,0:0:0:0:
188,188,52790,2,0,P|211:132|207:90,1,77.0000023498536,2|2,0:2|0:2,0:0:0:0:
173,40,53135,5,10,0:2:0:0:
91,17,53307,1,2,0:2:0:0:
27,72,53480,1,2,0:2:0:0:
106,221,53825,6,0,L|255:230,1,136.499993751526,6|0,1:2|0:0,0:0:0:0:
249,236,54169,2,0,B|285:201|285:201|272:137,1,90.9999958343508,2|0,0:2|0:0,0:0:0:0:
236,90,54514,2,0,B|196:86|196:86|188:90|188:90|118:81,2,90.9999958343508,10|0|2,0:2|0:0|0:2,0:0:0:0:
305,45,55032,1,0,0:0:0:0:
386,39,55204,6,0,L|401:164,1,90.9999958343508,2|0,1:2|0:0,0:0:0:0:
460,197,55549,1,2,0:2:0:0:
460,197,55635,1,2,0:0:0:0:
460,197,55721,2,0,L|445:322,1,90.9999958343508,2|10,0:2|0:2,0:0:0:0:
374,314,56066,1,2,0:2:0:0:
374,314,56238,2,0,L|363:223,1,90.9999958343508
307,162,56583,6,0,B|242:155|242:155|213:192|213:192|132:184,1,181.999991668702,6|2,1:2|0:2,0:0:0:0:
143,185,57273,6,0,L|50:200,1,77.0000023498536,10|2,0:2|0:2,0:0:0:0:
8,135,57618,1,2,0:2:0:0:
8,135,57790,1,2,0:2:0:0:
56,65,57963,6,0,L|149:80,1,77.0000023498536,2|2,1:2|0:2,0:0:0:0:
214,97,58307,1,2,0:2:0:0:
292,65,58480,1,2,0:2:0:0:
360,115,58652,5,10,0:2:0:0:
367,203,58825,1,2,0:2:0:0:
367,203,58997,2,0,L|352:296,1,77.0000023498536,2|0,0:2|0:0,0:0:0:0:
435,339,59342,6,0,B|444:298|444:298|460:276|460:276|454:247|454:247|461:206,1,136.499993751526,6|0,1:2|0:0,0:0:0:0:
467,203,59687,5,2,0:2:0:0:
458,118,59859,1,2,0:2:0:0:
398,57,60032,2,0,L|311:71,1,77.0000023498536,10|2,0:2|0:2,0:0:0:0:
249,37,60376,1,2,0:2:0:0:
249,37,60549,1,2,0:2:0:0:
186,93,60721,6,0,P|195:127|198:169,1,77.0000023498536,2|2,1:2|0:2,0:0:0:0:
131,219,61066,1,2,0:2:0:0:
131,219,61238,1,2,0:2:0:0:
66,161,61411,1,10,0:2:0:0:
66,161,62100,6,0,B|123:125|123:125|180:160|180:160|270:163,1,181.999991668702,6|2,1:2|0:2,0:0:0:0:
227,161,62790,5,10,0:2:0:0:
309,127,62963,1,2,0:2:0:0:
309,127,63049,1,2,0:2:0:0:
309,127,63135,2,0,P|362:142|391:160,1,77.0000023498536,2|2,0:2|0:2,0:0:0:0:
421,231,63480,6,0,L|426:278,3,38.5000011749268,2|2|2|2,1:2|0:2|0:2|0:2,0:0:0:0:
401,304,63825,2,0,L|396:351,3,38.5000011749268,2|2|2|2,0:2|0:2|0:2|0:2,0:0:0:0:
358,358,64169,6,0,L|265:339,1,77.0000023498536,10|2,0:2|0:2,0:0:0:0:
203,329,64514,1,2,0:2:0:0:
203,329,64687,1,2,0:2:0:0:
112,271,64859,6,0,B|105:221|148:188|157:198|204:205|202:108,2,181.999991668702,6|2|10,1:2|0:2|0:2,0:0:0:0:
42,319,65721,5,0,0:0:0:0:
42,319,65894,2,0,P|29:261|33:221,1,77.0000023498536,2|0,0:2|0:0,0:0:0:0:
54,162,66238,2,0,P|64:94|66:27,1,115.50000352478,6|0,1:2|0:0,0:0:0:0:
62,39,66583,5,2,0:2:0:0:
141,8,66756,1,2,0:2:0:0:
214,50,66928,1,10,0:2:0:0:
214,50,67100,2,0,P|291:66|369:62,1,154.000004699707,2|0,0:2|0:0,0:0:0:0:
437,35,67618,5,6,1:2:0:0:
437,35,67790,1,2,0:0:0:0:
482,95,67963,2,0,L|474:173,1,62.9999980773926,2|2,0:0|0:0,0:0:0:0:
449,228,68307,5,10,0:2:0:0:
314,297,68652,2,0,L|244:308,1,62.9999980773926,2|2,0:0|0:0,0:0:0:0:
205,366,68997,6,0,P|176:321|201:251,1,125.999996154785,2|2,1:2|0:0,0:0:0:0:
318,165,69687,2,0,P|347:120|322:50,1,125.999996154785,10|2,0:2|0:0,0:0:0:0:
181,14,70376,6,0,P|140:19|47:54,2,125.999996154785,2|2|10,1:2|0:0|0:2,0:0:0:0:
251,153,71411,1,2,0:0:0:0:
251,153,71583,1,2,0:0:0:0:
197,206,71756,6,0,P|157:175|70:164,1,125.999996154785,2|2,1:2|0:0,0:0:0:0:
54,310,72445,2,0,P|90:322|122:322,1,62.9999980773926,10|2,0:2|0:0,0:0:0:0:
189,309,72790,2,0,P|225:297|257:297,1,62.9999980773926,2|2,0:0|0:0,0:0:0:0:
326,319,73135,5,2,1:2:0:0:
326,319,73307,1,2,0:0:0:0:
395,287,73480,2,0,L|403:211,1,62.9999980773926,2|2,0:0|0:0,0:0:0:0:
414,149,73825,1,10,0:2:0:0:
313,36,74169,2,0,L|319:98,1,62.9999980773926,2|2,0:0|0:0,0:0:0:0:
319,174,74514,6,0,P|251:200|187:186,1,125.999996154785,2|2,1:2|0:0,0:0:0:0:
155,46,75204,2,0,P|87:20|23:34,1,125.999996154785,10|0,0:2|0:0,0:0:0:0:
8,177,75894,6,0,P|31:231|57:307,1,125.999996154785,2|0,1:2|0:0,0:0:0:0:
55,374,76411,1,0,0:0:0:0:
55,374,76583,2,0,L|142:367,1,62.9999980773926,8|2,0:2|0:0,0:0:0:0:
165,309,76928,2,0,L|252:316,1,62.9999980773926,2|2,0:0|0:0,0:0:0:0:
297,342,77273,6,0,P|325:294|334:207,1,125.999996154785,2|2,1:2|0:0,0:0:0:0:
343,149,77790,1,2,0:0:0:0:
298,94,77963,1,10,0:2:0:0:
298,94,78135,2,0,P|234:83|163:76,1,125.999996154785,2|0,0:0|0:0,0:0:0:0:
100,97,78652,1,0,1:2:0:0:
46,96,84169,6,0,B|132:40|204:121|185:139|248:198|353:137,1,336
487,275,89687,6,0,B|341:241|341:241|252:333|252:333|93:297,1,420,0|0,1:0|0:0,0:0:0:0:
75,41,92445,6,0,L|97:155,1,112,0|8,1:2|0:2,0:0:0:0:
59,220,92963,2,0,L|81:334,1,112,0|0,1:2|1:2,0:0:0:0:
154,369,93480,1,0,1:2:0:0:
154,369,93652,1,0,1:2:0:0:
214,318,93825,6,0,P|243:310|280:315,1,56,0|0,1:2|1:2,0:0:0:0:
336,351,94169,2,0,P|365:359|402:354,1,56,8|0,0:2|1:2,0:0:0:0:
460,321,94514,1,0,1:2:0:0:
458,74,95204,6,0,P|394:49|336:35,1,125.999996154785,6|2,1:2|0:2,0:0:0:0:
259,41,95722,1,0,0:0:0:0:
259,41,95894,2,0,P|247:61|247:110,1,62.9999980773926,10|2,0:2|0:2,0:0:0:0:
283,171,96239,1,2,0:2:0:0:
248,244,96411,2,0,P|194:263|118:263,1,125.999996154785,2|2,0:2|0:2,0:0:0:0:
47,240,96928,1,2,0:2:0:0:
67,77,97273,5,10,0:2:0:0:
143,47,97446,1,2,0:2:0:0:
211,100,97618,1,2,0:2:0:0:
211,100,97791,1,2,0:2:0:0:
287,72,97963,6,0,L|389:48,2,94.499997116089,2|2|2,1:2|0:2|0:2,0:0:0:0:
276,153,98653,2,0,P|290:190|329:249,1,94.499997116089,10|2,0:2|0:2,0:0:0:0:
407,321,99170,2,0,P|469:279|463:207,1,125.999996154785,2|2,0:2|0:2,0:0:0:0:
420,170,99687,6,0,P|405:133|405:88,1,62.9999980773926,2|0,0:2|0:0,0:0:0:0:
408,28,100032,1,10,0:2:0:0:
326,28,100204,1,2,0:2:0:0:
252,64,100377,2,0,P|221:71|190:71,1,62.9999980773926,2|2,0:2|0:2,0:0:0:0:
112,43,100722,6,0,P|56:27|15:70,2,94.499997116089,2|2|2,1:2|0:2|0:2,0:0:0:0:
127,123,101411,2,0,P|128:170|140:237,1,94.499997116089,10|2,0:2|0:2,0:0:0:0:
215,309,101928,1,2,0:2:0:0:
151,360,102100,6,0,P|77:359|34:310,1,125.999996154785,2|2,0:2|0:2,0:0:0:0:
42,165,102790,1,10,0:2:0:0:
42,165,102962,2,0,P|52:125|52:91,2,62.9999980773926,2|0|0,0:2|0:0|0:0,0:0:0:0:
84,235,103479,5,2,1:2:0:0:
160,264,103652,1,2,0:2:0:0:
242,246,103824,1,2,0:2:0:0:
242,246,103996,1,2,0:2:0:0:
297,185,104169,2,0,L|375:180,1,62.9999980773926,10|2,0:2|0:2,0:0:0:0:
408,247,104514,2,0,L|486:252,1,62.9999980773926,2|2,0:2|0:2,0:0:0:0:
512,192,104858,5,2,1:2:0:0:
404,68,105203,1,2,0:2:0:0:
258,142,105548,2,0,P|221:145|185:128,1,62.9999980773926,10|2,0:2|1:2,0:0:0:0:
157,70,105893,1,2,1:2:0:0:
77,87,106065,1,2,1:2:0:0:
62,167,106238,5,2,1:2:0:0:
62,167,106583,2,0,L|55:237,1,62.9999980773926,2|2,0:2|0:2,0:0:0:0:
16,302,106928,2,0,P|39:314|95:303,1,62.9999980773926,10|2,0:2|0:2,0:0:0:0:
151,282,107272,1,2,0:2:0:0:
224,245,107445,6,0,P|286:266|332:324,2,125.999996154785,2|2|2,0:2|0:2|0:2,0:0:0:0:
166,185,108307,1,10,0:2:0:0:
175,103,108479,1,0,0:0:0:0:
247,151,108652,1,2,0:2:0:0:
247,151,108824,1,2,0:2:0:0:
320,116,108997,6,0,P|376:122|447:137,1,125.999996154785,2|2,1:2|0:2,0:0:0:0:
479,295,109686,1,10,0:2:0:0:
400,317,109858,1,2,0:2:0:0:
329,274,110031,1,2,0:2:0:0:
266,221,110204,6,0,P|184:187|129:204,1,125.999996154785,2|2,0:2|0:2,0:0:0:0:
70,216,110721,2,0,L|51:145,1,62.9999980773926,2|0,0:2|0:0,0:0:0:0:
94,86,111065,1,10,0:2:0:0:
94,86,111238,1,2,0:2:0:0:
174,100,111410,2,0,L|279:82,1,94.499997116089,2|0,0:2|0:0,0:0:0:0:
273,76,111755,6,0,P|306:73|347:85,1,62.9999980773926,2|2,1:2|0:2,0:0:0:0:
364,156,112100,2,0,P|397:159|438:147,1,62.9999980773926,2|2,0:2|0:2,0:0:0:0:
503,120,112445,1,10,0:2:0:0:
503,120,112617,1,2,0:2:0:0:
495,201,112790,2,0,L|488:263,1,62.9999980773926,2|2,0:2|0:2,0:0:0:0:
450,336,113135,6,0,P|403:354|329:368,2,125.999996154785,2|2|10,0:2|0:2|0:2,0:0:0:0:
408,264,113996,1,2,0:2:0:0:
338,230,114169,1,2,0:2:0:0:
338,230,114341,1,2,0:2:0:0:
260,257,114514,6,0,P|251:291|247:359,2,94.499997116089,2|2|2,1:2|0:2|0:2,0:0:0:0:
260,175,115203,1,10,0:2:0:0:
218,110,115376,1,2,0:2:0:0:
218,110,115549,2,0,P|187:100|156:105,1,62.9999980773926,2|2,0:2|0:2,0:0:0:0:
87,147,115893,6,0,P|82:209|106:266,1,125.999996154785,2|2,1:2|0:2,0:0:0:0:
181,302,116410,1,2,0:2:0:0:
267,304,116583,1,10,0:2:0:0:
267,304,116755,2,0,P|298:291|338:286,1,62.9999980773926,2|0,0:2|0:0,0:0:0:0:
429,157,117273,6,0,P|446:100|445:23,2,125.999996154785,6|0|0,1:2|1:2|1:2,0:0:0:0:
344,297,118307,1,0,1:2:0:0:
257,157,118652,6,0,P|240:100|241:23,2,125.999996154785,2|0|0,1:2|1:2|1:2,0:0:0:0:
182,303,119687,1,0,1:2:0:0:
182,303,119859,1,0,1:2:0:0:
148,228,120032,6,0,P|91:211|14:212,2,125.999996154785,2|0|0,1:2|1:2|1:2,0:0:0:0:
291,306,121066,1,0,1:2:0:0:
312,143,121411,6,0,P|369:126|446:127,2,125.999996154785,2|0|0,1:2|1:2|1:2,0:0:0:0:
164,213,122445,1,0,1:2:0:0:
208,55,122790,6,0,P|208:86|217:116,1,62.9999980773926,2|2,1:2|1:2,0:0:0:0:
265,182,123135,2,0,P|264:213|255:243,1,62.9999980773926,2|2,1:2|1:2,0:0:0:0:
223,321,123480,5,2,1:2:0:0:
223,321,123653,1,2,1:2:0:0:
148,354,123825,1,2,1:2:0:0:
148,354,123997,1,2,1:2:0:0:
69,331,124169,5,2,1:2:0:0:
24,262,124341,1,0,1:2:0:0:
14,180,124514,2,0,P|13:147|29:110,1,62.9999980773926,2|0,1:2|1:2,0:0:0:0:
83,63,124859,5,2,1:2:0:0:
164,71,125032,1,2,1:2:0:0:
230,117,125204,1,2,1:2:0:0:
304,83,125376,1,2,1:2:0:0:
384,101,125549,6,0,L|386:134,3,31.4999990386963,2|0|0|0,1:2|1:2|1:2|1:2,0:0:0:0:
405,168,125894,2,0,L|403:199,3,31.4999990386963,0|0|0|0,1:2|1:2|1:2|1:2,0:0:0:0:
381,235,126238,2,0,L|382:266,1,31.4999990386963,0|0,1:2|1:2,0:0:0:0:
178,353,127963,6,0,L|146:351,3,31.4999990386963,0|0|0|0,1:2|1:2|1:2|1:2,0:0:0:0:
111,327,128307,6,0,B|98:257|98:257|124:236|124:236|109:155,1,181.999991668702,6|10,1:2|0:0,0:0:0:0:
109,159,128997,6,0,L|95:68,1,77.0000023498536,2|2,1:2|0:0,0:0:0:0:
137,3,129342,1,10,0:0:0:0:
227,18,129514,1,2,0:0:0:0:
272,98,129687,6,0,P|321:114|378:113,1,77.0000023498536,2|2,1:2|0:0,0:0:0:0:
428,73,130032,1,10,0:0:0:0:
486,143,130204,1,2,0:0:0:0:
405,188,130376,6,0,L|391:279,1,77.0000023498536,2|2,1:2|0:0,0:0:0:0:
362,351,130721,1,10,0:0:0:0:
225,208,131066,6,0,B|160:194|160:194|102:243,1,136.499993751526,6|0,1:2|0:0,0:0:0:0:
106,239,131411,2,0,B|128:282|128:282|127:334,1,90.9999958343508,10|0,0:0|0:0,0:0:0:0:
38,305,131756,5,2,1:2:0:0:
38,305,131928,1,2,0:0:0:0:
24,227,132100,2,0,L|10:164,1,62.9999980773926,10|2,0:0|0:0,0:0:0:0:
24,91,132445,5,2,1:2:0:0:
24,91,132618,1,2,0:0:0:0:
92,122,132790,2,0,L|152:105,1,62.9999980773926,10|2,0:0|0:0,0:0:0:0:
221,66,133135,5,2,1:2:0:0:
221,66,133307,1,2,0:0:0:0:
268,129,133480,1,10,0:0:0:0:
466,38,133825,6,0,B|453:100|453:100|463:139|463:139|443:214,1,181.999991668702,6|10,1:2|0:0,0:0:0:0:
442,214,134514,6,0,P|466:265|471:302,1,90.9999958343508,2|2,1:2|0:0,0:0:0:0:
414,371,134859,1,10,0:0:0:0:
327,340,135032,1,2,0:0:0:0:
237,355,135204,6,0,P|187:364|142:365,1,90.9999958343508,2|2,1:2|0:0,0:0:0:0:
83,299,135549,1,10,0:0:0:0:
124,218,135721,1,2,0:0:0:0:
80,143,135894,5,2,1:2:0:0:
80,143,136066,1,2,0:0:0:0:
34,221,136238,1,10,0:0:0:0:
216,257,136583,6,0,B|256:264|256:264|284:231|284:231|365:209,1,136.499993751526,6|0,1:2|0:0,0:0:0:0:
334,216,136928,2,0,B|341:173|341:173|314:134,1,90.9999958343508,10|0,0:0|0:0,0:0:0:0:
323,57,137273,6,0,P|270:65|236:144,1,115.50000352478,2|0,1:2|0:0,0:0:0:0:
235,112,137618,2,0,P|203:134|148:123,1,77.0000023498536,10|0,0:0|0:0,0:0:0:0:
95,76,137963,5,10,0:0:0:0:
82,167,138135,1,0,1:2:0:0:
82,167,138307,1,2,1:2:0:0:
154,224,138480,5,10,0:0:0:0:
167,315,138652,1,2,1:2:0:0:
167,315,138824,1,2,1:2:0:0:
400,173,139342,6,0,B|351:125|351:125|263:137,1,136.499993751526,6|0,1:2|0:0,0:0:0:0:
283,134,139687,2,0,L|300:216,1,77.0000023498536,2|0,0:0|0:0,0:0:0:0:
381,263,140032,5,10,0:0:0:0:
466,237,140204,1,2,0:0:0:0:
466,237,140290,1,2,0:0:0:0:
466,237,140376,2,0,P|479:177|471:145,1,77.0000023498536,2|2,0:0|0:0,0:0:0:0:
430,91,140721,6,0,L|378:98,3,38.5000011749268,2|2|2|2,1:2|0:0|0:0|0:0,0:0:0:0:
355,73,141066,2,0,L|303:80,3,38.5000011749268,2|2|2|2,0:0|0:0|0:0|0:0,0:0:0:0:
279,98,141411,2,0,L|175:84,1,77.0000023498536,10|2,0:0|0:0,0:0:0:0:
131,52,141756,1,2,0:0:0:0:
131,52,141928,1,2,0:0:0:0:
52,112,142100,6,0,B|64:173|64:173|77:182|77:182|88:272,1,136.499993751526,6|0,1:2|0:0,0:0:0:0:
84,240,142445,2,0,L|163:235,1,77.0000023498536,2|0,0:0|0:0,0:0:0:0:
220,295,142790,1,10,0:0:0:0:
313,290,142963,1,2,0:0:0:0:
313,290,143049,1,2,0:0:0:0:
313,290,143135,2,0,P|350:285|386:300,1,77.0000023498536,2|2,0:0|0:0,0:0:0:0:
462,336,143480,6,0,P|468:300|465:286,3,38.5000011749268,2|2|2|2,1:2|0:0|0:0|0:0,0:0:0:0:
459,256,143825,2,0,P|459:236|464:218,3,38.5000011749268,2|2|2|2,0:0|0:0|0:0|0:0,0:0:0:0:
500,187,144169,1,10,0:0:0:0:
500,187,144859,6,0,B|449:172|449:172|411:200|411:200|357:210,1,146.999995513916,6|0,1:2|0:0,0:0:0:0:
356,207,145204,2,0,L|361:92,1,97.9999970092774,2|0,0:0|0:0,0:0:0:0:
297,41,145549,5,10,0:0:0:0:
240,114,145721,1,2,0:0:0:0:
240,114,145807,1,2,0:0:0:0:
240,114,145894,2,0,L|131:99,1,83.9999974365235,2|2,0:0|0:0,0:0:0:0:
78,54,146238,5,2,1:2:0:0:
56,149,146410,1,2,0:0:0:0:
56,149,146497,1,2,0:0:0:0:
56,149,146583,2,0,L|68:203,3,41.9999987182618,2|2|2|2,0:0|0:0|0:0|0:0,0:0:0:0:
100,210,146928,6,0,L|183:221,1,83.9999974365235,10|2,0:0|0:0,0:0:0:0:
268,269,147273,1,2,0:0:0:0:
268,269,147445,1,2,0:0:0:0:
339,197,147618,6,0,B|361:271|314:276|302:269|269:312|289:358,2,181.999991668702,6|0|8,1:2|0:0|0:0,0:0:0:0:
286,127,148480,5,0,0:0:0:0:
286,127,148653,2,0,P|228:114|186:120,1,83.9999974365235,2|0,0:0|0:0,0:0:0:0:
124,161,148997,2,0,P|122:230|104:289,1,125.999996154785,6|0,1:2|0:0,0:0:0:0:
99,294,149342,5,2,0:0:0:0:
187,320,149515,1,2,0:0:0:0:
268,277,149687,1,10,0:0:0:0:
268,277,149859,2,0,B|317:251|344:289|335:297|394:338|439:304,1,167.999994873047,2|0,0:0|0:0,0:0:0:0:
489,265,150376,5,6,1:2:0:0:
489,265,150548,1,2,0:0:0:0:
501,183,150721,2,0,L|507:120,1,62.9999980773926,2|2,0:0|0:0,0:0:0:0:
483,42,151066,5,10,0:2:0:0:
402,185,151411,2,0,P|367:195|332:196,1,62.9999980773926,2|2,0:0|0:0,0:0:0:0:
277,143,151756,6,0,P|227:111|157:104,1,125.999996154785,2|2,1:2|0:0,0:0:0:0:
111,259,152445,2,0,P|161:291|231:298,1,125.999996154785,10|2,0:2|0:0,0:0:0:0:
370,220,153135,6,0,L|380:80,2,125.999996154785,2|2|10,1:2|0:0|0:2,0:0:0:0:
303,372,154169,1,2,0:0:0:0:
303,372,154342,1,2,0:0:0:0:
259,302,154514,6,0,L|249:162,1,125.999996154785,2|2,1:2|0:0,0:0:0:0:
135,58,155204,2,0,P|100:57|67:79,1,62.9999980773926,10|2,0:2|0:0,0:0:0:0:
32,139,155549,2,0,P|31:174|53:207,1,62.9999980773926,2|2,0:0|0:0,0:0:0:0:
109,247,155894,5,2,1:2:0:0:
109,247,156066,1,2,0:0:0:0:
172,195,156238,2,0,L|254:188,1,62.9999980773926,2|2,0:0|0:0,0:0:0:0:
316,178,156583,1,10,0:2:0:0:
371,332,156928,2,0,L|433:337,1,62.9999980773926,2|2,0:0|0:0,0:0:0:0:
491,278,157273,6,0,P|495:232|488:153,1,125.999996154785,2|2,1:2|0:0,0:0:0:0:
369,38,157963,2,0,P|298:33|269:87,1,125.999996154785,10|0,0:2|0:0,0:0:0:0:
181,210,158652,6,0,P|110:215|81:161,2,125.999996154785,2|0|8,1:2|0:0|0:2,0:0:0:0:
256,172,159514,1,2,0:0:0:0:
256,172,159687,2,0,P|266:215|255:246,1,62.9999980773926,2|2,0:0|0:0,0:0:0:0:
208,295,160032,6,0,P|263:312|343:304,1,125.999996154785,2|2,1:2|0:0,0:0:0:0:
408,281,160549,1,2,0:0:0:0:
413,199,160721,1,10,0:2:0:0:
413,199,160894,2,0,L|397:63,1,125.999996154785,2|0,0:0|0:0,0:0:0:0:
330,28,161411,1,4,1:2:0:0:
256,192,161497,12,0,163825,0:0:0:0:
