osu file format v14

[General]
AudioFilename: audio.mp3
AudioLeadIn: 0
PreviewTime: -1
Countdown: 0
SampleSet: Normal
StackLeniency: 0.7
Mode: 3
LetterboxInBreaks: 0
SpecialStyle: 0
WidescreenStoryboard: 1

[Editor]
DistanceSpacing: 0.8
BeatDivisor: 6
GridSize: 32
TimelineZoom: 1.5

[Metadata]
Title:Gunslinga (feat. MC Mota)
TitleUnicode:Gunslinga (feat. MC Mota)
Artist:Pegboard Nerds
ArtistUnicode:Pegboard Nerds
Creator:SitekX
Version:mfw bullets without gun
Source:
Tags:tech technical hybrid ln jack speed sv reading haha
BeatmapID:2057789
BeatmapSetID:969948

[Difficulty]
HPDrainRate:8
CircleSize:4
OverallDifficulty:9
ApproachRate:5
SliderMultiplier:1.4
SliderTickRate:1

[Events]
//Background and Video events
0,0,"maxresdefault.jpg",0,0
//Break Periods
2,84062,96570
//Storyboard Layer 0 (Background)
//Storyboard Layer 1 (Fail)
//Storyboard Layer 2 (Pass)
//Storyboard Layer 3 (Foreground)
//Storyboard Sound Samples

[TimingPoints]
6736,344.827586206897,4,1,0,100,1,0

[HitObjects]
448,192,6736,5,0,0:0:0:0:
320,192,6793,1,0,0:0:0:0:
192,192,6850,1,0,0:0:0:0:
64,192,6908,1,0,0:0:0:0:
448,192,6965,1,0,0:0:0:0:
320,192,7023,1,0,0:0:0:0:
192,192,7080,1,0,0:0:0:0:
64,192,7138,1,0,0:0:0:0:
448,192,7195,1,0,0:0:0:0:
320,192,7253,1,0,0:0:0:0:
192,192,7310,1,0,0:0:0:0:
64,192,7368,1,0,0:0:0:0:
448,192,7425,1,0,0:0:0:0:
320,192,7483,1,0,0:0:0:0:
192,192,7540,1,0,0:0:0:0:
64,192,7598,1,0,0:0:0:0:
448,192,7655,1,0,0:0:0:0:
320,192,7713,1,0,0:0:0:0:
192,192,7770,1,0,0:0:0:0:
64,192,7827,1,0,0:0:0:0:
448,192,7885,1,0,0:0:0:0:
320,192,7942,1,0,0:0:0:0:
192,192,8000,1,0,0:0:0:0:
64,192,8057,1,0,0:0:0:0:
448,192,8460,1,0,0:0:0:0:
64,192,8804,1,0,0:0:0:0:
448,192,9149,1,0,0:0:0:0:
192,192,9494,1,0,0:0:0:0:
320,192,9494,1,0,0:0:0:0:
64,192,9839,1,0,0:0:0:0:
448,192,10184,1,0,0:0:0:0:
64,192,10529,1,0,0:0:0:0:
320,192,10873,1,0,0:0:0:0:
64,192,11218,1,0,0:0:0:0:
448,192,11563,1,0,0:0:0:0:
64,192,11736,1,0,0:0:0:0:
192,192,11908,1,0,0:0:0:0:
320,192,12080,1,0,0:0:0:0:
448,192,12253,1,0,0:0:0:0:
64,192,12253,1,0,0:0:0:0:
192,192,12310,1,0,0:0:0:0:
320,192,12368,1,0,0:0:0:0:
448,192,12425,1,0,0:0:0:0:
192,192,12483,1,0,0:0:0:0:
64,192,12540,1,0,0:0:0:0:
448,192,12598,1,0,0:0:0:0:
320,192,12655,1,0,0:0:0:0:
192,192,12713,1,0,0:0:0:0:
64,192,12770,1,0,0:0:0:0:
320,192,12827,1,0,0:0:0:0:
448,192,12885,1,0,0:0:0:0:
64,192,12942,1,0,0:0:0:0:
192,192,13000,1,0,0:0:0:0:
320,192,13057,1,0,0:0:0:0:
448,192,13115,1,0,0:0:0:0:
192,192,13172,1,0,0:0:0:0:
64,192,13230,1,0,0:0:0:0:
448,192,13287,1,0,0:0:0:0:
320,192,13345,1,0,0:0:0:0:
192,192,13402,1,0,0:0:0:0:
64,192,13460,1,0,0:0:0:0:
320,192,13517,1,0,0:0:0:0:
192,192,13575,1,0,0:0:0:0:
320,192,13977,1,0,0:0:0:0:
64,192,14322,1,0,0:0:0:0:
320,192,14667,1,0,0:0:0:0:
64,192,15011,1,0,0:0:0:0:
448,192,15011,1,0,0:0:0:0:
192,192,15356,1,0,0:0:0:0:
64,192,15529,1,0,0:0:0:0:
448,192,15529,1,0,0:0:0:0:
320,192,15701,1,0,0:0:0:0:
192,192,15816,1,0,0:0:0:0:
320,192,16046,1,0,0:0:0:0:
448,192,16103,1,0,0:0:0:0:
64,192,16276,1,0,0:0:0:0:
192,192,16333,1,0,0:0:0:0:
320,192,16506,1,0,0:0:0:0:
448,192,16563,1,0,0:0:0:0:
192,192,16736,1,0,0:0:0:0:
64,192,16908,1,0,0:0:0:0:
320,192,16908,1,0,0:0:0:0:
192,192,17080,1,0,0:0:0:0:
448,192,17080,1,0,0:0:0:0:
64,192,17770,1,0,0:0:0:0:
192,192,17770,1,0,0:0:0:0:
448,192,17770,1,0,0:0:0:0:
64,192,17942,1,0,0:0:0:0:
64,192,18115,1,0,0:0:0:0:
448,192,18115,1,0,0:0:0:0:
64,192,18287,1,0,0:0:0:0:
64,192,18460,1,0,0:0:0:0:
320,192,18460,1,0,0:0:0:0:
192,192,18460,1,0,0:0:0:0:
192,192,18804,1,0,0:0:0:0:
64,192,19149,1,0,0:0:0:0:
320,192,19322,1,0,0:0:0:0:
320,192,19494,1,0,0:0:0:0:
192,192,19494,1,0,0:0:0:0:
64,192,19839,1,0,0:0:0:0:
448,192,19839,1,0,0:0:0:0:
192,192,20011,1,0,0:0:0:0:
192,192,20184,1,0,0:0:0:0:
320,192,20184,1,0,0:0:0:0:
192,192,20356,1,0,0:0:0:0:
320,192,20529,1,0,0:0:0:0:
448,192,20529,1,0,0:0:0:0:
64,192,20529,1,0,0:0:0:0:
320,192,20701,1,0,0:0:0:0:
320,192,20873,1,0,0:0:0:0:
64,192,20873,1,0,0:0:0:0:
320,192,21046,1,0,0:0:0:0:
320,192,21218,1,0,0:0:0:0:
192,192,21218,1,0,0:0:0:0:
448,192,21218,1,0,0:0:0:0:
64,192,21563,1,0,0:0:0:0:
320,192,21908,1,0,0:0:0:0:
64,192,22253,1,0,0:0:0:0:
192,192,22425,1,0,0:0:0:0:
320,192,22598,1,0,0:0:0:0:
448,192,22598,1,0,0:0:0:0:
64,192,22598,1,0,0:0:0:0:
320,192,22770,1,0,0:0:0:0:
320,192,22942,1,0,0:0:0:0:
192,192,22942,1,0,0:0:0:0:
320,192,23115,1,0,0:0:0:0:
192,192,23287,1,0,0:0:0:0:
64,192,23287,1,0,0:0:0:0:
448,192,23287,1,0,0:0:0:0:
64,192,23460,1,0,0:0:0:0:
64,192,23632,1,0,0:0:0:0:
320,192,23632,1,0,0:0:0:0:
64,192,23804,1,0,0:0:0:0:
64,192,23977,1,0,0:0:0:0:
448,192,23977,1,0,0:0:0:0:
192,192,24322,1,0,0:0:0:0:
64,192,24667,1,0,0:0:0:0:
320,192,24839,1,0,0:0:0:0:
320,192,25011,1,0,0:0:0:0:
64,192,25011,1,0,0:0:0:0:
192,192,25356,1,0,0:0:0:0:
448,192,25356,1,0,0:0:0:0:
320,192,25356,1,0,0:0:0:0:
64,192,25529,1,0,0:0:0:0:
64,192,25701,1,0,0:0:0:0:
320,192,25701,1,0,0:0:0:0:
64,192,25873,1,0,0:0:0:0:
192,192,26046,1,0,0:0:0:0:
320,192,26046,1,0,0:0:0:0:
448,192,26046,1,0,0:0:0:0:
320,192,26218,1,0,0:0:0:0:
320,192,26391,1,0,0:0:0:0:
64,192,26391,1,0,0:0:0:0:
320,192,26563,1,0,0:0:0:0:
320,192,26736,1,0,0:0:0:0:
192,192,26736,1,0,0:0:0:0:
64,192,26736,1,0,0:0:0:0:
64,192,27080,1,0,0:0:0:0:
320,192,27425,1,0,0:0:0:0:
64,192,27770,1,0,0:0:0:0:
192,192,27942,1,0,0:0:0:0:
320,192,28115,1,0,0:0:0:0:
448,192,28115,1,0,0:0:0:0:
64,192,28115,1,0,0:0:0:0:
448,192,28287,1,0,0:0:0:0:
448,192,28460,1,0,0:0:0:0:
64,192,28460,1,0,0:0:0:0:
448,192,28632,1,0,0:0:0:0:
320,192,28804,1,0,0:0:0:0:
192,192,28804,1,0,0:0:0:0:
64,192,28804,1,0,0:0:0:0:
64,192,28977,1,0,0:0:0:0:
64,192,29149,1,0,0:0:0:0:
320,192,29149,1,0,0:0:0:0:
64,192,29322,1,0,0:0:0:0:
64,192,29494,1,0,0:0:0:0:
448,192,29494,1,0,0:0:0:0:
192,192,29494,1,0,0:0:0:0:
320,192,29839,1,0,0:0:0:0:
64,192,30184,1,0,0:0:0:0:
192,192,30356,1,0,0:0:0:0:
192,192,30529,1,0,0:0:0:0:
320,192,30529,1,0,0:0:0:0:
448,192,30873,1,0,0:0:0:0:
64,192,30873,1,0,0:0:0:0:
320,192,30873,1,0,0:0:0:0:
64,192,31046,1,0,0:0:0:0:
64,192,31218,1,0,0:0:0:0:
320,192,31218,1,0,0:0:0:0:
64,192,31391,1,0,0:0:0:0:
192,192,31563,1,0,0:0:0:0:
448,192,31563,1,0,0:0:0:0:
320,192,31563,1,0,0:0:0:0:
448,192,31736,1,0,0:0:0:0:
448,192,31908,1,0,0:0:0:0:
192,192,31908,1,0,0:0:0:0:
448,192,32080,1,0,0:0:0:0:
448,192,32253,1,0,0:0:0:0:
64,192,32253,1,0,0:0:0:0:
320,192,32253,1,0,0:0:0:0:
192,192,32598,1,0,0:0:0:0:
448,192,32942,1,0,0:0:0:0:
64,192,33287,1,0,0:0:0:0:
192,192,33460,1,0,0:0:0:0:
320,192,33632,1,0,0:0:0:0:
448,192,33632,1,0,0:0:0:0:
64,192,33632,1,0,0:0:0:0:
448,192,33804,1,0,0:0:0:0:
192,192,33977,1,0,0:0:0:0:
320,192,34020,1,0,0:0:0:0:
64,192,34063,1,0,0:0:0:0:
448,192,34106,1,0,0:0:0:0:
192,192,34149,1,0,0:0:0:0:
320,192,34192,1,0,0:0:0:0:
64,192,34236,1,0,0:0:0:0:
448,192,34279,1,0,0:0:0:0:
192,192,34322,1,0,0:0:0:0:
320,192,34322,1,0,0:0:0:0:
64,192,34494,1,0,0:0:0:0:
64,192,34667,1,0,0:0:0:0:
320,192,34667,1,0,0:0:0:0:
64,192,34839,1,0,0:0:0:0:
64,192,35011,1,0,0:0:0:0:
448,192,35011,1,0,0:0:0:0:
192,192,35011,1,0,0:0:0:0:
320,192,35356,1,0,0:0:0:0:
192,192,35701,1,0,0:0:0:0:
64,192,35873,1,0,0:0:0:0:
64,192,36046,1,0,0:0:0:0:
320,192,36046,1,0,0:0:0:0:
192,192,36391,1,0,0:0:0:0:
448,192,36391,1,0,0:0:0:0:
320,192,36391,1,0,0:0:0:0:
64,192,36563,1,0,0:0:0:0:
64,192,36736,1,0,0:0:0:0:
320,192,36736,1,0,0:0:0:0:
64,192,36908,1,0,0:0:0:0:
320,192,37080,1,0,0:0:0:0:
448,192,37080,1,0,0:0:0:0:
64,192,37138,1,0,0:0:0:0:
192,192,37195,1,0,0:0:0:0:
448,192,37253,1,0,0:0:0:0:
64,192,37425,1,0,0:0:0:0:
192,192,37425,1,0,0:0:0:0:
448,192,37483,1,0,0:0:0:0:
320,192,37540,1,0,0:0:0:0:
64,192,37598,1,0,0:0:0:0:
192,192,37770,1,0,0:0:0:0:
320,192,37770,1,0,0:0:0:0:
448,192,37770,1,0,0:0:0:0:
320,192,38115,1,0,0:0:0:0:
448,192,38460,1,0,0:0:0:0:
64,192,38804,1,0,0:0:0:0:
192,192,38977,1,0,0:0:0:0:
320,192,39149,1,0,0:0:0:0:
448,192,39149,1,0,0:0:0:0:
64,192,39207,1,0,0:0:0:0:
192,192,39264,1,0,0:0:0:0:
448,192,39322,1,0,0:0:0:0:
320,192,39379,1,0,0:0:0:0:
64,192,39437,1,0,0:0:0:0:
192,192,39494,1,0,0:0:0:0:
448,192,39552,1,0,0:0:0:0:
320,192,39609,1,0,0:0:0:0:
64,192,39667,1,0,0:0:0:0:
192,192,39724,1,0,0:0:0:0:
448,192,39781,1,0,0:0:0:0:
320,192,39839,1,0,0:0:0:0:
64,192,39839,1,0,0:0:0:0:
192,192,39925,1,0,0:0:0:0:
64,192,40011,1,0,0:0:0:0:
192,192,40184,1,0,0:0:0:0:
448,192,40184,1,0,0:0:0:0:
320,192,40270,1,0,0:0:0:0:
448,192,40356,1,0,0:0:0:0:
192,192,40529,1,0,0:0:0:0:
320,192,40529,1,0,0:0:0:0:
448,192,40615,1,0,0:0:0:0:
192,192,40701,1,0,0:0:0:0:
320,192,40873,1,0,0:0:0:0:
64,192,40873,1,0,0:0:0:0:
192,192,40960,1,0,0:0:0:0:
320,192,41046,1,0,0:0:0:0:
448,192,41218,1,0,0:0:0:0:
64,192,41218,1,0,0:0:0:0:
320,192,41304,1,0,0:0:0:0:
64,192,41391,1,0,0:0:0:0:
448,192,41563,1,0,0:0:0:0:
320,192,41563,1,0,0:0:0:0:
64,192,41649,1,0,0:0:0:0:
448,192,41736,1,0,0:0:0:0:
192,192,41908,1,0,0:0:0:0:
320,192,41908,1,0,0:0:0:0:
448,192,41994,1,0,0:0:0:0:
192,192,42080,1,0,0:0:0:0:
64,192,42253,1,0,0:0:0:0:
320,192,42253,1,0,0:0:0:0:
320,192,42425,1,0,0:0:0:0:
192,192,42425,1,0,0:0:0:0:
192,192,42598,1,0,0:0:0:0:
448,192,42598,1,0,0:0:0:0:
64,192,42684,1,0,0:0:0:0:
448,192,42770,1,0,0:0:0:0:
320,192,42942,1,0,0:0:0:0:
64,192,42942,1,0,0:0:0:0:
192,192,43029,1,0,0:0:0:0:
64,192,43115,1,0,0:0:0:0:
448,192,43287,1,0,0:0:0:0:
192,192,43287,1,0,0:0:0:0:
320,192,43373,1,0,0:0:0:0:
448,192,43460,1,0,0:0:0:0:
192,192,43632,1,0,0:0:0:0:
320,192,43632,1,0,0:0:0:0:
448,192,43718,1,0,0:0:0:0:
192,192,43804,1,0,0:0:0:0:
320,192,43977,1,0,0:0:0:0:
64,192,43977,1,0,0:0:0:0:
192,192,44063,1,0,0:0:0:0:
320,192,44149,1,0,0:0:0:0:
192,192,44322,1,0,0:0:0:0:
448,192,44322,1,0,0:0:0:0:
320,192,44408,1,0,0:0:0:0:
192,192,44494,1,0,0:0:0:0:
64,192,44667,1,0,0:0:0:0:
448,192,44667,1,0,0:0:0:0:
320,192,44753,1,0,0:0:0:0:
64,192,44839,1,0,0:0:0:0:
192,192,45011,1,0,0:0:0:0:
320,192,45011,1,0,0:0:0:0:
64,192,45098,1,0,0:0:0:0:
320,192,45184,1,0,0:0:0:0:
192,192,45356,1,0,0:0:0:0:
448,192,45356,1,0,0:0:0:0:
448,192,45529,1,0,0:0:0:0:
64,192,45529,1,0,0:0:0:0:
320,192,45701,1,0,0:0:0:0:
64,192,45701,1,0,0:0:0:0:
192,192,45873,1,0,0:0:0:0:
320,192,45873,1,0,0:0:0:0:
192,192,46046,1,0,0:0:0:0:
448,192,46046,1,0,0:0:0:0:
448,192,46218,1,0,0:0:0:0:
64,192,46218,1,0,0:0:0:0:
64,192,46391,1,0,0:0:0:0:
320,192,46391,1,0,0:0:0:0:
192,192,46563,1,0,0:0:0:0:
320,192,46563,1,0,0:0:0:0:
448,192,46736,1,0,0:0:0:0:
192,192,46736,1,0,0:0:0:0:
320,192,46908,1,0,0:0:0:0:
448,192,46908,1,0,0:0:0:0:
320,192,47080,1,0,0:0:0:0:
64,192,47080,1,0,0:0:0:0:
64,192,47253,1,0,0:0:0:0:
192,192,47253,1,0,0:0:0:0:
192,192,47425,1,0,0:0:0:0:
448,192,47425,1,0,0:0:0:0:
448,192,47598,1,0,0:0:0:0:
320,192,47598,1,0,0:0:0:0:
64,192,47770,1,0,0:0:0:0:
320,192,47770,1,0,0:0:0:0:
192,192,47942,1,0,0:0:0:0:
64,192,47942,1,0,0:0:0:0:
192,192,48115,1,0,0:0:0:0:
320,192,48115,1,0,0:0:0:0:
448,192,48201,1,0,0:0:0:0:
64,192,48287,1,0,0:0:0:0:
192,192,48287,1,0,0:0:0:0:
320,192,48373,1,0,0:0:0:0:
448,192,48460,1,0,0:0:0:0:
64,192,48460,1,0,0:0:0:0:
192,192,48546,1,0,0:0:0:0:
320,192,48632,1,0,0:0:0:0:
448,192,48632,1,0,0:0:0:0:
64,192,48718,1,0,0:0:0:0:
192,192,48804,1,0,0:0:0:0:
320,192,48804,1,0,0:0:0:0:
320,192,50529,1,0,0:0:0:0:
192,192,50572,1,0,0:0:0:0:
448,192,50615,1,0,0:0:0:0:
64,192,50658,1,0,0:0:0:0:
320,192,50701,1,0,0:0:0:0:
192,192,50744,1,0,0:0:0:0:
448,192,50787,1,0,0:0:0:0:
64,192,50830,1,0,0:0:0:0:
320,192,50873,1,0,0:0:0:0:
192,192,50873,1,0,0:0:0:0:
448,192,50931,1,0,0:0:0:0:
64,192,50988,1,0,0:0:0:0:
192,192,51046,1,0,0:0:0:0:
448,192,51103,1,0,0:0:0:0:
64,192,51161,1,0,0:0:0:0:
320,192,51218,1,0,0:0:0:0:
448,192,51276,1,0,0:0:0:0:
64,192,51333,1,0,0:0:0:0:
192,192,51391,1,0,0:0:0:0:
448,192,51448,1,0,0:0:0:0:
320,192,51506,1,0,0:0:0:0:
64,192,51563,1,0,0:0:0:0:
192,192,51563,1,0,0:0:0:0:
448,192,51649,1,0,0:0:0:0:
320,192,51736,1,0,0:0:0:0:
64,192,51779,1,0,0:0:0:0:
448,192,51822,1,0,0:0:0:0:
320,192,51908,1,0,0:0:0:0:
64,192,51951,1,0,0:0:0:0:
448,192,51994,1,0,0:0:0:0:
320,192,52080,1,0,0:0:0:0:
64,192,52123,1,0,0:0:0:0:
448,192,52167,1,0,0:0:0:0:
320,192,52253,1,0,0:0:0:0:
192,192,52253,1,0,0:0:0:0:
64,192,52296,1,0,0:0:0:0:
448,192,52339,1,0,0:0:0:0:
320,192,52425,1,0,0:0:0:0:
64,192,52468,1,0,0:0:0:0:
448,192,52511,1,0,0:0:0:0:
320,192,52598,1,0,0:0:0:0:
64,192,52641,1,0,0:0:0:0:
448,192,52684,1,0,0:0:0:0:
320,192,52770,1,0,0:0:0:0:
64,192,52813,1,0,0:0:0:0:
448,192,52856,1,0,0:0:0:0:
320,192,52942,1,0,0:0:0:0:
192,192,52942,1,0,0:0:0:0:
64,192,52986,1,0,0:0:0:0:
448,192,53029,1,0,0:0:0:0:
320,192,53115,1,0,0:0:0:0:
64,192,53158,1,0,0:0:0:0:
448,192,53201,1,0,0:0:0:0:
192,192,53287,1,0,0:0:0:0:
320,192,53287,1,0,0:0:0:0:
320,192,53460,1,0,0:0:0:0:
64,192,53460,1,0,0:0:0:0:
448,192,53632,1,0,0:0:0:0:
64,192,53632,1,0,0:0:0:0:
192,192,53632,1,0,0:0:0:0:
320,192,53690,1,0,0:0:0:0:
64,192,53747,1,0,0:0:0:0:
192,192,53804,1,0,0:0:0:0:
448,192,53862,1,0,0:0:0:0:
64,192,53919,1,0,0:0:0:0:
192,192,53977,1,0,0:0:0:0:
320,192,54020,1,0,0:0:0:0:
448,192,54063,1,0,0:0:0:0:
64,192,54149,1,0,0:0:0:0:
320,192,54192,1,0,0:0:0:0:
448,192,54236,1,0,0:0:0:0:
64,192,54322,1,0,0:0:0:0:
192,192,54322,1,0,0:0:0:0:
320,192,54365,1,0,0:0:0:0:
448,192,54408,1,0,0:0:0:0:
64,192,54494,1,0,0:0:0:0:
320,192,54537,1,0,0:0:0:0:
448,192,54580,1,0,0:0:0:0:
64,192,54667,1,0,0:0:0:0:
320,192,54710,1,0,0:0:0:0:
448,192,54753,1,0,0:0:0:0:
64,192,54839,1,0,0:0:0:0:
320,192,54882,1,0,0:0:0:0:
448,192,54925,1,0,0:0:0:0:
64,192,55011,1,0,0:0:0:0:
192,192,55011,1,0,0:0:0:0:
320,192,55054,1,0,0:0:0:0:
448,192,55098,1,0,0:0:0:0:
64,192,55184,1,0,0:0:0:0:
320,192,55227,1,0,0:0:0:0:
448,192,55270,1,0,0:0:0:0:
64,192,55356,1,0,0:0:0:0:
320,192,55399,1,0,0:0:0:0:
448,192,55442,1,0,0:0:0:0:
64,192,55529,1,0,0:0:0:0:
320,192,55572,1,0,0:0:0:0:
448,192,55615,1,0,0:0:0:0:
64,192,55701,1,0,0:0:0:0:
192,192,55701,1,0,0:0:0:0:
320,192,55744,1,0,0:0:0:0:
448,192,55787,1,0,0:0:0:0:
64,192,55873,1,0,0:0:0:0:
320,192,55917,1,0,0:0:0:0:
448,192,55960,1,0,0:0:0:0:
64,192,56046,1,0,0:0:0:0:
192,192,56046,1,0,0:0:0:0:
192,192,56218,1,0,0:0:0:0:
448,192,56218,1,0,0:0:0:0:
320,192,56391,1,0,0:0:0:0:
64,192,56391,1,0,0:0:0:0:
448,192,56391,1,0,0:0:0:0:
192,192,56448,1,0,0:0:0:0:
320,192,56506,1,0,0:0:0:0:
64,192,56563,1,0,0:0:0:0:
448,192,56621,1,0,0:0:0:0:
192,192,56678,1,0,0:0:0:0:
320,192,56736,1,0,0:0:0:0:
64,192,56793,1,0,0:0:0:0:
448,192,56850,1,0,0:0:0:0:
192,192,56908,1,0,0:0:0:0:
320,192,56965,1,0,0:0:0:0:
64,192,57023,1,0,0:0:0:0:
448,192,57080,1,0,0:0:0:0:
192,192,57080,1,0,0:0:0:0:
320,192,57123,1,0,0:0:0:0:
64,192,57167,1,0,0:0:0:0:
448,192,57253,1,0,0:0:0:0:
64,192,57296,1,0,0:0:0:0:
192,192,57339,1,0,0:0:0:0:
448,192,57425,1,0,0:0:0:0:
64,192,57468,1,0,0:0:0:0:
320,192,57511,1,0,0:0:0:0:
448,192,57598,1,0,0:0:0:0:
192,192,57641,1,0,0:0:0:0:
320,192,57684,1,0,0:0:0:0:
64,192,57770,1,0,0:0:0:0:
448,192,57770,1,0,0:0:0:0:
192,192,57813,1,0,0:0:0:0:
320,192,57856,1,0,0:0:0:0:
64,192,57942,1,0,0:0:0:0:
192,192,57986,1,0,0:0:0:0:
448,192,58029,1,0,0:0:0:0:
64,192,58115,1,0,0:0:0:0:
320,192,58158,1,0,0:0:0:0:
448,192,58201,1,0,0:0:0:0:
192,192,58287,1,0,0:0:0:0:
320,192,58330,1,0,0:0:0:0:
448,192,58373,1,0,0:0:0:0:
320,192,58460,1,0,0:0:0:0:
64,192,58460,1,0,0:0:0:0:
192,192,58503,1,0,0:0:0:0:
448,192,58546,1,0,0:0:0:0:
64,192,58632,1,0,0:0:0:0:
192,192,58675,1,0,0:0:0:0:
320,192,58718,1,0,0:0:0:0:
448,192,58804,1,0,0:0:0:0:
64,192,58804,1,0,0:0:0:0:
192,192,58977,1,0,0:0:0:0:
320,192,58977,1,0,0:0:0:0:
448,192,59149,1,0,0:0:0:0:
64,192,59149,1,0,0:0:0:0:
192,192,59149,1,0,0:0:0:0:
320,192,59207,1,0,0:0:0:0:
64,192,59264,1,0,0:0:0:0:
192,192,59322,1,0,0:0:0:0:
320,192,59379,1,0,0:0:0:0:
448,192,59437,1,0,0:0:0:0:
192,192,59494,1,0,0:0:0:0:
64,192,59552,1,0,0:0:0:0:
448,192,59609,1,0,0:0:0:0:
320,192,59667,1,0,0:0:0:0:
192,192,59724,1,0,0:0:0:0:
64,192,59781,1,0,0:0:0:0:
192,192,59839,1,0,0:0:0:0:
448,192,59839,1,0,0:0:0:0:
320,192,59896,1,0,0:0:0:0:
64,192,59954,1,0,0:0:0:0:
448,192,60011,1,0,0:0:0:0:
320,192,60069,1,0,0:0:0:0:
64,192,60126,1,0,0:0:0:0:
448,192,60184,1,0,0:0:0:0:
320,192,60241,1,0,0:0:0:0:
64,192,60299,1,0,0:0:0:0:
448,192,60356,1,0,0:0:0:0:
192,192,60414,1,0,0:0:0:0:
64,192,60471,1,0,0:0:0:0:
320,192,60529,1,0,0:0:0:0:
448,192,60529,1,0,0:0:0:0:
192,192,60586,1,0,0:0:0:0:
320,192,60644,1,0,0:0:0:0:
448,192,60701,1,0,0:0:0:0:
192,192,60758,1,0,0:0:0:0:
320,192,60816,1,0,0:0:0:0:
64,192,60873,1,0,0:0:0:0:
192,192,60931,1,0,0:0:0:0:
320,192,60988,1,0,0:0:0:0:
448,192,61046,1,0,0:0:0:0:
64,192,61103,1,0,0:0:0:0:
192,192,61161,1,0,0:0:0:0:
448,192,61218,1,0,0:0:0:0:
320,192,61218,1,0,0:0:0:0:
64,192,61276,1,0,0:0:0:0:
448,192,61333,1,0,0:0:0:0:
192,192,61391,1,0,0:0:0:0:
320,192,61448,1,0,0:0:0:0:
64,192,61506,1,0,0:0:0:0:
448,192,61563,1,0,0:0:0:0:
192,192,61621,1,0,0:0:0:0:
320,192,61678,1,0,0:0:0:0:
64,192,61736,1,0,0:0:0:0:
448,192,61793,1,0,0:0:0:0:
192,192,61850,1,0,0:0:0:0:
320,192,61908,1,0,0:0:0:0:
448,192,61908,1,0,0:0:0:0:
64,192,61965,1,0,0:0:0:0:
192,192,62023,1,0,0:0:0:0:
448,192,62080,1,0,0:0:0:0:
320,192,62138,1,0,0:0:0:0:
64,192,62195,1,0,0:0:0:0:
192,192,62253,1,0,0:0:0:0:
448,192,62310,1,0,0:0:0:0:
320,192,62368,1,0,0:0:0:0:
192,192,62425,1,0,0:0:0:0:
64,192,62483,1,0,0:0:0:0:
320,192,62540,1,0,0:0:0:0:
192,192,62598,1,0,0:0:0:0:
64,192,62598,1,0,0:0:0:0:
448,192,62641,1,0,0:0:0:0:
320,192,62684,1,0,0:0:0:0:
192,192,62770,1,0,0:0:0:0:
448,192,62813,1,0,0:0:0:0:
320,192,62856,1,0,0:0:0:0:
192,192,62942,1,0,0:0:0:0:
448,192,62986,1,0,0:0:0:0:
320,192,63029,1,0,0:0:0:0:
192,192,63115,1,0,0:0:0:0:
448,192,63158,1,0,0:0:0:0:
320,192,63201,1,0,0:0:0:0:
192,192,63287,1,0,0:0:0:0:
64,192,63287,1,0,0:0:0:0:
448,192,63330,1,0,0:0:0:0:
320,192,63373,1,0,0:0:0:0:
192,192,63460,1,0,0:0:0:0:
448,192,63503,1,0,0:0:0:0:
320,192,63546,1,0,0:0:0:0:
192,192,63632,1,0,0:0:0:0:
448,192,63675,1,0,0:0:0:0:
320,192,63718,1,0,0:0:0:0:
192,192,63804,1,0,0:0:0:0:
448,192,63848,1,0,0:0:0:0:
320,192,63891,1,0,0:0:0:0:
192,192,63977,1,0,0:0:0:0:
64,192,63977,1,0,0:0:0:0:
448,192,64020,1,0,0:0:0:0:
320,192,64063,1,0,0:0:0:0:
448,192,64149,1,0,0:0:0:0:
64,192,64149,1,0,0:0:0:0:
64,192,64322,1,0,0:0:0:0:
320,192,64322,1,0,0:0:0:0:
320,192,64494,1,0,0:0:0:0:
192,192,64494,1,0,0:0:0:0:
192,192,64667,1,0,0:0:0:0:
320,192,64667,1,0,0:0:0:0:
448,192,64667,1,0,0:0:0:0:
64,192,64724,1,0,0:0:0:0:
192,192,64781,1,0,0:0:0:0:
320,192,64839,1,0,0:0:0:0:
64,192,64896,1,0,0:0:0:0:
192,192,64954,1,0,0:0:0:0:
448,192,65011,1,0,0:0:0:0:
320,192,65054,1,0,0:0:0:0:
64,192,65098,1,0,0:0:0:0:
448,192,65184,1,0,0:0:0:0:
320,192,65227,1,0,0:0:0:0:
64,192,65270,1,0,0:0:0:0:
192,192,65356,1,0,0:0:0:0:
448,192,65356,1,0,0:0:0:0:
320,192,65399,1,0,0:0:0:0:
64,192,65442,1,0,0:0:0:0:
448,192,65529,1,0,0:0:0:0:
320,192,65572,1,0,0:0:0:0:
64,192,65615,1,0,0:0:0:0:
448,192,65701,1,0,0:0:0:0:
320,192,65744,1,0,0:0:0:0:
64,192,65787,1,0,0:0:0:0:
448,192,65873,1,0,0:0:0:0:
320,192,65917,1,0,0:0:0:0:
64,192,65960,1,0,0:0:0:0:
192,192,66046,1,0,0:0:0:0:
448,192,66046,1,0,0:0:0:0:
320,192,66089,1,0,0:0:0:0:
64,192,66132,1,0,0:0:0:0:
448,192,66218,1,0,0:0:0:0:
320,192,66261,1,0,0:0:0:0:
64,192,66304,1,0,0:0:0:0:
448,192,66391,1,0,0:0:0:0:
320,192,66434,1,0,0:0:0:0:
64,192,66477,1,0,0:0:0:0:
448,192,66563,1,0,0:0:0:0:
320,192,66606,1,0,0:0:0:0:
64,192,66649,1,0,0:0:0:0:
192,192,66736,1,0,0:0:0:0:
448,192,66736,1,0,0:0:0:0:
320,192,66779,1,0,0:0:0:0:
64,192,66822,1,0,0:0:0:0:
192,192,66908,1,0,0:0:0:0:
448,192,66908,1,0,0:0:0:0:
192,192,67080,1,0,0:0:0:0:
320,192,67080,1,0,0:0:0:0:
64,192,67253,1,0,0:0:0:0:
320,192,67253,1,0,0:0:0:0:
320,192,67425,1,0,0:0:0:0:
64,192,67425,1,0,0:0:0:0:
448,192,67425,1,0,0:0:0:0:
192,192,67483,1,0,0:0:0:0:
320,192,67540,1,0,0:0:0:0:
64,192,67598,1,0,0:0:0:0:
448,192,67655,1,0,0:0:0:0:
192,192,67713,1,0,0:0:0:0:
320,192,67770,1,0,0:0:0:0:
64,192,67827,1,0,0:0:0:0:
448,192,67885,1,0,0:0:0:0:
192,192,67942,1,0,0:0:0:0:
320,192,68000,1,0,0:0:0:0:
64,192,68057,1,0,0:0:0:0:
448,192,68115,1,0,0:0:0:0:
192,192,68115,1,0,0:0:0:0:
320,192,68201,1,0,0:0:0:0:
64,192,68244,1,0,0:0:0:0:
192,192,68287,1,0,0:0:0:0:
320,192,68373,1,0,0:0:0:0:
64,192,68417,1,0,0:0:0:0:
448,192,68460,1,0,0:0:0:0:
192,192,68546,1,0,0:0:0:0:
64,192,68589,1,0,0:0:0:0:
320,192,68632,1,0,0:0:0:0:
192,192,68718,1,0,0:0:0:0:
64,192,68761,1,0,0:0:0:0:
320,192,68804,1,0,0:0:0:0:
448,192,68804,1,0,0:0:0:0:
192,192,68891,1,0,0:0:0:0:
64,192,68934,1,0,0:0:0:0:
448,192,68977,1,0,0:0:0:0:
320,192,69063,1,0,0:0:0:0:
192,192,69106,1,0,0:0:0:0:
448,192,69149,1,0,0:0:0:0:
320,192,69236,1,0,0:0:0:0:
64,192,69279,1,0,0:0:0:0:
448,192,69322,1,0,0:0:0:0:
192,192,69408,1,0,0:0:0:0:
320,192,69451,1,0,0:0:0:0:
448,192,69494,1,0,0:0:0:0:
64,192,69494,1,0,0:0:0:0:
192,192,69580,1,0,0:0:0:0:
320,192,69623,1,0,0:0:0:0:
448,192,69667,1,0,0:0:0:0:
64,192,69753,1,0,0:0:0:0:
192,192,69796,1,0,0:0:0:0:
448,192,69839,1,0,0:0:0:0:
320,192,69839,1,0,0:0:0:0:
192,192,70011,1,0,0:0:0:0:
320,192,70011,1,0,0:0:0:0:
448,192,70184,1,0,0:0:0:0:
64,192,70184,1,0,0:0:0:0:
192,192,70184,1,0,0:0:0:0:
320,192,70241,1,0,0:0:0:0:
64,192,70299,1,0,0:0:0:0:
192,192,70356,1,0,0:0:0:0:
320,192,70414,1,0,0:0:0:0:
448,192,70471,1,0,0:0:0:0:
192,192,70529,1,0,0:0:0:0:
64,192,70586,1,0,0:0:0:0:
448,192,70644,1,0,0:0:0:0:
320,192,70701,1,0,0:0:0:0:
192,192,70758,1,0,0:0:0:0:
64,192,70816,1,0,0:0:0:0:
192,192,70873,1,0,0:0:0:0:
448,192,70873,1,0,0:0:0:0:
320,192,70931,1,0,0:0:0:0:
64,192,70988,1,0,0:0:0:0:
448,192,71046,1,0,0:0:0:0:
320,192,71103,1,0,0:0:0:0:
64,192,71161,1,0,0:0:0:0:
448,192,71218,1,0,0:0:0:0:
320,192,71276,1,0,0:0:0:0:
64,192,71333,1,0,0:0:0:0:
320,192,71391,1,0,0:0:0:0:
192,192,71448,1,0,0:0:0:0:
64,192,71506,1,0,0:0:0:0:
320,192,71563,1,0,0:0:0:0:
448,192,71563,1,0,0:0:0:0:
192,192,71621,1,0,0:0:0:0:
320,192,71678,1,0,0:0:0:0:
448,192,71736,1,0,0:0:0:0:
192,192,71793,1,0,0:0:0:0:
320,192,71850,1,0,0:0:0:0:
64,192,71908,1,0,0:0:0:0:
192,192,71965,1,0,0:0:0:0:
320,192,72023,1,0,0:0:0:0:
448,192,72080,1,0,0:0:0:0:
64,192,72138,1,0,0:0:0:0:
192,192,72195,1,0,0:0:0:0:
448,192,72253,1,0,0:0:0:0:
320,192,72253,1,0,0:0:0:0:
64,192,72310,1,0,0:0:0:0:
448,192,72368,1,0,0:0:0:0:
192,192,72425,1,0,0:0:0:0:
320,192,72483,1,0,0:0:0:0:
64,192,72540,1,0,0:0:0:0:
448,192,72598,1,0,0:0:0:0:
192,192,72655,1,0,0:0:0:0:
320,192,72713,1,0,0:0:0:0:
64,192,72770,1,0,0:0:0:0:
448,192,72827,1,0,0:0:0:0:
192,192,72885,1,0,0:0:0:0:
320,192,72942,1,0,0:0:0:0:
448,192,72942,1,0,0:0:0:0:
64,192,73000,1,0,0:0:0:0:
192,192,73057,1,0,0:0:0:0:
448,192,73115,1,0,0:0:0:0:
64,192,73172,1,0,0:0:0:0:
320,192,73230,1,0,0:0:0:0:
448,192,73287,1,0,0:0:0:0:
64,192,73345,1,0,0:0:0:0:
448,192,73402,1,0,0:0:0:0:
64,192,73460,1,0,0:0:0:0:
448,192,73517,1,0,0:0:0:0:
64,192,73575,1,0,0:0:0:0:
320,192,73632,1,0,0:0:0:0:
192,192,73632,1,0,0:0:0:0:
448,192,73977,1,0,0:0:0:0:
320,192,74034,1,0,0:0:0:0:
192,192,74092,1,0,0:0:0:0:
64,192,74149,1,0,0:0:0:0:
448,192,74207,1,0,0:0:0:0:
320,192,74264,1,0,0:0:0:0:
64,192,74322,1,0,0:0:0:0:
192,192,74322,1,0,0:0:0:0:
448,192,74379,1,0,0:0:0:0:
64,192,74437,1,0,0:0:0:0:
192,192,74494,1,0,0:0:0:0:
320,192,74552,1,0,0:0:0:0:
448,192,74609,1,0,0:0:0:0:
64,192,74667,1,0,0:0:0:0:
192,192,74724,1,0,0:0:0:0:
320,192,74781,1,0,0:0:0:0:
448,192,74839,1,0,0:0:0:0:
64,192,74896,1,0,0:0:0:0:
192,192,74954,1,0,0:0:0:0:
320,192,75011,1,0,0:0:0:0:
448,192,75011,1,0,0:0:0:0:
64,192,75069,1,0,0:0:0:0:
320,192,75126,1,0,0:0:0:0:
192,192,75184,1,0,0:0:0:0:
448,192,75241,1,0,0:0:0:0:
64,192,75299,1,0,0:0:0:0:
320,192,75356,1,0,0:0:0:0:
192,192,75414,1,0,0:0:0:0:
448,192,75471,1,0,0:0:0:0:
64,192,75529,1,0,0:0:0:0:
320,192,75586,1,0,0:0:0:0:
192,192,75644,1,0,0:0:0:0:
448,192,75701,1,0,0:0:0:0:
64,192,75701,1,0,0:0:0:0:
320,192,75758,1,0,0:0:0:0:
192,192,75816,1,0,0:0:0:0:
64,192,75873,1,0,0:0:0:0:
448,192,75931,1,0,0:0:0:0:
320,192,75988,1,0,0:0:0:0:
192,192,76046,1,0,0:0:0:0:
64,192,76103,1,0,0:0:0:0:
448,192,76161,1,0,0:0:0:0:
320,192,76218,1,0,0:0:0:0:
192,192,76276,1,0,0:0:0:0:
64,192,76333,1,0,0:0:0:0:
320,192,76391,1,0,0:0:0:0:
448,192,76391,1,0,0:0:0:0:
192,192,76736,1,0,0:0:0:0:
320,192,76822,1,0,0:0:0:0:
192,192,76908,1,0,0:0:0:0:
320,192,76994,1,0,0:0:0:0:
64,192,77080,1,0,0:0:0:0:
192,192,77080,1,0,0:0:0:0:
448,192,77167,1,0,0:0:0:0:
64,192,77253,1,0,0:0:0:0:
448,192,77339,1,0,0:0:0:0:
64,192,77425,1,0,0:0:0:0:
448,192,77511,1,0,0:0:0:0:
64,192,77598,1,0,0:0:0:0:
448,192,77684,1,0,0:0:0:0:
192,192,77770,1,0,0:0:0:0:
64,192,77770,1,0,0:0:0:0:
320,192,77770,1,0,0:0:0:0:
448,192,77856,1,0,0:0:0:0:
192,192,77942,1,0,0:0:0:0:
320,192,78029,1,0,0:0:0:0:
192,192,78115,1,0,0:0:0:0:
320,192,78201,1,0,0:0:0:0:
192,192,78287,1,0,0:0:0:0:
320,192,78373,1,0,0:0:0:0:
64,192,78460,1,0,0:0:0:0:
448,192,78460,1,0,0:0:0:0:
192,192,78517,1,0,0:0:0:0:
320,192,78575,1,0,0:0:0:0:
448,192,78632,1,0,0:0:0:0:
64,192,78690,1,0,0:0:0:0:
192,192,78747,1,0,0:0:0:0:
448,192,78804,1,0,0:0:0:0:
192,192,78862,1,0,0:0:0:0:
320,192,78919,1,0,0:0:0:0:
64,192,78977,1,0,0:0:0:0:
448,192,79034,1,0,0:0:0:0:
192,192,79092,1,0,0:0:0:0:
320,192,79149,1,0,0:0:0:0:
64,192,79149,1,0,0:0:0:0:
448,192,79207,1,0,0:0:0:0:
192,192,79264,1,0,0:0:0:0:
320,192,79322,1,0,0:0:0:0:
64,192,79379,1,0,0:0:0:0:
192,192,79437,1,0,0:0:0:0:
448,192,79494,1,0,0:0:0:0:
320,192,79552,1,0,0:0:0:0:
192,192,79609,1,0,0:0:0:0:
64,192,79667,1,0,0:0:0:0:
448,192,79724,1,0,0:0:0:0:
320,192,79781,1,0,0:0:0:0:
64,192,79839,1,0,0:0:0:0:
192,192,79839,1,0,0:0:0:0:
448,192,79896,1,0,0:0:0:0:
64,192,79954,1,0,0:0:0:0:
320,192,80011,1,0,0:0:0:0:
192,192,80069,1,0,0:0:0:0:
448,192,80126,1,0,0:0:0:0:
64,192,80184,1,0,0:0:0:0:
320,192,80241,1,0,0:0:0:0:
192,192,80299,1,0,0:0:0:0:
448,192,80356,1,0,0:0:0:0:
64,192,80414,1,0,0:0:0:0:
320,192,80471,1,0,0:0:0:0:
192,192,80529,1,0,0:0:0:0:
448,192,80529,1,0,0:0:0:0:
64,192,80586,1,0,0:0:0:0:
320,192,80644,1,0,0:0:0:0:
448,192,80701,1,0,0:0:0:0:
64,192,80758,1,0,0:0:0:0:
192,192,80816,1,0,0:0:0:0:
320,192,80873,1,0,0:0:0:0:
448,192,80931,1,0,0:0:0:0:
64,192,80988,1,0,0:0:0:0:
192,192,81046,1,0,0:0:0:0:
320,192,81103,1,0,0:0:0:0:
448,192,81161,1,0,0:0:0:0:
192,192,81218,1,0,0:0:0:0:
64,192,81218,1,0,0:0:0:0:
320,192,81276,1,0,0:0:0:0:
192,192,81333,1,0,0:0:0:0:
64,192,81391,1,0,0:0:0:0:
448,192,81448,1,0,0:0:0:0:
320,192,81506,1,0,0:0:0:0:
192,192,81563,1,0,0:0:0:0:
64,192,81621,1,0,0:0:0:0:
448,192,81678,1,0,0:0:0:0:
320,192,81736,1,0,0:0:0:0:
192,192,81793,1,0,0:0:0:0:
64,192,81850,1,0,0:0:0:0:
320,192,81908,1,0,0:0:0:0:
448,192,81908,1,0,0:0:0:0:
64,192,82598,1,0,0:0:0:0:
192,192,82598,1,0,0:0:0:0:
448,192,82684,1,0,0:0:0:0:
64,192,82770,1,0,0:0:0:0:
448,192,82856,1,0,0:0:0:0:
64,192,82942,1,0,0:0:0:0:
448,192,83029,1,0,0:0:0:0:
64,192,83115,1,0,0:0:0:0:
448,192,83201,1,0,0:0:0:0:
192,192,83287,1,0,0:0:0:0:
64,192,83287,1,0,0:0:0:0:
320,192,83287,1,0,0:0:0:0:
448,192,83345,1,0,0:0:0:0:
64,192,83402,1,0,0:0:0:0:
192,192,83460,1,0,0:0:0:0:
320,192,83517,1,0,0:0:0:0:
448,192,83575,1,0,0:0:0:0:
64,192,83632,1,0,0:0:0:0:
192,192,83690,1,0,0:0:0:0:
320,192,83747,1,0,0:0:0:0:
448,192,83804,1,0,0:0:0:0:
64,192,83862,1,0,0:0:0:0:
64,192,97770,5,0,0:0:0:0:
448,192,97770,1,0,0:0:0:0:
320,192,97856,1,0,0:0:0:0:
64,192,97942,1,0,0:0:0:0:
192,192,98115,1,0,0:0:0:0:
320,192,98115,1,0,0:0:0:0:
448,192,98287,1,0,0:0:0:0:
64,192,98287,1,0,0:0:0:0:
192,192,98373,1,0,0:0:0:0:
448,192,98460,1,0,0:0:0:0:
192,192,98632,1,0,0:0:0:0:
320,192,98632,1,0,0:0:0:0:
64,192,98804,1,0,0:0:0:0:
448,192,98891,1,0,0:0:0:0:
64,192,98977,1,0,0:0:0:0:
448,192,99063,1,0,0:0:0:0:
192,192,99149,1,0,0:0:0:0:
64,192,99149,1,0,0:0:0:0:
320,192,99322,1,0,0:0:0:0:
448,192,99365,1,0,0:0:0:0:
64,192,99494,1,0,0:0:0:0:
192,192,99667,1,0,0:0:0:0:
320,192,99667,1,0,0:0:0:0:
448,192,99839,1,0,0:0:0:0:
448,192,100529,1,0,0:0:0:0:
320,192,100529,1,0,0:0:0:0:
64,192,100529,1,0,0:0:0:0:
448,192,100701,1,0,0:0:0:0:
448,192,100873,1,0,0:0:0:0:
64,192,100873,1,0,0:0:0:0:
448,192,101046,1,0,0:0:0:0:
448,192,101218,1,0,0:0:0:0:
192,192,101218,1,0,0:0:0:0:
320,192,101218,1,0,0:0:0:0:
320,192,101563,1,0,0:0:0:0:
448,192,101908,1,0,0:0:0:0:
192,192,102080,1,0,0:0:0:0:
192,192,102253,1,0,0:0:0:0:
320,192,102253,1,0,0:0:0:0:
448,192,102598,1,0,0:0:0:0:
64,192,102598,1,0,0:0:0:0:
192,192,102598,1,0,0:0:0:0:
320,192,102770,1,0,0:0:0:0:
320,192,102942,1,0,0:0:0:0:
192,192,102942,1,0,0:0:0:0:
320,192,103115,1,0,0:0:0:0:
192,192,103287,1,0,0:0:0:0:
64,192,103287,1,0,0:0:0:0:
448,192,103287,1,0,0:0:0:0:
192,192,103460,1,0,0:0:0:0:
192,192,103632,1,0,0:0:0:0:
448,192,103632,1,0,0:0:0:0:
192,192,103804,1,0,0:0:0:0:
192,192,103977,1,0,0:0:0:0:
320,192,103977,1,0,0:0:0:0:
448,192,103977,1,0,0:0:0:0:
448,192,104322,1,0,0:0:0:0:
192,192,104667,1,0,0:0:0:0:
448,192,105011,1,0,0:0:0:0:
320,192,105184,1,0,0:0:0:0:
192,192,105356,1,0,0:0:0:0:
64,192,105356,1,0,0:0:0:0:
448,192,105356,1,0,0:0:0:0:
192,192,105529,1,0,0:0:0:0:
192,192,105701,1,0,0:0:0:0:
320,192,105701,1,0,0:0:0:0:
192,192,105873,1,0,0:0:0:0:
320,192,106046,1,0,0:0:0:0:
448,192,106046,1,0,0:0:0:0:
64,192,106046,1,0,0:0:0:0:
448,192,106218,1,0,0:0:0:0:
448,192,106391,1,0,0:0:0:0:
192,192,106391,1,0,0:0:0:0:
448,192,106563,1,0,0:0:0:0:
448,192,106736,1,0,0:0:0:0:
64,192,106736,1,0,0:0:0:0:
320,192,106736,1,0,0:0:0:0:
320,192,107080,1,0,0:0:0:0:
448,192,107425,1,0,0:0:0:0:
192,192,107598,1,0,0:0:0:0:
192,192,107770,1,0,0:0:0:0:
448,192,107770,1,0,0:0:0:0:
64,192,108115,1,0,0:0:0:0:
192,192,108115,1,0,0:0:0:0:
448,192,108115,1,0,0:0:0:0:
448,192,108287,1,0,0:0:0:0:
448,192,108460,1,0,0:0:0:0:
192,192,108460,1,0,0:0:0:0:
448,192,108632,1,0,0:0:0:0:
320,192,108804,1,0,0:0:0:0:
192,192,108804,1,0,0:0:0:0:
64,192,108804,1,0,0:0:0:0:
192,192,108977,1,0,0:0:0:0:
192,192,109149,1,0,0:0:0:0:
448,192,109149,1,0,0:0:0:0:
192,192,109322,1,0,0:0:0:0:
320,192,109494,1,0,0:0:0:0:
448,192,109494,1,0,0:0:0:0:
64,192,109494,1,0,0:0:0:0:
448,192,109839,1,0,0:0:0:0:
192,192,110184,1,0,0:0:0:0:
448,192,110529,1,0,0:0:0:0:
320,192,110701,1,0,0:0:0:0:
192,192,110873,1,0,0:0:0:0:
64,192,110873,1,0,0:0:0:0:
448,192,110873,1,0,0:0:0:0:
64,192,111046,1,0,0:0:0:0:
64,192,111218,1,0,0:0:0:0:
448,192,111218,1,0,0:0:0:0:
64,192,111391,1,0,0:0:0:0:
448,192,112253,1,0,0:0:0:0:
64,192,112253,1,0,0:0:0:0:
320,192,112253,1,0,0:0:0:0:
192,192,112598,1,0,0:0:0:0:
448,192,112942,1,0,0:0:0:0:
320,192,113115,1,0,0:0:0:0:
320,192,113287,1,0,0:0:0:0:
192,192,113287,1,0,0:0:0:0:
64,192,113632,1,0,0:0:0:0:
448,192,113632,1,0,0:0:0:0:
320,192,113632,1,0,0:0:0:0:
448,192,113804,1,0,0:0:0:0:
448,192,113977,1,0,0:0:0:0:
192,192,113977,1,0,0:0:0:0:
448,192,114149,1,0,0:0:0:0:
320,192,114322,1,0,0:0:0:0:
64,192,114322,1,0,0:0:0:0:
192,192,114322,1,0,0:0:0:0:
64,192,114494,1,0,0:0:0:0:
64,192,114667,1,0,0:0:0:0:
320,192,114667,1,0,0:0:0:0:
64,192,114839,1,0,0:0:0:0:
64,192,115011,1,0,0:0:0:0:
448,192,115011,1,0,0:0:0:0:
320,192,115011,1,0,0:0:0:0:
320,192,115356,1,0,0:0:0:0:
64,192,115701,1,0,0:0:0:0:
192,192,115787,1,0,0:0:0:0:
64,192,115873,1,0,0:0:0:0:
448,192,116046,1,0,0:0:0:0:
320,192,116218,1,0,0:0:0:0:
192,192,116391,1,0,0:0:0:0:
64,192,116391,1,0,0:0:0:0:
64,192,116563,1,0,0:0:0:0:
320,192,116736,1,0,0:0:0:0:
192,192,116779,1,0,0:0:0:0:
448,192,116822,1,0,0:0:0:0:
64,192,116865,1,0,0:0:0:0:
320,192,116908,1,0,0:0:0:0:
192,192,116951,1,0,0:0:0:0:
448,192,116994,1,0,0:0:0:0:
64,192,117037,1,0,0:0:0:0:
320,192,117080,1,0,0:0:0:0:
192,192,117080,1,0,0:0:0:0:
448,192,117253,1,0,0:0:0:0:
448,192,117425,1,0,0:0:0:0:
192,192,117425,1,0,0:0:0:0:
448,192,117598,1,0,0:0:0:0:
448,192,117770,1,0,0:0:0:0:
64,192,117770,1,0,0:0:0:0:
320,192,117770,1,0,0:0:0:0:
320,192,118115,1,0,0:0:0:0:
192,192,118460,1,0,0:0:0:0:
64,192,118632,1,0,0:0:0:0:
64,192,118804,1,0,0:0:0:0:
320,192,118804,1,0,0:0:0:0:
192,192,119149,1,0,0:0:0:0:
448,192,119149,1,0,0:0:0:0:
64,192,119149,1,0,0:0:0:0:
64,192,119322,1,0,0:0:0:0:
64,192,119494,1,0,0:0:0:0:
320,192,119494,1,0,0:0:0:0:
64,192,119667,1,0,0:0:0:0:
320,192,119839,1,0,0:0:0:0:
448,192,119839,1,0,0:0:0:0:
64,192,119896,1,0,0:0:0:0:
192,192,119954,1,0,0:0:0:0:
448,192,120011,1,0,0:0:0:0:
64,192,120184,1,0,0:0:0:0:
192,192,120184,1,0,0:0:0:0:
448,192,120241,1,0,0:0:0:0:
320,192,120299,1,0,0:0:0:0:
64,192,120356,1,0,0:0:0:0:
192,192,120529,1,0,0:0:0:0:
320,192,120529,1,0,0:0:0:0:
448,192,120529,1,0,0:0:0:0:
320,192,120873,1,0,0:0:0:0:
448,192,121218,1,0,0:0:0:0:
64,192,121563,1,0,0:0:0:0:
192,192,121736,1,0,0:0:0:0:
320,192,121908,1,0,0:0:0:0:
448,192,121908,1,0,0:0:0:0:
64,192,121965,1,0,0:0:0:0:
192,192,122023,1,0,0:0:0:0:
448,192,122080,1,0,0:0:0:0:
320,192,122138,1,0,0:0:0:0:
64,192,122195,1,0,0:0:0:0:
192,192,122253,1,0,0:0:0:0:
448,192,122310,1,0,0:0:0:0:
320,192,122368,1,0,0:0:0:0:
64,192,122425,1,0,0:0:0:0:
192,192,122483,1,0,0:0:0:0:
448,192,122540,1,0,0:0:0:0:
320,192,122598,1,0,0:0:0:0:
64,192,122598,1,0,0:0:0:0:
192,192,122684,1,0,0:0:0:0:
64,192,122770,1,0,0:0:0:0:
192,192,122942,1,0,0:0:0:0:
448,192,122942,1,0,0:0:0:0:
320,192,123029,1,0,0:0:0:0:
448,192,123115,1,0,0:0:0:0:
192,192,123287,1,0,0:0:0:0:
320,192,123287,1,0,0:0:0:0:
448,192,123373,1,0,0:0:0:0:
192,192,123460,1,0,0:0:0:0:
320,192,123632,1,0,0:0:0:0:
64,192,123632,1,0,0:0:0:0:
192,192,123718,1,0,0:0:0:0:
320,192,123804,1,0,0:0:0:0:
448,192,123977,1,0,0:0:0:0:
64,192,123977,1,0,0:0:0:0:
320,192,124063,1,0,0:0:0:0:
64,192,124149,1,0,0:0:0:0:
448,192,124322,1,0,0:0:0:0:
320,192,124322,1,0,0:0:0:0:
64,192,124408,1,0,0:0:0:0:
448,192,124494,1,0,0:0:0:0:
192,192,124667,1,0,0:0:0:0:
320,192,124667,1,0,0:0:0:0:
448,192,124753,1,0,0:0:0:0:
192,192,124839,1,0,0:0:0:0:
64,192,125011,1,0,0:0:0:0:
320,192,125011,1,0,0:0:0:0:
320,192,125184,1,0,0:0:0:0:
192,192,125184,1,0,0:0:0:0:
192,192,125356,1,0,0:0:0:0:
448,192,125356,1,0,0:0:0:0:
64,192,125442,1,0,0:0:0:0:
448,192,125529,1,0,0:0:0:0:
320,192,125701,1,0,0:0:0:0:
64,192,125701,1,0,0:0:0:0:
192,192,125787,1,0,0:0:0:0:
64,192,125873,1,0,0:0:0:0:
448,192,126046,1,0,0:0:0:0:
192,192,126046,1,0,0:0:0:0:
320,192,126132,1,0,0:0:0:0:
448,192,126218,1,0,0:0:0:0:
192,192,126391,1,0,0:0:0:0:
320,192,126391,1,0,0:0:0:0:
448,192,126477,1,0,0:0:0:0:
192,192,126563,1,0,0:0:0:0:
320,192,126736,1,0,0:0:0:0:
64,192,126736,1,0,0:0:0:0:
192,192,126822,1,0,0:0:0:0:
320,192,126908,1,0,0:0:0:0:
192,192,127080,1,0,0:0:0:0:
448,192,127080,1,0,0:0:0:0:
320,192,127167,1,0,0:0:0:0:
192,192,127253,1,0,0:0:0:0:
64,192,127425,1,0,0:0:0:0:
448,192,127425,1,0,0:0:0:0:
320,192,127511,1,0,0:0:0:0:
64,192,127598,1,0,0:0:0:0:
192,192,127770,1,0,0:0:0:0:
320,192,127770,1,0,0:0:0:0:
64,192,127856,1,0,0:0:0:0:
320,192,127942,1,0,0:0:0:0:
192,192,128115,1,0,0:0:0:0:
448,192,128115,1,0,0:0:0:0:
448,192,128287,1,0,0:0:0:0:
64,192,128287,1,0,0:0:0:0:
320,192,128460,1,0,0:0:0:0:
64,192,128460,1,0,0:0:0:0:
192,192,128632,1,0,0:0:0:0:
320,192,128632,1,0,0:0:0:0:
192,192,128804,1,0,0:0:0:0:
448,192,128804,1,0,0:0:0:0:
448,192,128977,1,0,0:0:0:0:
64,192,128977,1,0,0:0:0:0:
64,192,129149,1,0,0:0:0:0:
320,192,129149,1,0,0:0:0:0:
192,192,129322,1,0,0:0:0:0:
320,192,129322,1,0,0:0:0:0:
448,192,129494,1,0,0:0:0:0:
192,192,129494,1,0,0:0:0:0:
320,192,129667,1,0,0:0:0:0:
448,192,129667,1,0,0:0:0:0:
320,192,129839,1,0,0:0:0:0:
64,192,129839,1,0,0:0:0:0:
64,192,130011,1,0,0:0:0:0:
192,192,130011,1,0,0:0:0:0:
192,192,130184,1,0,0:0:0:0:
448,192,130184,1,0,0:0:0:0:
448,192,130356,1,0,0:0:0:0:
320,192,130356,1,0,0:0:0:0:
64,192,130529,1,0,0:0:0:0:
320,192,130529,1,0,0:0:0:0:
192,192,130701,1,0,0:0:0:0:
64,192,130701,1,0,0:0:0:0:
192,192,130873,1,0,0:0:0:0:
320,192,130873,1,0,0:0:0:0:
448,192,130960,1,0,0:0:0:0:
64,192,131046,1,0,0:0:0:0:
192,192,131046,1,0,0:0:0:0:
320,192,131132,1,0,0:0:0:0:
448,192,131218,1,0,0:0:0:0:
64,192,131218,1,0,0:0:0:0:
192,192,131304,1,0,0:0:0:0:
320,192,131391,1,0,0:0:0:0:
448,192,131391,1,0,0:0:0:0:
64,192,131477,1,0,0:0:0:0:
192,192,131563,1,0,0:0:0:0:
320,192,131563,1,0,0:0:0:0:
64,192,131649,1,0,0:0:0:0:
448,192,131649,1,0,0:0:0:0:
320,192,133287,1,0,0:0:0:0:
320,192,133373,1,0,0:0:0:0:
320,192,133460,1,0,0:0:0:0:
320,192,133546,1,0,0:0:0:0:
64,192,133632,1,0,0:0:0:0:
192,192,133632,1,0,0:0:0:0:
448,192,133690,1,0,0:0:0:0:
64,192,133747,1,0,0:0:0:0:
192,192,133804,1,0,0:0:0:0:
448,192,133862,1,0,0:0:0:0:
64,192,133919,1,0,0:0:0:0:
320,192,133977,1,0,0:0:0:0:
448,192,134034,1,0,0:0:0:0:
192,192,134092,1,0,0:0:0:0:
64,192,134149,1,0,0:0:0:0:
448,192,134207,1,0,0:0:0:0:
320,192,134264,1,0,0:0:0:0:
64,192,134322,1,0,0:0:0:0:
192,192,134322,1,0,0:0:0:0:
448,192,134408,1,0,0:0:0:0:
192,192,134494,1,0,0:0:0:0:
64,192,134537,1,0,0:0:0:0:
448,192,134580,1,0,0:0:0:0:
320,192,134667,1,0,0:0:0:0:
192,192,134667,1,0,0:0:0:0:
64,192,134710,1,0,0:0:0:0:
448,192,134753,1,0,0:0:0:0:
320,192,134839,1,0,0:0:0:0:
64,192,134882,1,0,0:0:0:0:
448,192,134925,1,0,0:0:0:0:
320,192,135011,1,0,0:0:0:0:
192,192,135011,1,0,0:0:0:0:
64,192,135054,1,0,0:0:0:0:
448,192,135098,1,0,0:0:0:0:
192,192,135184,1,0,0:0:0:0:
64,192,135227,1,0,0:0:0:0:
448,192,135270,1,0,0:0:0:0:
320,192,135356,1,0,0:0:0:0:
192,192,135356,1,0,0:0:0:0:
64,192,135399,1,0,0:0:0:0:
448,192,135442,1,0,0:0:0:0:
320,192,135529,1,0,0:0:0:0:
64,192,135572,1,0,0:0:0:0:
448,192,135615,1,0,0:0:0:0:
320,192,135701,1,0,0:0:0:0:
192,192,135701,1,0,0:0:0:0:
64,192,135744,1,0,0:0:0:0:
448,192,135787,1,0,0:0:0:0:
320,192,135873,1,0,0:0:0:0:
64,192,135917,1,0,0:0:0:0:
448,192,135960,1,0,0:0:0:0:
192,192,136046,1,0,0:0:0:0:
320,192,136046,1,0,0:0:0:0:
320,192,136218,1,0,0:0:0:0:
64,192,136218,1,0,0:0:0:0:
448,192,136391,1,0,0:0:0:0:
64,192,136391,1,0,0:0:0:0:
192,192,136391,1,0,0:0:0:0:
320,192,136448,1,0,0:0:0:0:
64,192,136506,1,0,0:0:0:0:
192,192,136563,1,0,0:0:0:0:
448,192,136621,1,0,0:0:0:0:
64,192,136678,1,0,0:0:0:0:
192,192,136736,1,0,0:0:0:0:
448,192,136793,1,0,0:0:0:0:
320,192,136850,1,0,0:0:0:0:
64,192,136908,1,0,0:0:0:0:
448,192,136965,1,0,0:0:0:0:
192,192,137023,1,0,0:0:0:0:
64,192,137080,1,0,0:0:0:0:
320,192,137080,1,0,0:0:0:0:
192,192,137167,1,0,0:0:0:0:
64,192,137253,1,0,0:0:0:0:
448,192,137296,1,0,0:0:0:0:
320,192,137339,1,0,0:0:0:0:
64,192,137425,1,0,0:0:0:0:
192,192,137425,1,0,0:0:0:0:
448,192,137468,1,0,0:0:0:0:
320,192,137511,1,0,0:0:0:0:
192,192,137598,1,0,0:0:0:0:
448,192,137641,1,0,0:0:0:0:
320,192,137684,1,0,0:0:0:0:
64,192,137770,1,0,0:0:0:0:
192,192,137770,1,0,0:0:0:0:
448,192,137813,1,0,0:0:0:0:
320,192,137856,1,0,0:0:0:0:
64,192,137942,1,0,0:0:0:0:
448,192,137986,1,0,0:0:0:0:
320,192,138029,1,0,0:0:0:0:
64,192,138115,1,0,0:0:0:0:
192,192,138115,1,0,0:0:0:0:
448,192,138158,1,0,0:0:0:0:
320,192,138201,1,0,0:0:0:0:
192,192,138287,1,0,0:0:0:0:
448,192,138330,1,0,0:0:0:0:
320,192,138373,1,0,0:0:0:0:
64,192,138460,1,0,0:0:0:0:
192,192,138460,1,0,0:0:0:0:
448,192,138503,1,0,0:0:0:0:
320,192,138546,1,0,0:0:0:0:
64,192,138632,1,0,0:0:0:0:
448,192,138675,1,0,0:0:0:0:
320,192,138718,1,0,0:0:0:0:
64,192,138804,1,0,0:0:0:0:
192,192,138804,1,0,0:0:0:0:
192,192,138977,1,0,0:0:0:0:
448,192,138977,1,0,0:0:0:0:
320,192,139149,1,0,0:0:0:0:
64,192,139149,1,0,0:0:0:0:
448,192,139149,1,0,0:0:0:0:
192,192,139207,1,0,0:0:0:0:
320,192,139264,1,0,0:0:0:0:
64,192,139322,1,0,0:0:0:0:
448,192,139379,1,0,0:0:0:0:
192,192,139437,1,0,0:0:0:0:
320,192,139494,1,0,0:0:0:0:
64,192,139552,1,0,0:0:0:0:
448,192,139609,1,0,0:0:0:0:
192,192,139667,1,0,0:0:0:0:
320,192,139724,1,0,0:0:0:0:
64,192,139781,1,0,0:0:0:0:
448,192,139839,1,0,0:0:0:0:
192,192,139839,1,0,0:0:0:0:
320,192,139925,1,0,0:0:0:0:
448,192,140011,1,0,0:0:0:0:
64,192,140054,1,0,0:0:0:0:
192,192,140098,1,0,0:0:0:0:
448,192,140184,1,0,0:0:0:0:
64,192,140184,1,0,0:0:0:0:
192,192,140227,1,0,0:0:0:0:
320,192,140270,1,0,0:0:0:0:
64,192,140356,1,0,0:0:0:0:
192,192,140399,1,0,0:0:0:0:
320,192,140442,1,0,0:0:0:0:
64,192,140529,1,0,0:0:0:0:
192,192,140529,1,0,0:0:0:0:
320,192,140572,1,0,0:0:0:0:
448,192,140615,1,0,0:0:0:0:
64,192,140701,1,0,0:0:0:0:
320,192,140744,1,0,0:0:0:0:
448,192,140787,1,0,0:0:0:0:
64,192,140873,1,0,0:0:0:0:
192,192,140873,1,0,0:0:0:0:
320,192,140917,1,0,0:0:0:0:
448,192,140960,1,0,0:0:0:0:
192,192,141046,1,0,0:0:0:0:
320,192,141089,1,0,0:0:0:0:
448,192,141132,1,0,0:0:0:0:
320,192,141218,1,0,0:0:0:0:
64,192,141218,1,0,0:0:0:0:
192,192,141261,1,0,0:0:0:0:
448,192,141304,1,0,0:0:0:0:
320,192,141391,1,0,0:0:0:0:
192,192,141434,1,0,0:0:0:0:
64,192,141477,1,0,0:0:0:0:
448,192,141563,1,0,0:0:0:0:
320,192,141563,1,0,0:0:0:0:
192,192,141563,1,0,0:0:0:0:
192,192,141736,1,0,0:0:0:0:
320,192,141736,1,0,0:0:0:0:
448,192,141908,1,0,0:0:0:0:
64,192,141908,1,0,0:0:0:0:
192,192,141908,1,0,0:0:0:0:
320,192,141965,1,0,0:0:0:0:
64,192,142023,1,0,0:0:0:0:
192,192,142080,1,0,0:0:0:0:
320,192,142138,1,0,0:0:0:0:
448,192,142195,1,0,0:0:0:0:
192,192,142253,1,0,0:0:0:0:
64,192,142310,1,0,0:0:0:0:
448,192,142368,1,0,0:0:0:0:
320,192,142425,1,0,0:0:0:0:
192,192,142483,1,0,0:0:0:0:
64,192,142540,1,0,0:0:0:0:
192,192,142598,1,0,0:0:0:0:
448,192,142598,1,0,0:0:0:0:
320,192,142655,1,0,0:0:0:0:
64,192,142713,1,0,0:0:0:0:
448,192,142770,1,0,0:0:0:0:
320,192,142827,1,0,0:0:0:0:
64,192,142885,1,0,0:0:0:0:
448,192,142942,1,0,0:0:0:0:
320,192,143000,1,0,0:0:0:0:
64,192,143057,1,0,0:0:0:0:
320,192,143115,1,0,0:0:0:0:
192,192,143172,1,0,0:0:0:0:
64,192,143230,1,0,0:0:0:0:
320,192,143287,1,0,0:0:0:0:
448,192,143287,1,0,0:0:0:0:
192,192,143287,1,0,0:0:0:0:
448,192,143460,1,0,0:0:0:0:
64,192,143460,1,0,0:0:0:0:
64,192,143632,1,0,0:0:0:0:
320,192,143632,1,0,0:0:0:0:
448,192,143804,1,0,0:0:0:0:
192,192,143804,1,0,0:0:0:0:
64,192,143804,1,0,0:0:0:0:
448,192,143977,1,0,0:0:0:0:
320,192,143977,1,0,0:0:0:0:
192,192,144149,1,0,0:0:0:0:
320,192,144149,1,0,0:0:0:0:
320,192,144437,1,0,0:0:0:0:
64,192,144494,1,0,0:0:0:0:
448,192,144552,1,0,0:0:0:0:
192,192,144609,1,0,0:0:0:0:
320,192,144667,1,0,0:0:0:0:
448,192,144667,1,0,0:0:0:0:
64,192,144724,1,0,0:0:0:0:
192,192,144781,1,0,0:0:0:0:
448,192,144839,1,0,0:0:0:0:
320,192,144896,1,0,0:0:0:0:
64,192,144954,1,0,0:0:0:0:
192,192,145011,1,0,0:0:0:0:
448,192,145069,1,0,0:0:0:0:
320,192,145126,1,0,0:0:0:0:
192,192,145184,1,0,0:0:0:0:
448,192,145241,1,0,0:0:0:0:
320,192,145356,1,0,0:0:0:0:
64,192,145356,1,0,0:0:0:0:
448,192,145399,1,0,0:0:0:0:
192,192,145442,1,0,0:0:0:0:
64,192,145529,1,0,0:0:0:0:
448,192,145572,1,0,0:0:0:0:
192,192,145615,1,0,0:0:0:0:
64,192,145701,1,0,0:0:0:0:
448,192,145744,1,0,0:0:0:0:
320,192,145787,1,0,0:0:0:0:
64,192,145873,1,0,0:0:0:0:
448,192,145917,1,0,0:0:0:0:
320,192,145960,1,0,0:0:0:0:
192,192,146046,1,0,0:0:0:0:
64,192,146046,1,0,0:0:0:0:
448,192,146089,1,0,0:0:0:0:
320,192,146132,1,0,0:0:0:0:
192,192,146218,1,0,0:0:0:0:
448,192,146261,1,0,0:0:0:0:
320,192,146304,1,0,0:0:0:0:
64,192,146391,1,0,0:0:0:0:
448,192,146434,1,0,0:0:0:0:
320,192,146477,1,0,0:0:0:0:
64,192,146563,1,0,0:0:0:0:
448,192,146606,1,0,0:0:0:0:
320,192,146649,1,0,0:0:0:0:
192,192,146736,1,0,0:0:0:0:
64,192,146736,1,0,0:0:0:0:
448,192,146779,1,0,0:0:0:0:
320,192,146822,1,0,0:0:0:0:
448,192,146908,1,0,0:0:0:0:
64,192,146908,1,0,0:0:0:0:
64,192,147080,1,0,0:0:0:0:
320,192,147080,1,0,0:0:0:0:
320,192,147253,1,0,0:0:0:0:
192,192,147253,1,0,0:0:0:0:
192,192,147425,1,0,0:0:0:0:
320,192,147425,1,0,0:0:0:0:
448,192,147425,1,0,0:0:0:0:
64,192,147483,1,0,0:0:0:0:
192,192,147540,1,0,0:0:0:0:
320,192,147598,1,0,0:0:0:0:
64,192,147655,1,0,0:0:0:0:
192,192,147713,1,0,0:0:0:0:
448,192,147770,1,0,0:0:0:0:
320,192,147827,1,0,0:0:0:0:
192,192,147885,1,0,0:0:0:0:
64,192,147942,1,0,0:0:0:0:
448,192,148000,1,0,0:0:0:0:
320,192,148057,1,0,0:0:0:0:
64,192,148115,1,0,0:0:0:0:
192,192,148115,1,0,0:0:0:0:
448,192,148201,1,0,0:0:0:0:
192,192,148244,1,0,0:0:0:0:
64,192,148287,1,0,0:0:0:0:
448,192,148373,1,0,0:0:0:0:
192,192,148417,1,0,0:0:0:0:
64,192,148460,1,0,0:0:0:0:
448,192,148546,1,0,0:0:0:0:
320,192,148589,1,0,0:0:0:0:
64,192,148632,1,0,0:0:0:0:
448,192,148718,1,0,0:0:0:0:
320,192,148761,1,0,0:0:0:0:
64,192,148804,1,0,0:0:0:0:
192,192,148804,1,0,0:0:0:0:
448,192,148891,1,0,0:0:0:0:
320,192,148934,1,0,0:0:0:0:
192,192,148977,1,0,0:0:0:0:
448,192,149063,1,0,0:0:0:0:
320,192,149106,1,0,0:0:0:0:
192,192,149149,1,0,0:0:0:0:
320,192,149236,1,0,0:0:0:0:
192,192,149279,1,0,0:0:0:0:
64,192,149322,1,0,0:0:0:0:
320,192,149408,1,0,0:0:0:0:
192,192,149451,1,0,0:0:0:0:
64,192,149494,1,0,0:0:0:0:
448,192,149494,1,0,0:0:0:0:
192,192,149667,1,0,0:0:0:0:
448,192,149667,1,0,0:0:0:0:
192,192,149839,1,0,0:0:0:0:
320,192,149839,1,0,0:0:0:0:
320,192,150011,1,0,0:0:0:0:
64,192,150011,1,0,0:0:0:0:
320,192,150184,1,0,0:0:0:0:
64,192,150184,1,0,0:0:0:0:
448,192,150184,1,0,0:0:0:0:
192,192,150241,1,0,0:0:0:0:
320,192,150299,1,0,0:0:0:0:
64,192,150356,1,0,0:0:0:0:
448,192,150414,1,0,0:0:0:0:
192,192,150471,1,0,0:0:0:0:
320,192,150529,1,0,0:0:0:0:
64,192,150586,1,0,0:0:0:0:
448,192,150644,1,0,0:0:0:0:
192,192,150701,1,0,0:0:0:0:
320,192,150758,1,0,0:0:0:0:
64,192,150816,1,0,0:0:0:0:
448,192,150873,1,0,0:0:0:0:
192,192,150873,1,0,0:0:0:0:
320,192,150960,1,0,0:0:0:0:
64,192,151003,1,0,0:0:0:0:
192,192,151046,1,0,0:0:0:0:
320,192,151132,1,0,0:0:0:0:
64,192,151175,1,0,0:0:0:0:
192,192,151218,1,0,0:0:0:0:
320,192,151304,1,0,0:0:0:0:
64,192,151348,1,0,0:0:0:0:
448,192,151391,1,0,0:0:0:0:
320,192,151477,1,0,0:0:0:0:
64,192,151520,1,0,0:0:0:0:
192,192,151563,1,0,0:0:0:0:
448,192,151563,1,0,0:0:0:0:
320,192,151649,1,0,0:0:0:0:
192,192,151692,1,0,0:0:0:0:
64,192,151736,1,0,0:0:0:0:
320,192,151822,1,0,0:0:0:0:
192,192,151865,1,0,0:0:0:0:
64,192,151908,1,0,0:0:0:0:
448,192,151994,1,0,0:0:0:0:
320,192,152037,1,0,0:0:0:0:
192,192,152080,1,0,0:0:0:0:
448,192,152167,1,0,0:0:0:0:
320,192,152210,1,0,0:0:0:0:
192,192,152253,1,0,0:0:0:0:
64,192,152253,1,0,0:0:0:0:
448,192,152425,1,0,0:0:0:0:
64,192,152425,1,0,0:0:0:0:
448,192,152598,1,0,0:0:0:0:
320,192,152598,1,0,0:0:0:0:
192,192,152770,1,0,0:0:0:0:
320,192,152770,1,0,0:0:0:0:
448,192,152942,1,0,0:0:0:0:
64,192,152942,1,0,0:0:0:0:
192,192,152942,1,0,0:0:0:0:
320,192,153000,1,0,0:0:0:0:
64,192,153057,1,0,0:0:0:0:
192,192,153115,1,0,0:0:0:0:
320,192,153172,1,0,0:0:0:0:
448,192,153230,1,0,0:0:0:0:
192,192,153287,1,0,0:0:0:0:
64,192,153345,1,0,0:0:0:0:
448,192,153402,1,0,0:0:0:0:
320,192,153460,1,0,0:0:0:0:
192,192,153517,1,0,0:0:0:0:
64,192,153575,1,0,0:0:0:0:
192,192,153632,1,0,0:0:0:0:
448,192,153632,1,0,0:0:0:0:
320,192,153690,1,0,0:0:0:0:
64,192,153747,1,0,0:0:0:0:
448,192,153804,1,0,0:0:0:0:
320,192,153862,1,0,0:0:0:0:
64,192,153919,1,0,0:0:0:0:
448,192,153977,1,0,0:0:0:0:
320,192,154034,1,0,0:0:0:0:
64,192,154092,1,0,0:0:0:0:
320,192,154149,1,0,0:0:0:0:
192,192,154207,1,0,0:0:0:0:
64,192,154264,1,0,0:0:0:0:
320,192,154322,1,0,0:0:0:0:
448,192,154322,1,0,0:0:0:0:
192,192,154379,1,0,0:0:0:0:
320,192,154437,1,0,0:0:0:0:
448,192,154494,1,0,0:0:0:0:
192,192,154552,1,0,0:0:0:0:
320,192,154609,1,0,0:0:0:0:
64,192,154667,1,0,0:0:0:0:
192,192,154724,1,0,0:0:0:0:
320,192,154781,1,0,0:0:0:0:
448,192,154839,1,0,0:0:0:0:
64,192,154896,1,0,0:0:0:0:
192,192,154954,1,0,0:0:0:0:
448,192,155011,1,0,0:0:0:0:
320,192,155011,1,0,0:0:0:0:
64,192,155069,1,0,0:0:0:0:
448,192,155126,1,0,0:0:0:0:
192,192,155184,1,0,0:0:0:0:
320,192,155241,1,0,0:0:0:0:
64,192,155299,1,0,0:0:0:0:
448,192,155356,1,0,0:0:0:0:
192,192,155414,1,0,0:0:0:0:
320,192,155471,1,0,0:0:0:0:
64,192,155529,1,0,0:0:0:0:
448,192,155586,1,0,0:0:0:0:
192,192,155644,1,0,0:0:0:0:
320,192,155701,1,0,0:0:0:0:
448,192,155701,1,0,0:0:0:0:
64,192,155758,1,0,0:0:0:0:
192,192,155816,1,0,0:0:0:0:
448,192,155873,1,0,0:0:0:0:
64,192,155931,1,0,0:0:0:0:
320,192,155988,1,0,0:0:0:0:
448,192,156046,1,0,0:0:0:0:
64,192,156103,1,0,0:0:0:0:
448,192,156161,1,0,0:0:0:0:
64,192,156218,1,0,0:0:0:0:
448,192,156276,1,0,0:0:0:0:
64,192,156333,1,0,0:0:0:0:
320,192,156391,1,0,0:0:0:0:
192,192,156391,1,0,0:0:0:0:
448,192,156736,1,0,0:0:0:0:
320,192,156793,1,0,0:0:0:0:
192,192,156850,1,0,0:0:0:0:
64,192,156908,1,0,0:0:0:0:
448,192,156965,1,0,0:0:0:0:
320,192,157023,1,0,0:0:0:0:
64,192,157080,1,0,0:0:0:0:
192,192,157080,1,0,0:0:0:0:
448,192,157138,1,0,0:0:0:0:
64,192,157195,1,0,0:0:0:0:
192,192,157253,1,0,0:0:0:0:
320,192,157310,1,0,0:0:0:0:
448,192,157368,1,0,0:0:0:0:
64,192,157425,1,0,0:0:0:0:
192,192,157483,1,0,0:0:0:0:
320,192,157540,1,0,0:0:0:0:
448,192,157598,1,0,0:0:0:0:
64,192,157655,1,0,0:0:0:0:
192,192,157713,1,0,0:0:0:0:
320,192,157770,1,0,0:0:0:0:
448,192,157770,1,0,0:0:0:0:
64,192,157827,1,0,0:0:0:0:
320,192,157885,1,0,0:0:0:0:
192,192,157942,1,0,0:0:0:0:
448,192,158000,1,0,0:0:0:0:
64,192,158057,1,0,0:0:0:0:
320,192,158115,1,0,0:0:0:0:
192,192,158172,1,0,0:0:0:0:
448,192,158230,1,0,0:0:0:0:
64,192,158287,1,0,0:0:0:0:
320,192,158345,1,0,0:0:0:0:
192,192,158402,1,0,0:0:0:0:
448,192,158460,1,0,0:0:0:0:
64,192,158460,1,0,0:0:0:0:
320,192,158517,1,0,0:0:0:0:
192,192,158575,1,0,0:0:0:0:
64,192,158632,1,0,0:0:0:0:
448,192,158690,1,0,0:0:0:0:
320,192,158747,1,0,0:0:0:0:
192,192,158804,1,0,0:0:0:0:
64,192,158862,1,0,0:0:0:0:
448,192,158919,1,0,0:0:0:0:
320,192,158977,1,0,0:0:0:0:
192,192,159034,1,0,0:0:0:0:
64,192,159092,1,0,0:0:0:0:
320,192,159149,1,0,0:0:0:0:
448,192,159149,1,0,0:0:0:0:
192,192,159494,1,0,0:0:0:0:
320,192,159580,1,0,0:0:0:0:
192,192,159667,1,0,0:0:0:0:
320,192,159753,1,0,0:0:0:0:
64,192,159839,1,0,0:0:0:0:
192,192,159839,1,0,0:0:0:0:
448,192,159925,1,0,0:0:0:0:
64,192,160011,1,0,0:0:0:0:
448,192,160098,1,0,0:0:0:0:
64,192,160184,1,0,0:0:0:0:
448,192,160270,1,0,0:0:0:0:
64,192,160356,1,0,0:0:0:0:
448,192,160442,1,0,0:0:0:0:
192,192,160529,1,0,0:0:0:0:
64,192,160529,1,0,0:0:0:0:
320,192,160529,1,0,0:0:0:0:
448,192,160615,1,0,0:0:0:0:
192,192,160701,1,0,0:0:0:0:
320,192,160787,1,0,0:0:0:0:
192,192,160873,1,0,0:0:0:0:
320,192,160960,1,0,0:0:0:0:
192,192,161046,1,0,0:0:0:0:
320,192,161132,1,0,0:0:0:0:
64,192,161218,1,0,0:0:0:0:
448,192,161218,1,0,0:0:0:0:
192,192,161276,1,0,0:0:0:0:
320,192,161333,1,0,0:0:0:0:
448,192,161391,1,0,0:0:0:0:
64,192,161448,1,0,0:0:0:0:
192,192,161506,1,0,0:0:0:0:
448,192,161563,1,0,0:0:0:0:
192,192,161621,1,0,0:0:0:0:
320,192,161678,1,0,0:0:0:0:
64,192,161736,1,0,0:0:0:0:
448,192,161793,1,0,0:0:0:0:
192,192,161850,1,0,0:0:0:0:
320,192,161908,1,0,0:0:0:0:
64,192,161908,1,0,0:0:0:0:
448,192,161965,1,0,0:0:0:0:
192,192,162023,1,0,0:0:0:0:
320,192,162080,1,0,0:0:0:0:
64,192,162138,1,0,0:0:0:0:
192,192,162195,1,0,0:0:0:0:
448,192,162253,1,0,0:0:0:0:
320,192,162310,1,0,0:0:0:0:
192,192,162368,1,0,0:0:0:0:
64,192,162425,1,0,0:0:0:0:
448,192,162483,1,0,0:0:0:0:
320,192,162540,1,0,0:0:0:0:
64,192,162598,1,0,0:0:0:0:
192,192,162598,1,0,0:0:0:0:
448,192,162655,1,0,0:0:0:0:
64,192,162713,1,0,0:0:0:0:
320,192,162770,1,0,0:0:0:0:
192,192,162827,1,0,0:0:0:0:
448,192,162885,1,0,0:0:0:0:
64,192,162942,1,0,0:0:0:0:
320,192,163000,1,0,0:0:0:0:
192,192,163057,1,0,0:0:0:0:
448,192,163115,1,0,0:0:0:0:
64,192,163172,1,0,0:0:0:0:
320,192,163230,1,0,0:0:0:0:
192,192,163287,1,0,0:0:0:0:
448,192,163287,1,0,0:0:0:0:
64,192,163345,1,0,0:0:0:0:
320,192,163402,1,0,0:0:0:0:
448,192,163460,1,0,0:0:0:0:
64,192,163517,1,0,0:0:0:0:
192,192,163575,1,0,0:0:0:0:
320,192,163632,1,0,0:0:0:0:
448,192,163690,1,0,0:0:0:0:
64,192,163747,1,0,0:0:0:0:
192,192,163804,1,0,0:0:0:0:
320,192,163862,1,0,0:0:0:0:
448,192,163919,1,0,0:0:0:0:
192,192,163977,1,0,0:0:0:0:
64,192,163977,1,0,0:0:0:0:
320,192,164034,1,0,0:0:0:0:
192,192,164092,1,0,0:0:0:0:
64,192,164149,1,0,0:0:0:0:
448,192,164207,1,0,0:0:0:0:
320,192,164264,1,0,0:0:0:0:
192,192,164322,1,0,0:0:0:0:
64,192,164379,1,0,0:0:0:0:
448,192,164437,1,0,0:0:0:0:
320,192,164494,1,0,0:0:0:0:
192,192,164552,1,0,0:0:0:0:
64,192,164609,1,0,0:0:0:0:
320,192,164667,1,0,0:0:0:0:
448,192,164667,1,0,0:0:0:0:
64,192,165356,1,0,0:0:0:0:
192,192,165356,1,0,0:0:0:0:
448,192,165442,1,0,0:0:0:0:
64,192,165529,1,0,0:0:0:0:
448,192,165615,1,0,0:0:0:0:
64,192,165701,1,0,0:0:0:0:
448,192,165787,1,0,0:0:0:0:
64,192,165873,1,0,0:0:0:0:
448,192,165960,1,0,0:0:0:0:
192,192,166046,1,0,0:0:0:0:
64,192,166046,1,0,0:0:0:0:
320,192,166046,1,0,0:0:0:0:
448,192,166103,1,0,0:0:0:0:
64,192,166161,1,0,0:0:0:0:
192,192,166218,1,0,0:0:0:0:
320,192,166276,1,0,0:0:0:0:
448,192,166333,1,0,0:0:0:0:
64,192,166391,1,0,0:0:0:0:
192,192,166448,1,0,0:0:0:0:
320,192,166506,1,0,0:0:0:0:
448,192,166563,1,0,0:0:0:0:
64,192,166621,1,0,0:0:0:0:
192,192,166678,1,0,0:0:0:0:
320,192,166736,1,0,0:0:0:0:
448,192,166736,1,0,0:0:0:0:
