osu file format v14

[General]
AudioFilename: audio.mp3
AudioLeadIn: 0
PreviewTime: -1
Countdown: 0
SampleSet: Normal
StackLeniency: 0.7
Mode: 3
LetterboxInBreaks: 0
SpecialStyle: 0
WidescreenStoryboard: 1

[Editor]
DistanceSpacing: 0.8
BeatDivisor: 16
GridSize: 32
TimelineZoom: 2

[Metadata]
Title:Gunslinga (feat. MC Mota)
TitleUnicode:Gunslinga (feat. MC Mota)
Artist:Pegboard Nerds
ArtistUnicode:Pegboard Nerds
Creator:SitekX
Version:Fuck, no ammo
Source:
Tags:tech technical hybrid ln jack speed sv reading haha
BeatmapID:2029224
BeatmapSetID:969948

[Difficulty]
HPDrainRate:8
CircleSize:4
OverallDifficulty:8
ApproachRate:5
SliderMultiplier:1.4
SliderTickRate:1

[Events]
//Background and Video events
0,0,"maxresdefault.jpg",0,0
//Break Periods
2,84091,96570
//Storyboard Layer 0 (Background)
//Storyboard Layer 1 (Fail)
//Storyboard Layer 2 (Pass)
//Storyboard Layer 3 (Foreground)
//Storyboard Sound Samples

[TimingPoints]
6736,344.827586206897,4,1,0,100,1,0

[HitObjects]
448,192,6736,5,0,0:0:0:0:
64,192,6736,128,0,8115:0:0:0:0:
448,192,8460,1,0,0:0:0:0:
64,192,8804,1,0,0:0:0:0:
448,192,9149,1,0,0:0:0:0:
192,192,9494,1,0,0:0:0:0:
320,192,9494,1,0,0:0:0:0:
64,192,9839,1,0,0:0:0:0:
448,192,10184,1,0,0:0:0:0:
64,192,10529,1,0,0:0:0:0:
320,192,10873,1,0,0:0:0:0:
64,192,11218,1,0,0:0:0:0:
448,192,11563,1,0,0:0:0:0:
64,192,11736,1,0,0:0:0:0:
192,192,11908,1,0,0:0:0:0:
320,192,12080,1,0,0:0:0:0:
448,192,12253,1,0,0:0:0:0:
64,192,12253,128,0,13632:0:0:0:0:
192,192,12253,1,0,0:0:0:0:
320,192,13977,1,0,0:0:0:0:
64,192,14322,1,0,0:0:0:0:
320,192,14667,1,0,0:0:0:0:
64,192,15011,1,0,0:0:0:0:
448,192,15011,1,0,0:0:0:0:
192,192,15356,1,0,0:0:0:0:
64,192,15529,1,0,0:0:0:0:
448,192,15529,1,0,0:0:0:0:
320,192,15701,1,0,0:0:0:0:
192,192,15873,1,0,0:0:0:0:
320,192,16046,1,0,0:0:0:0:
448,192,16103,1,0,0:0:0:0:
64,192,16276,1,0,0:0:0:0:
192,192,16333,1,0,0:0:0:0:
320,192,16506,1,0,0:0:0:0:
448,192,16563,1,0,0:0:0:0:
192,192,16736,1,0,0:0:0:0:
64,192,16908,1,0,0:0:0:0:
320,192,16908,1,0,0:0:0:0:
192,192,17080,1,0,0:0:0:0:
192,192,17770,1,0,0:0:0:0:
448,192,17770,1,0,0:0:0:0:
64,192,17770,1,0,0:0:0:0:
64,192,17942,1,0,0:0:0:0:
64,192,18115,1,0,0:0:0:0:
448,192,18115,1,0,0:0:0:0:
64,192,18287,1,0,0:0:0:0:
64,192,18460,1,0,0:0:0:0:
320,192,18460,1,0,0:0:0:0:
192,192,18804,1,0,0:0:0:0:
64,192,19149,1,0,0:0:0:0:
320,192,19322,1,0,0:0:0:0:
320,192,19494,1,0,0:0:0:0:
192,192,19494,1,0,0:0:0:0:
64,192,19839,1,0,0:0:0:0:
448,192,19839,1,0,0:0:0:0:
192,192,20011,1,0,0:0:0:0:
192,192,20184,1,0,0:0:0:0:
320,192,20184,1,0,0:0:0:0:
192,192,20356,1,0,0:0:0:0:
64,192,20529,1,0,0:0:0:0:
320,192,20529,1,0,0:0:0:0:
448,192,20529,1,0,0:0:0:0:
320,192,20701,1,0,0:0:0:0:
320,192,20873,1,0,0:0:0:0:
64,192,20873,1,0,0:0:0:0:
320,192,21046,1,0,0:0:0:0:
320,192,21218,1,0,0:0:0:0:
192,192,21218,1,0,0:0:0:0:
64,192,21563,1,0,0:0:0:0:
320,192,21908,1,0,0:0:0:0:
64,192,22253,1,0,0:0:0:0:
192,192,22425,1,0,0:0:0:0:
320,192,22598,1,0,0:0:0:0:
448,192,22598,1,0,0:0:0:0:
320,192,22770,1,0,0:0:0:0:
320,192,22942,1,0,0:0:0:0:
192,192,22942,1,0,0:0:0:0:
320,192,23115,1,0,0:0:0:0:
192,192,23287,1,0,0:0:0:0:
448,192,23287,1,0,0:0:0:0:
64,192,23287,1,0,0:0:0:0:
64,192,23460,1,0,0:0:0:0:
64,192,23632,1,0,0:0:0:0:
320,192,23632,1,0,0:0:0:0:
64,192,23804,1,0,0:0:0:0:
64,192,23977,1,0,0:0:0:0:
448,192,23977,1,0,0:0:0:0:
192,192,24322,1,0,0:0:0:0:
64,192,24667,1,0,0:0:0:0:
320,192,24839,1,0,0:0:0:0:
320,192,25011,1,0,0:0:0:0:
64,192,25011,1,0,0:0:0:0:
192,192,25356,1,0,0:0:0:0:
448,192,25356,1,0,0:0:0:0:
64,192,25529,1,0,0:0:0:0:
64,192,25701,1,0,0:0:0:0:
320,192,25701,1,0,0:0:0:0:
64,192,25873,1,0,0:0:0:0:
192,192,26046,1,0,0:0:0:0:
320,192,26046,1,0,0:0:0:0:
448,192,26046,1,0,0:0:0:0:
320,192,26218,1,0,0:0:0:0:
320,192,26391,1,0,0:0:0:0:
64,192,26391,1,0,0:0:0:0:
320,192,26563,1,0,0:0:0:0:
320,192,26736,1,0,0:0:0:0:
192,192,26736,1,0,0:0:0:0:
64,192,27080,1,0,0:0:0:0:
320,192,27425,1,0,0:0:0:0:
64,192,27770,1,0,0:0:0:0:
192,192,27942,1,0,0:0:0:0:
448,192,28115,1,0,0:0:0:0:
320,192,28115,1,0,0:0:0:0:
448,192,28287,1,0,0:0:0:0:
448,192,28460,1,0,0:0:0:0:
64,192,28460,1,0,0:0:0:0:
448,192,28632,1,0,0:0:0:0:
64,192,28804,1,0,0:0:0:0:
320,192,28804,1,0,0:0:0:0:
192,192,28804,1,0,0:0:0:0:
64,192,28977,1,0,0:0:0:0:
64,192,29149,1,0,0:0:0:0:
320,192,29149,1,0,0:0:0:0:
64,192,29322,1,0,0:0:0:0:
448,192,29494,1,0,0:0:0:0:
64,192,29494,1,0,0:0:0:0:
320,192,29839,1,0,0:0:0:0:
64,192,30184,1,0,0:0:0:0:
192,192,30356,1,0,0:0:0:0:
192,192,30529,1,0,0:0:0:0:
320,192,30529,1,0,0:0:0:0:
448,192,30873,1,0,0:0:0:0:
64,192,30873,1,0,0:0:0:0:
64,192,31046,1,0,0:0:0:0:
64,192,31218,1,0,0:0:0:0:
320,192,31218,1,0,0:0:0:0:
64,192,31391,1,0,0:0:0:0:
448,192,31563,1,0,0:0:0:0:
320,192,31563,1,0,0:0:0:0:
192,192,31563,1,0,0:0:0:0:
448,192,31736,1,0,0:0:0:0:
448,192,31908,1,0,0:0:0:0:
192,192,31908,1,0,0:0:0:0:
448,192,32080,1,0,0:0:0:0:
64,192,32253,1,0,0:0:0:0:
448,192,32253,1,0,0:0:0:0:
192,192,32598,1,0,0:0:0:0:
448,192,32942,1,0,0:0:0:0:
64,192,33287,1,0,0:0:0:0:
192,192,33460,1,0,0:0:0:0:
448,192,33632,1,0,0:0:0:0:
320,192,33632,1,0,0:0:0:0:
448,192,33804,1,0,0:0:0:0:
192,192,33977,1,0,0:0:0:0:
320,192,34020,128,0,34322:0:0:0:0:
192,192,34322,1,0,0:0:0:0:
448,192,34322,1,0,0:0:0:0:
64,192,34322,1,0,0:0:0:0:
64,192,34494,1,0,0:0:0:0:
64,192,34667,1,0,0:0:0:0:
320,192,34667,1,0,0:0:0:0:
64,192,34839,1,0,0:0:0:0:
64,192,35011,1,0,0:0:0:0:
448,192,35011,1,0,0:0:0:0:
320,192,35356,1,0,0:0:0:0:
192,192,35701,1,0,0:0:0:0:
64,192,35873,1,0,0:0:0:0:
64,192,36046,1,0,0:0:0:0:
320,192,36046,1,0,0:0:0:0:
192,192,36391,1,0,0:0:0:0:
448,192,36391,1,0,0:0:0:0:
64,192,36563,1,0,0:0:0:0:
64,192,36736,1,0,0:0:0:0:
320,192,36736,1,0,0:0:0:0:
64,192,36908,1,0,0:0:0:0:
320,192,37080,1,0,0:0:0:0:
448,192,37080,1,0,0:0:0:0:
192,192,37080,128,0,37425:0:0:0:0:
448,192,37253,1,0,0:0:0:0:
320,192,37425,128,0,37770:0:0:0:0:
448,192,37425,1,0,0:0:0:0:
64,192,37425,1,0,0:0:0:0:
64,192,37598,1,0,0:0:0:0:
448,192,37770,1,0,0:0:0:0:
64,192,37770,1,0,0:0:0:0:
192,192,37770,1,0,0:0:0:0:
320,192,38115,1,0,0:0:0:0:
448,192,38460,1,0,0:0:0:0:
64,192,38804,1,0,0:0:0:0:
192,192,38977,1,0,0:0:0:0:
320,192,39149,1,0,0:0:0:0:
448,192,39149,1,0,0:0:0:0:
64,192,39207,1,0,0:0:0:0:
192,192,39264,1,0,0:0:0:0:
448,192,39322,1,0,0:0:0:0:
320,192,39379,1,0,0:0:0:0:
64,192,39437,1,0,0:0:0:0:
192,192,39494,1,0,0:0:0:0:
448,192,39552,1,0,0:0:0:0:
320,192,39609,1,0,0:0:0:0:
64,192,39667,1,0,0:0:0:0:
192,192,39724,1,0,0:0:0:0:
448,192,39781,1,0,0:0:0:0:
64,192,39839,1,0,0:0:0:0:
320,192,39839,1,0,0:0:0:0:
192,192,39925,1,0,0:0:0:0:
64,192,40011,1,0,0:0:0:0:
192,192,40184,1,0,0:0:0:0:
448,192,40184,1,0,0:0:0:0:
320,192,40270,1,0,0:0:0:0:
448,192,40356,1,0,0:0:0:0:
192,192,40529,1,0,0:0:0:0:
320,192,40529,1,0,0:0:0:0:
448,192,40615,1,0,0:0:0:0:
192,192,40701,1,0,0:0:0:0:
320,192,40873,1,0,0:0:0:0:
64,192,40873,1,0,0:0:0:0:
192,192,40960,1,0,0:0:0:0:
320,192,41046,1,0,0:0:0:0:
448,192,41218,1,0,0:0:0:0:
64,192,41218,1,0,0:0:0:0:
320,192,41304,1,0,0:0:0:0:
64,192,41391,1,0,0:0:0:0:
320,192,41563,1,0,0:0:0:0:
448,192,41563,1,0,0:0:0:0:
64,192,41649,1,0,0:0:0:0:
448,192,41736,1,0,0:0:0:0:
192,192,41908,1,0,0:0:0:0:
320,192,41908,1,0,0:0:0:0:
448,192,41994,1,0,0:0:0:0:
192,192,42080,1,0,0:0:0:0:
64,192,42253,1,0,0:0:0:0:
320,192,42253,1,0,0:0:0:0:
320,192,42425,1,0,0:0:0:0:
192,192,42425,1,0,0:0:0:0:
192,192,42598,1,0,0:0:0:0:
448,192,42598,1,0,0:0:0:0:
64,192,42684,1,0,0:0:0:0:
448,192,42770,1,0,0:0:0:0:
64,192,42942,1,0,0:0:0:0:
320,192,42942,1,0,0:0:0:0:
192,192,43029,1,0,0:0:0:0:
64,192,43115,1,0,0:0:0:0:
448,192,43287,1,0,0:0:0:0:
192,192,43287,1,0,0:0:0:0:
320,192,43373,1,0,0:0:0:0:
448,192,43460,1,0,0:0:0:0:
192,192,43632,1,0,0:0:0:0:
320,192,43632,1,0,0:0:0:0:
448,192,43718,1,0,0:0:0:0:
192,192,43804,1,0,0:0:0:0:
320,192,43977,1,0,0:0:0:0:
64,192,43977,1,0,0:0:0:0:
192,192,44063,1,0,0:0:0:0:
320,192,44149,1,0,0:0:0:0:
192,192,44322,1,0,0:0:0:0:
448,192,44322,1,0,0:0:0:0:
320,192,44408,1,0,0:0:0:0:
192,192,44494,1,0,0:0:0:0:
64,192,44667,1,0,0:0:0:0:
448,192,44667,1,0,0:0:0:0:
320,192,44753,1,0,0:0:0:0:
64,192,44839,1,0,0:0:0:0:
192,192,45011,1,0,0:0:0:0:
320,192,45011,1,0,0:0:0:0:
64,192,45098,1,0,0:0:0:0:
320,192,45184,1,0,0:0:0:0:
192,192,45356,1,0,0:0:0:0:
448,192,45356,1,0,0:0:0:0:
64,192,45529,1,0,0:0:0:0:
448,192,45529,1,0,0:0:0:0:
64,192,45701,1,0,0:0:0:0:
320,192,45701,1,0,0:0:0:0:
192,192,45873,1,0,0:0:0:0:
320,192,45873,1,0,0:0:0:0:
192,192,46046,1,0,0:0:0:0:
448,192,46046,1,0,0:0:0:0:
64,192,46218,1,0,0:0:0:0:
448,192,46218,1,0,0:0:0:0:
64,192,46391,1,0,0:0:0:0:
320,192,46391,1,0,0:0:0:0:
192,192,46563,1,0,0:0:0:0:
320,192,46563,1,0,0:0:0:0:
192,192,46736,1,0,0:0:0:0:
448,192,46736,1,0,0:0:0:0:
448,192,46908,1,0,0:0:0:0:
320,192,46908,1,0,0:0:0:0:
64,192,47080,1,0,0:0:0:0:
320,192,47080,1,0,0:0:0:0:
64,192,47253,1,0,0:0:0:0:
192,192,47253,1,0,0:0:0:0:
192,192,47425,1,0,0:0:0:0:
448,192,47425,1,0,0:0:0:0:
448,192,47598,1,0,0:0:0:0:
320,192,47598,1,0,0:0:0:0:
320,192,47770,1,0,0:0:0:0:
64,192,47770,1,0,0:0:0:0:
192,192,47942,1,0,0:0:0:0:
64,192,47942,1,0,0:0:0:0:
192,192,48115,1,0,0:0:0:0:
320,192,48115,1,0,0:0:0:0:
448,192,48201,1,0,0:0:0:0:
192,192,48287,1,0,0:0:0:0:
64,192,48287,1,0,0:0:0:0:
320,192,48373,1,0,0:0:0:0:
448,192,48460,1,0,0:0:0:0:
64,192,48460,1,0,0:0:0:0:
192,192,48546,1,0,0:0:0:0:
320,192,48632,1,0,0:0:0:0:
448,192,48632,1,0,0:0:0:0:
64,192,48718,1,0,0:0:0:0:
320,192,48804,1,0,0:0:0:0:
192,192,48804,1,0,0:0:0:0:
320,192,50529,1,0,0:0:0:0:
192,192,50572,128,0,50873:0:0:0:0:
64,192,50873,1,0,0:0:0:0:
320,192,50931,1,0,0:0:0:0:
448,192,50988,1,0,0:0:0:0:
64,192,51046,1,0,0:0:0:0:
192,192,51103,1,0,0:0:0:0:
448,192,51161,1,0,0:0:0:0:
64,192,51218,1,0,0:0:0:0:
320,192,51276,1,0,0:0:0:0:
448,192,51333,1,0,0:0:0:0:
64,192,51391,1,0,0:0:0:0:
192,192,51448,1,0,0:0:0:0:
448,192,51506,1,0,0:0:0:0:
64,192,51563,1,0,0:0:0:0:
320,192,51563,1,0,0:0:0:0:
448,192,51649,1,0,0:0:0:0:
192,192,51736,128,0,51822:0:0:0:0:
448,192,51822,1,0,0:0:0:0:
192,192,51908,128,0,51994:0:0:0:0:
448,192,51994,1,0,0:0:0:0:
192,192,52080,128,0,52167:0:0:0:0:
448,192,52167,1,0,0:0:0:0:
192,192,52253,128,0,52339:0:0:0:0:
320,192,52253,1,0,0:0:0:0:
448,192,52339,1,0,0:0:0:0:
192,192,52425,128,0,52511:0:0:0:0:
448,192,52511,1,0,0:0:0:0:
192,192,52598,128,0,52684:0:0:0:0:
448,192,52684,1,0,0:0:0:0:
192,192,52770,128,0,52856:0:0:0:0:
448,192,52856,1,0,0:0:0:0:
192,192,52942,128,0,53029:0:0:0:0:
64,192,52942,1,0,0:0:0:0:
448,192,53029,1,0,0:0:0:0:
192,192,53115,128,0,53201:0:0:0:0:
448,192,53201,1,0,0:0:0:0:
64,192,53287,128,0,53546:0:0:0:0:
320,192,53287,128,0,53460:0:0:0:0:
192,192,53460,128,0,53632:0:0:0:0:
448,192,53632,1,0,0:0:0:0:
64,192,53632,1,0,0:0:0:0:
320,192,53690,1,0,0:0:0:0:
192,192,53747,1,0,0:0:0:0:
64,192,53804,1,0,0:0:0:0:
320,192,53862,1,0,0:0:0:0:
448,192,53919,1,0,0:0:0:0:
64,192,53977,128,0,54063:0:0:0:0:
320,192,54063,1,0,0:0:0:0:
64,192,54149,128,0,54236:0:0:0:0:
320,192,54236,1,0,0:0:0:0:
64,192,54322,128,0,54408:0:0:0:0:
192,192,54322,1,0,0:0:0:0:
320,192,54408,1,0,0:0:0:0:
64,192,54494,128,0,54580:0:0:0:0:
320,192,54580,1,0,0:0:0:0:
64,192,54667,128,0,54753:0:0:0:0:
320,192,54753,1,0,0:0:0:0:
64,192,54839,128,0,54925:0:0:0:0:
320,192,54925,1,0,0:0:0:0:
64,192,55011,128,0,55098:0:0:0:0:
448,192,55011,1,0,0:0:0:0:
320,192,55098,1,0,0:0:0:0:
64,192,55184,128,0,55270:0:0:0:0:
320,192,55270,1,0,0:0:0:0:
64,192,55356,128,0,55442:0:0:0:0:
320,192,55442,1,0,0:0:0:0:
64,192,55529,128,0,55615:0:0:0:0:
320,192,55615,1,0,0:0:0:0:
64,192,55701,128,0,55787:0:0:0:0:
192,192,55701,1,0,0:0:0:0:
320,192,55787,1,0,0:0:0:0:
64,192,55873,128,0,55960:0:0:0:0:
320,192,55960,1,0,0:0:0:0:
192,192,56046,128,0,56304:0:0:0:0:
448,192,56046,128,0,56218:0:0:0:0:
64,192,56218,128,0,56304:0:0:0:0:
64,192,56391,1,0,0:0:0:0:
320,192,56391,1,0,0:0:0:0:
448,192,56448,1,0,0:0:0:0:
192,192,56506,1,0,0:0:0:0:
320,192,56563,1,0,0:0:0:0:
448,192,56621,1,0,0:0:0:0:
64,192,56678,1,0,0:0:0:0:
320,192,56736,1,0,0:0:0:0:
448,192,56793,1,0,0:0:0:0:
64,192,56850,1,0,0:0:0:0:
192,192,56908,1,0,0:0:0:0:
448,192,56965,1,0,0:0:0:0:
64,192,57023,1,0,0:0:0:0:
192,192,57080,1,0,0:0:0:0:
320,192,57080,128,0,57167:0:0:0:0:
64,192,57167,1,0,0:0:0:0:
320,192,57253,128,0,57339:0:0:0:0:
64,192,57339,1,0,0:0:0:0:
320,192,57425,128,0,57511:0:0:0:0:
64,192,57511,1,0,0:0:0:0:
320,192,57598,128,0,57684:0:0:0:0:
64,192,57684,1,0,0:0:0:0:
192,192,57770,1,0,0:0:0:0:
448,192,57770,128,0,57856:0:0:0:0:
64,192,57856,1,0,0:0:0:0:
448,192,57942,128,0,58029:0:0:0:0:
192,192,58029,1,0,0:0:0:0:
448,192,58115,128,0,58201:0:0:0:0:
192,192,58201,1,0,0:0:0:0:
448,192,58287,128,0,58373:0:0:0:0:
192,192,58373,1,0,0:0:0:0:
64,192,58460,1,0,0:0:0:0:
448,192,58460,128,0,58546:0:0:0:0:
192,192,58546,1,0,0:0:0:0:
448,192,58632,128,0,58718:0:0:0:0:
192,192,58718,1,0,0:0:0:0:
320,192,58804,128,0,58977:0:0:0:0:
64,192,58804,128,0,59063:0:0:0:0:
192,192,58977,128,0,59149:0:0:0:0:
64,192,59149,1,0,0:0:0:0:
320,192,59149,1,0,0:0:0:0:
448,192,59207,1,0,0:0:0:0:
64,192,59264,1,0,0:0:0:0:
192,192,59322,1,0,0:0:0:0:
320,192,59379,1,0,0:0:0:0:
448,192,59437,1,0,0:0:0:0:
192,192,59494,1,0,0:0:0:0:
64,192,59552,1,0,0:0:0:0:
448,192,59609,1,0,0:0:0:0:
320,192,59667,1,0,0:0:0:0:
192,192,59724,1,0,0:0:0:0:
64,192,59781,1,0,0:0:0:0:
448,192,59839,128,0,60184:0:0:0:0:
320,192,59839,128,0,60442:0:0:0:0:
192,192,59839,1,0,0:0:0:0:
192,192,60184,128,0,60873:0:0:0:0:
320,192,60529,1,0,0:0:0:0:
448,192,60529,128,0,61477:0:0:0:0:
64,192,60529,128,0,61132:0:0:0:0:
320,192,60873,128,0,61477:0:0:0:0:
64,192,61218,1,0,0:0:0:0:
192,192,61218,128,0,61649:0:0:0:0:
448,192,61563,128,0,61736:0:0:0:0:
320,192,61563,128,0,61736:0:0:0:0:
64,192,61736,128,0,61908:0:0:0:0:
192,192,61736,128,0,61908:0:0:0:0:
448,192,61908,1,0,0:0:0:0:
320,192,61965,1,0,0:0:0:0:
192,192,62023,1,0,0:0:0:0:
64,192,62080,1,0,0:0:0:0:
448,192,62138,1,0,0:0:0:0:
320,192,62195,1,0,0:0:0:0:
64,192,62253,1,0,0:0:0:0:
192,192,62310,1,0,0:0:0:0:
320,192,62368,1,0,0:0:0:0:
448,192,62425,1,0,0:0:0:0:
64,192,62483,1,0,0:0:0:0:
192,192,62540,1,0,0:0:0:0:
448,192,62598,1,0,0:0:0:0:
320,192,62598,128,0,62684:0:0:0:0:
64,192,62684,1,0,0:0:0:0:
320,192,62770,128,0,62856:0:0:0:0:
64,192,62856,1,0,0:0:0:0:
320,192,62942,128,0,63029:0:0:0:0:
64,192,63029,1,0,0:0:0:0:
320,192,63115,128,0,63201:0:0:0:0:
64,192,63201,1,0,0:0:0:0:
320,192,63287,128,0,63373:0:0:0:0:
192,192,63287,1,0,0:0:0:0:
64,192,63373,1,0,0:0:0:0:
320,192,63460,128,0,63546:0:0:0:0:
64,192,63546,1,0,0:0:0:0:
320,192,63632,128,0,63718:0:0:0:0:
64,192,63718,1,0,0:0:0:0:
320,192,63804,128,0,63891:0:0:0:0:
64,192,63891,1,0,0:0:0:0:
320,192,63977,128,0,64063:0:0:0:0:
448,192,63977,1,0,0:0:0:0:
64,192,64063,1,0,0:0:0:0:
320,192,64149,128,0,64494:0:0:0:0:
448,192,64322,128,0,64494:0:0:0:0:
192,192,64322,128,0,64494:0:0:0:0:
64,192,64494,128,0,64580:0:0:0:0:
320,192,64667,1,0,0:0:0:0:
448,192,64667,1,0,0:0:0:0:
192,192,64724,1,0,0:0:0:0:
64,192,64781,1,0,0:0:0:0:
448,192,64839,1,0,0:0:0:0:
192,192,64896,1,0,0:0:0:0:
64,192,64954,1,0,0:0:0:0:
320,192,65011,128,0,65098:0:0:0:0:
192,192,65098,1,0,0:0:0:0:
320,192,65184,128,0,65270:0:0:0:0:
192,192,65270,1,0,0:0:0:0:
320,192,65356,128,0,65442:0:0:0:0:
64,192,65356,1,0,0:0:0:0:
192,192,65442,1,0,0:0:0:0:
320,192,65529,128,0,65615:0:0:0:0:
192,192,65615,1,0,0:0:0:0:
320,192,65701,128,0,65787:0:0:0:0:
192,192,65787,1,0,0:0:0:0:
320,192,65873,128,0,65960:0:0:0:0:
192,192,65960,1,0,0:0:0:0:
320,192,66046,128,0,66132:0:0:0:0:
448,192,66046,1,0,0:0:0:0:
192,192,66132,1,0,0:0:0:0:
320,192,66218,128,0,66304:0:0:0:0:
192,192,66304,1,0,0:0:0:0:
320,192,66391,128,0,66477:0:0:0:0:
192,192,66477,1,0,0:0:0:0:
320,192,66563,128,0,66649:0:0:0:0:
192,192,66649,1,0,0:0:0:0:
320,192,66736,128,0,66822:0:0:0:0:
64,192,66736,1,0,0:0:0:0:
192,192,66822,1,0,0:0:0:0:
64,192,66908,128,0,67339:0:0:0:0:
320,192,66908,128,0,67339:0:0:0:0:
192,192,67080,128,0,67339:0:0:0:0:
448,192,67253,128,0,67339:0:0:0:0:
448,192,67425,1,0,0:0:0:0:
320,192,67425,1,0,0:0:0:0:
192,192,67483,1,0,0:0:0:0:
64,192,67540,1,0,0:0:0:0:
448,192,67598,1,0,0:0:0:0:
320,192,67655,1,0,0:0:0:0:
192,192,67713,1,0,0:0:0:0:
64,192,67770,1,0,0:0:0:0:
320,192,67827,1,0,0:0:0:0:
448,192,67885,1,0,0:0:0:0:
64,192,67942,1,0,0:0:0:0:
320,192,68000,1,0,0:0:0:0:
448,192,68057,1,0,0:0:0:0:
192,192,68115,1,0,0:0:0:0:
64,192,68115,128,0,68201:0:0:0:0:
320,192,68201,128,0,68287:0:0:0:0:
64,192,68287,128,0,68373:0:0:0:0:
448,192,68373,128,0,68460:0:0:0:0:
64,192,68460,128,0,68546:0:0:0:0:
192,192,68546,128,0,68632:0:0:0:0:
64,192,68632,128,0,68718:0:0:0:0:
320,192,68718,128,0,68804:0:0:0:0:
192,192,68804,128,0,68891:0:0:0:0:
64,192,68804,1,0,0:0:0:0:
448,192,68891,128,0,68977:0:0:0:0:
192,192,68977,128,0,69063:0:0:0:0:
64,192,69063,128,0,69149:0:0:0:0:
192,192,69149,128,0,69236:0:0:0:0:
320,192,69236,128,0,69322:0:0:0:0:
192,192,69322,128,0,69408:0:0:0:0:
448,192,69408,128,0,69494:0:0:0:0:
192,192,69494,128,0,69580:0:0:0:0:
64,192,69494,1,0,0:0:0:0:
320,192,69580,128,0,69667:0:0:0:0:
192,192,69667,128,0,69839:0:0:0:0:
448,192,69667,128,0,69839:0:0:0:0:
64,192,69839,128,0,70184:0:0:0:0:
320,192,69839,128,0,70069:0:0:0:0:
192,192,70011,128,0,70126:0:0:0:0:
448,192,70184,1,0,0:0:0:0:
320,192,70184,1,0,0:0:0:0:
192,192,70241,1,0,0:0:0:0:
64,192,70299,1,0,0:0:0:0:
320,192,70356,1,0,0:0:0:0:
448,192,70414,1,0,0:0:0:0:
64,192,70471,1,0,0:0:0:0:
192,192,70529,1,0,0:0:0:0:
448,192,70586,1,0,0:0:0:0:
64,192,70644,1,0,0:0:0:0:
192,192,70701,1,0,0:0:0:0:
320,192,70758,1,0,0:0:0:0:
448,192,70816,1,0,0:0:0:0:
64,192,70873,128,0,71218:0:0:0:0:
192,192,70873,128,0,71477:0:0:0:0:
320,192,70873,1,0,0:0:0:0:
320,192,71218,128,0,71908:0:0:0:0:
192,192,71563,1,0,0:0:0:0:
64,192,71563,128,0,72511:0:0:0:0:
448,192,71563,128,0,72167:0:0:0:0:
192,192,71908,128,0,72684:0:0:0:0:
448,192,72253,1,0,0:0:0:0:
320,192,72253,128,0,72856:0:0:0:0:
448,192,72425,128,0,72856:0:0:0:0:
64,192,72598,128,0,72856:0:0:0:0:
192,192,72770,128,0,72942:0:0:0:0:
64,192,72942,128,0,73201:0:0:0:0:
448,192,72942,128,0,73373:0:0:0:0:
320,192,72942,1,0,0:0:0:0:
64,192,73287,128,0,73546:0:0:0:0:
448,192,73460,128,0,73632:0:0:0:0:
64,192,73632,1,0,0:0:0:0:
192,192,73632,1,0,0:0:0:0:
192,192,73977,128,0,74236:0:0:0:0:
320,192,73977,128,0,74580:0:0:0:0:
192,192,74322,1,0,0:0:0:0:
64,192,74322,128,0,74925:0:0:0:0:
448,192,74322,128,0,75270:0:0:0:0:
320,192,74667,128,0,74925:0:0:0:0:
320,192,75011,1,0,0:0:0:0:
192,192,75011,128,0,75960:0:0:0:0:
64,192,75011,128,0,75615:0:0:0:0:
448,192,75356,128,0,75615:0:0:0:0:
320,192,75701,128,0,76304:0:0:0:0:
448,192,75701,1,0,0:0:0:0:
64,192,75701,128,0,76304:0:0:0:0:
192,192,76046,128,0,76391:0:0:0:0:
448,192,76391,1,0,0:0:0:0:
64,192,76391,1,0,0:0:0:0:
320,192,76391,1,0,0:0:0:0:
192,192,76736,128,0,76994:0:0:0:0:
320,192,76908,128,0,77339:0:0:0:0:
192,192,77080,128,0,77684:0:0:0:0:
448,192,77080,1,0,0:0:0:0:
320,192,77425,128,0,77856:0:0:0:0:
64,192,77770,1,0,0:0:0:0:
192,192,77770,128,0,78029:0:0:0:0:
320,192,77942,128,0,78201:0:0:0:0:
192,192,78115,128,0,78460:0:0:0:0:
320,192,78287,128,0,78460:0:0:0:0:
64,192,78460,128,0,79063:0:0:0:0:
448,192,78460,128,0,78891:0:0:0:0:
448,192,78977,128,0,79236:0:0:0:0:
64,192,79149,128,0,79494:0:0:0:0:
192,192,79149,1,0,0:0:0:0:
320,192,79149,1,0,0:0:0:0:
448,192,79322,128,0,79494:0:0:0:0:
320,192,79494,128,0,79753:0:0:0:0:
192,192,79494,128,0,80098:0:0:0:0:
320,192,79839,1,0,0:0:0:0:
64,192,79839,128,0,80442:0:0:0:0:
448,192,79839,128,0,80787:0:0:0:0:
192,192,80184,128,0,80442:0:0:0:0:
192,192,80529,1,0,0:0:0:0:
320,192,80529,128,0,81477:0:0:0:0:
64,192,80529,128,0,81132:0:0:0:0:
192,192,80873,128,0,81132:0:0:0:0:
448,192,81218,128,0,81822:0:0:0:0:
192,192,81218,1,0,0:0:0:0:
64,192,81218,128,0,81822:0:0:0:0:
320,192,81563,128,0,81908:0:0:0:0:
448,192,81908,1,0,0:0:0:0:
64,192,81908,1,0,0:0:0:0:
192,192,81908,128,0,82511:0:0:0:0:
448,192,82598,1,0,0:0:0:0:
320,192,82598,128,0,83201:0:0:0:0:
64,192,82598,128,0,83201:0:0:0:0:
192,192,82598,1,0,0:0:0:0:
192,192,82942,1,0,0:0:0:0:
64,192,83287,1,0,0:0:0:0:
320,192,83287,1,0,0:0:0:0:
192,192,83287,128,0,83632:0:0:0:0:
448,192,83287,128,0,83891:0:0:0:0:
320,192,83632,128,0,83891:0:0:0:0:
64,192,97770,5,0,0:0:0:0:
448,192,97770,1,0,0:0:0:0:
320,192,97856,1,0,0:0:0:0:
64,192,97942,1,0,0:0:0:0:
192,192,98115,1,0,0:0:0:0:
320,192,98115,1,0,0:0:0:0:
64,192,98287,1,0,0:0:0:0:
448,192,98287,1,0,0:0:0:0:
192,192,98373,1,0,0:0:0:0:
448,192,98460,1,0,0:0:0:0:
192,192,98632,1,0,0:0:0:0:
320,192,98632,1,0,0:0:0:0:
64,192,98804,1,0,0:0:0:0:
448,192,98891,1,0,0:0:0:0:
64,192,98977,1,0,0:0:0:0:
448,192,99063,1,0,0:0:0:0:
64,192,99149,1,0,0:0:0:0:
192,192,99192,1,0,0:0:0:0:
320,192,99322,1,0,0:0:0:0:
448,192,99365,5,0,0:0:0:0:
64,192,99494,1,0,0:0:0:0:
192,192,99667,1,0,0:0:0:0:
320,192,99667,1,0,0:0:0:0:
448,192,99839,1,0,0:0:0:0:
192,192,100011,128,0,100529:0:0:0:0:
320,192,100184,128,0,100442:0:0:0:0:
64,192,100356,128,0,100442:0:0:0:0:
320,192,100529,5,0,0:0:0:0:
64,192,100529,1,0,0:0:0:0:
448,192,100529,1,0,0:0:0:0:
448,192,100701,1,0,0:0:0:0:
448,192,100873,1,0,0:0:0:0:
64,192,100873,1,0,0:0:0:0:
448,192,101046,1,0,0:0:0:0:
448,192,101218,1,0,0:0:0:0:
192,192,101218,1,0,0:0:0:0:
320,192,101563,1,0,0:0:0:0:
448,192,101908,1,0,0:0:0:0:
192,192,102080,1,0,0:0:0:0:
192,192,102253,1,0,0:0:0:0:
320,192,102253,1,0,0:0:0:0:
448,192,102598,1,0,0:0:0:0:
64,192,102598,1,0,0:0:0:0:
320,192,102770,1,0,0:0:0:0:
320,192,102942,1,0,0:0:0:0:
192,192,102942,1,0,0:0:0:0:
320,192,103115,1,0,0:0:0:0:
448,192,103287,1,0,0:0:0:0:
192,192,103287,1,0,0:0:0:0:
64,192,103287,1,0,0:0:0:0:
192,192,103460,1,0,0:0:0:0:
192,192,103632,1,0,0:0:0:0:
448,192,103632,1,0,0:0:0:0:
192,192,103804,1,0,0:0:0:0:
192,192,103977,1,0,0:0:0:0:
320,192,103977,1,0,0:0:0:0:
448,192,104322,1,0,0:0:0:0:
192,192,104667,1,0,0:0:0:0:
448,192,105011,1,0,0:0:0:0:
192,192,105184,1,0,0:0:0:0:
320,192,105356,1,0,0:0:0:0:
64,192,105356,1,0,0:0:0:0:
320,192,105529,1,0,0:0:0:0:
320,192,105701,1,0,0:0:0:0:
192,192,105701,1,0,0:0:0:0:
320,192,105873,1,0,0:0:0:0:
192,192,106046,1,0,0:0:0:0:
448,192,106046,1,0,0:0:0:0:
64,192,106046,1,0,0:0:0:0:
64,192,106218,1,0,0:0:0:0:
64,192,106391,1,0,0:0:0:0:
320,192,106391,1,0,0:0:0:0:
64,192,106563,1,0,0:0:0:0:
64,192,106736,1,0,0:0:0:0:
448,192,106736,1,0,0:0:0:0:
192,192,107080,1,0,0:0:0:0:
64,192,107425,1,0,0:0:0:0:
320,192,107598,1,0,0:0:0:0:
320,192,107770,1,0,0:0:0:0:
64,192,107770,1,0,0:0:0:0:
192,192,108115,1,0,0:0:0:0:
448,192,108115,1,0,0:0:0:0:
64,192,108287,1,0,0:0:0:0:
64,192,108460,1,0,0:0:0:0:
320,192,108460,1,0,0:0:0:0:
64,192,108632,1,0,0:0:0:0:
192,192,108804,1,0,0:0:0:0:
320,192,108804,1,0,0:0:0:0:
448,192,108804,1,0,0:0:0:0:
448,192,108977,1,0,0:0:0:0:
448,192,109149,1,0,0:0:0:0:
64,192,109149,1,0,0:0:0:0:
448,192,109322,1,0,0:0:0:0:
448,192,109494,1,0,0:0:0:0:
192,192,109494,1,0,0:0:0:0:
64,192,109839,1,0,0:0:0:0:
320,192,110184,1,0,0:0:0:0:
64,192,110529,1,0,0:0:0:0:
192,192,110701,1,0,0:0:0:0:
448,192,110873,1,0,0:0:0:0:
320,192,110873,1,0,0:0:0:0:
448,192,111046,1,0,0:0:0:0:
448,192,111218,1,0,0:0:0:0:
64,192,111218,1,0,0:0:0:0:
448,192,111391,1,0,0:0:0:0:
448,192,112253,1,0,0:0:0:0:
64,192,112253,1,0,0:0:0:0:
192,192,112253,1,0,0:0:0:0:
320,192,112598,1,0,0:0:0:0:
64,192,112942,1,0,0:0:0:0:
192,192,113115,1,0,0:0:0:0:
192,192,113287,1,0,0:0:0:0:
320,192,113287,1,0,0:0:0:0:
448,192,113632,1,0,0:0:0:0:
64,192,113632,1,0,0:0:0:0:
64,192,113804,1,0,0:0:0:0:
64,192,113977,1,0,0:0:0:0:
320,192,113977,1,0,0:0:0:0:
64,192,114149,1,0,0:0:0:0:
448,192,114322,1,0,0:0:0:0:
320,192,114322,1,0,0:0:0:0:
192,192,114322,1,0,0:0:0:0:
448,192,114494,1,0,0:0:0:0:
448,192,114667,1,0,0:0:0:0:
192,192,114667,1,0,0:0:0:0:
448,192,114839,1,0,0:0:0:0:
64,192,115011,1,0,0:0:0:0:
448,192,115011,1,0,0:0:0:0:
192,192,115356,1,0,0:0:0:0:
448,192,115701,1,0,0:0:0:0:
320,192,115701,1,0,0:0:0:0:
64,192,116046,1,0,0:0:0:0:
192,192,116218,1,0,0:0:0:0:
448,192,116391,1,0,0:0:0:0:
320,192,116391,1,0,0:0:0:0:
448,192,116563,1,0,0:0:0:0:
192,192,116736,1,0,0:0:0:0:
320,192,116779,128,0,117080:0:0:0:0:
192,192,117080,1,0,0:0:0:0:
448,192,117080,1,0,0:0:0:0:
64,192,117080,1,0,0:0:0:0:
64,192,117253,1,0,0:0:0:0:
64,192,117425,1,0,0:0:0:0:
320,192,117425,1,0,0:0:0:0:
64,192,117598,1,0,0:0:0:0:
64,192,117770,1,0,0:0:0:0:
448,192,117770,1,0,0:0:0:0:
320,192,118115,1,0,0:0:0:0:
192,192,118460,1,0,0:0:0:0:
64,192,118632,1,0,0:0:0:0:
64,192,118804,1,0,0:0:0:0:
320,192,118804,1,0,0:0:0:0:
192,192,119149,1,0,0:0:0:0:
448,192,119149,1,0,0:0:0:0:
64,192,119322,1,0,0:0:0:0:
64,192,119494,1,0,0:0:0:0:
320,192,119494,1,0,0:0:0:0:
64,192,119667,1,0,0:0:0:0:
320,192,119839,1,0,0:0:0:0:
448,192,119839,1,0,0:0:0:0:
192,192,119839,128,0,120184:0:0:0:0:
448,192,120011,1,0,0:0:0:0:
320,192,120184,128,0,120529:0:0:0:0:
448,192,120184,1,0,0:0:0:0:
64,192,120184,1,0,0:0:0:0:
64,192,120356,1,0,0:0:0:0:
448,192,120529,1,0,0:0:0:0:
64,192,120529,1,0,0:0:0:0:
192,192,120529,1,0,0:0:0:0:
320,192,120873,1,0,0:0:0:0:
448,192,121218,1,0,0:0:0:0:
64,192,121563,1,0,0:0:0:0:
192,192,121736,1,0,0:0:0:0:
320,192,121908,1,0,0:0:0:0:
448,192,121908,1,0,0:0:0:0:
64,192,121965,1,0,0:0:0:0:
192,192,122023,1,0,0:0:0:0:
448,192,122080,1,0,0:0:0:0:
320,192,122138,1,0,0:0:0:0:
64,192,122195,1,0,0:0:0:0:
192,192,122253,1,0,0:0:0:0:
448,192,122310,1,0,0:0:0:0:
320,192,122368,1,0,0:0:0:0:
64,192,122425,1,0,0:0:0:0:
192,192,122483,1,0,0:0:0:0:
448,192,122540,1,0,0:0:0:0:
64,192,122598,1,0,0:0:0:0:
320,192,122598,1,0,0:0:0:0:
192,192,122684,1,0,0:0:0:0:
64,192,122770,1,0,0:0:0:0:
192,192,122942,1,0,0:0:0:0:
448,192,122942,1,0,0:0:0:0:
320,192,123029,1,0,0:0:0:0:
448,192,123115,1,0,0:0:0:0:
192,192,123287,1,0,0:0:0:0:
320,192,123287,1,0,0:0:0:0:
448,192,123373,1,0,0:0:0:0:
192,192,123460,1,0,0:0:0:0:
320,192,123632,1,0,0:0:0:0:
64,192,123632,1,0,0:0:0:0:
192,192,123718,1,0,0:0:0:0:
320,192,123804,1,0,0:0:0:0:
448,192,123977,1,0,0:0:0:0:
64,192,123977,1,0,0:0:0:0:
320,192,124063,1,0,0:0:0:0:
64,192,124149,1,0,0:0:0:0:
320,192,124322,1,0,0:0:0:0:
448,192,124322,1,0,0:0:0:0:
64,192,124408,1,0,0:0:0:0:
448,192,124494,1,0,0:0:0:0:
192,192,124667,1,0,0:0:0:0:
320,192,124667,1,0,0:0:0:0:
448,192,124753,1,0,0:0:0:0:
192,192,124839,1,0,0:0:0:0:
64,192,125011,1,0,0:0:0:0:
320,192,125011,1,0,0:0:0:0:
320,192,125184,1,0,0:0:0:0:
192,192,125184,1,0,0:0:0:0:
192,192,125356,1,0,0:0:0:0:
448,192,125356,1,0,0:0:0:0:
64,192,125442,1,0,0:0:0:0:
448,192,125529,1,0,0:0:0:0:
64,192,125701,1,0,0:0:0:0:
320,192,125701,1,0,0:0:0:0:
192,192,125787,1,0,0:0:0:0:
64,192,125873,1,0,0:0:0:0:
448,192,126046,1,0,0:0:0:0:
192,192,126046,1,0,0:0:0:0:
320,192,126132,1,0,0:0:0:0:
448,192,126218,1,0,0:0:0:0:
192,192,126391,1,0,0:0:0:0:
320,192,126391,1,0,0:0:0:0:
448,192,126477,1,0,0:0:0:0:
192,192,126563,1,0,0:0:0:0:
320,192,126736,1,0,0:0:0:0:
64,192,126736,1,0,0:0:0:0:
192,192,126822,1,0,0:0:0:0:
320,192,126908,1,0,0:0:0:0:
192,192,127080,1,0,0:0:0:0:
448,192,127080,1,0,0:0:0:0:
320,192,127167,1,0,0:0:0:0:
192,192,127253,1,0,0:0:0:0:
64,192,127425,1,0,0:0:0:0:
448,192,127425,1,0,0:0:0:0:
320,192,127511,1,0,0:0:0:0:
64,192,127598,1,0,0:0:0:0:
192,192,127770,1,0,0:0:0:0:
320,192,127770,1,0,0:0:0:0:
64,192,127856,1,0,0:0:0:0:
320,192,127942,1,0,0:0:0:0:
192,192,128115,1,0,0:0:0:0:
64,192,128115,1,0,0:0:0:0:
320,192,128287,1,0,0:0:0:0:
64,192,128287,1,0,0:0:0:0:
448,192,128460,1,0,0:0:0:0:
320,192,128460,1,0,0:0:0:0:
192,192,128632,1,0,0:0:0:0:
448,192,128632,1,0,0:0:0:0:
64,192,128804,1,0,0:0:0:0:
192,192,128804,1,0,0:0:0:0:
64,192,128977,1,0,0:0:0:0:
320,192,128977,1,0,0:0:0:0:
448,192,129149,1,0,0:0:0:0:
320,192,129149,1,0,0:0:0:0:
192,192,129322,1,0,0:0:0:0:
448,192,129322,1,0,0:0:0:0:
192,192,129494,1,0,0:0:0:0:
320,192,129494,1,0,0:0:0:0:
64,192,129667,1,0,0:0:0:0:
320,192,129667,1,0,0:0:0:0:
64,192,129839,1,0,0:0:0:0:
448,192,129839,1,0,0:0:0:0:
192,192,130011,1,0,0:0:0:0:
448,192,130011,1,0,0:0:0:0:
192,192,130184,1,0,0:0:0:0:
320,192,130184,1,0,0:0:0:0:
64,192,130356,1,0,0:0:0:0:
320,192,130356,1,0,0:0:0:0:
64,192,130529,1,0,0:0:0:0:
448,192,130529,1,0,0:0:0:0:
192,192,130701,1,0,0:0:0:0:
448,192,130701,1,0,0:0:0:0:
192,192,130873,1,0,0:0:0:0:
320,192,130873,1,0,0:0:0:0:
448,192,130960,1,0,0:0:0:0:
192,192,131046,1,0,0:0:0:0:
64,192,131046,1,0,0:0:0:0:
320,192,131132,1,0,0:0:0:0:
448,192,131218,1,0,0:0:0:0:
64,192,131218,1,0,0:0:0:0:
192,192,131304,1,0,0:0:0:0:
320,192,131391,1,0,0:0:0:0:
448,192,131391,1,0,0:0:0:0:
64,192,131477,1,0,0:0:0:0:
320,192,131563,1,0,0:0:0:0:
192,192,131563,1,0,0:0:0:0:
64,192,131649,1,0,0:0:0:0:
448,192,131649,1,0,0:0:0:0:
192,192,133287,1,0,0:0:0:0:
192,192,133373,1,0,0:0:0:0:
320,192,133460,1,0,0:0:0:0:
320,192,133546,1,0,0:0:0:0:
64,192,133632,1,0,0:0:0:0:
192,192,133632,1,0,0:0:0:0:
320,192,133690,1,0,0:0:0:0:
448,192,133747,1,0,0:0:0:0:
64,192,133804,1,0,0:0:0:0:
192,192,133862,1,0,0:0:0:0:
448,192,133919,1,0,0:0:0:0:
64,192,133977,1,0,0:0:0:0:
320,192,134034,1,0,0:0:0:0:
448,192,134092,1,0,0:0:0:0:
64,192,134149,1,0,0:0:0:0:
192,192,134207,1,0,0:0:0:0:
448,192,134264,1,0,0:0:0:0:
64,192,134322,128,0,134580:0:0:0:0:
320,192,134322,1,0,0:0:0:0:
320,192,134494,128,0,134753:0:0:0:0:
64,192,134667,128,0,134925:0:0:0:0:
192,192,134667,1,0,0:0:0:0:
448,192,134667,1,0,0:0:0:0:
320,192,134839,128,0,135098:0:0:0:0:
64,192,135011,128,0,135270:0:0:0:0:
192,192,135011,1,0,0:0:0:0:
320,192,135184,128,0,135442:0:0:0:0:
64,192,135356,128,0,135615:0:0:0:0:
448,192,135356,1,0,0:0:0:0:
192,192,135356,1,0,0:0:0:0:
320,192,135529,128,0,135787:0:0:0:0:
64,192,135701,128,0,135960:0:0:0:0:
448,192,135701,1,0,0:0:0:0:
320,192,135873,128,0,136046:0:0:0:0:
192,192,136046,1,0,0:0:0:0:
64,192,136046,1,0,0:0:0:0:
448,192,136046,128,0,136218:0:0:0:0:
320,192,136218,128,0,136304:0:0:0:0:
192,192,136391,1,0,0:0:0:0:
64,192,136391,1,0,0:0:0:0:
448,192,136448,1,0,0:0:0:0:
320,192,136506,1,0,0:0:0:0:
64,192,136563,1,0,0:0:0:0:
448,192,136621,1,0,0:0:0:0:
192,192,136678,1,0,0:0:0:0:
64,192,136736,1,0,0:0:0:0:
320,192,136793,1,0,0:0:0:0:
448,192,136850,1,0,0:0:0:0:
64,192,136908,1,0,0:0:0:0:
192,192,136965,1,0,0:0:0:0:
320,192,137023,1,0,0:0:0:0:
448,192,137080,1,0,0:0:0:0:
64,192,137080,128,0,137339:0:0:0:0:
192,192,137253,128,0,137511:0:0:0:0:
64,192,137425,128,0,137684:0:0:0:0:
320,192,137425,1,0,0:0:0:0:
448,192,137425,1,0,0:0:0:0:
192,192,137598,128,0,137856:0:0:0:0:
64,192,137770,128,0,138029:0:0:0:0:
320,192,137770,1,0,0:0:0:0:
192,192,137942,128,0,138201:0:0:0:0:
64,192,138115,128,0,138373:0:0:0:0:
448,192,138115,1,0,0:0:0:0:
320,192,138115,1,0,0:0:0:0:
192,192,138287,128,0,138546:0:0:0:0:
64,192,138460,128,0,138718:0:0:0:0:
448,192,138460,1,0,0:0:0:0:
192,192,138632,128,0,138804:0:0:0:0:
448,192,138804,128,0,138977:0:0:0:0:
64,192,138804,1,0,0:0:0:0:
320,192,138804,1,0,0:0:0:0:
192,192,138977,128,0,139063:0:0:0:0:
64,192,139149,1,0,0:0:0:0:
320,192,139149,1,0,0:0:0:0:
448,192,139207,1,0,0:0:0:0:
192,192,139264,1,0,0:0:0:0:
320,192,139322,1,0,0:0:0:0:
448,192,139379,1,0,0:0:0:0:
64,192,139437,1,0,0:0:0:0:
320,192,139494,1,0,0:0:0:0:
192,192,139552,1,0,0:0:0:0:
64,192,139609,1,0,0:0:0:0:
448,192,139667,1,0,0:0:0:0:
320,192,139724,1,0,0:0:0:0:
192,192,139781,1,0,0:0:0:0:
448,192,139839,1,0,0:0:0:0:
64,192,139839,128,0,140098:0:0:0:0:
320,192,140011,128,0,140270:0:0:0:0:
448,192,140184,1,0,0:0:0:0:
64,192,140184,1,0,0:0:0:0:
192,192,140184,128,0,140442:0:0:0:0:
320,192,140356,128,0,140615:0:0:0:0:
64,192,140529,1,0,0:0:0:0:
192,192,140529,128,0,140787:0:0:0:0:
448,192,140701,128,0,140960:0:0:0:0:
64,192,140873,1,0,0:0:0:0:
320,192,140873,1,0,0:0:0:0:
192,192,140873,128,0,141132:0:0:0:0:
448,192,141046,128,0,141304:0:0:0:0:
192,192,141218,1,0,0:0:0:0:
320,192,141218,128,0,141391:0:0:0:0:
192,192,141391,128,0,141563:0:0:0:0:
448,192,141391,128,0,141563:0:0:0:0:
64,192,141563,128,0,141736:0:0:0:0:
320,192,141563,1,0,0:0:0:0:
192,192,141736,128,0,141822:0:0:0:0:
64,192,141908,1,0,0:0:0:0:
320,192,141908,1,0,0:0:0:0:
448,192,141965,1,0,0:0:0:0:
64,192,142023,1,0,0:0:0:0:
192,192,142080,1,0,0:0:0:0:
320,192,142138,1,0,0:0:0:0:
448,192,142195,1,0,0:0:0:0:
192,192,142253,1,0,0:0:0:0:
64,192,142310,1,0,0:0:0:0:
448,192,142368,1,0,0:0:0:0:
320,192,142425,1,0,0:0:0:0:
192,192,142483,1,0,0:0:0:0:
64,192,142540,1,0,0:0:0:0:
448,192,142598,128,0,142942:0:0:0:0:
320,192,142598,128,0,143201:0:0:0:0:
192,192,142598,1,0,0:0:0:0:
192,192,142942,128,0,143201:0:0:0:0:
64,192,143287,128,0,143891:0:0:0:0:
192,192,143287,1,0,0:0:0:0:
448,192,143287,1,0,0:0:0:0:
320,192,143287,1,0,0:0:0:0:
192,192,143460,1,0,0:0:0:0:
320,192,143460,1,0,0:0:0:0:
320,192,143632,1,0,0:0:0:0:
448,192,143632,1,0,0:0:0:0:
192,192,143804,1,0,0:0:0:0:
320,192,143804,1,0,0:0:0:0:
448,192,143804,1,0,0:0:0:0:
192,192,143977,128,0,144236:0:0:0:0:
64,192,143977,1,0,0:0:0:0:
448,192,143977,1,0,0:0:0:0:
320,192,144149,1,0,0:0:0:0:
448,192,144149,1,0,0:0:0:0:
192,192,144322,128,0,144667:0:0:0:0:
448,192,144667,1,0,0:0:0:0:
320,192,144724,1,0,0:0:0:0:
192,192,144781,1,0,0:0:0:0:
64,192,144839,1,0,0:0:0:0:
448,192,144896,1,0,0:0:0:0:
320,192,144954,1,0,0:0:0:0:
64,192,145011,1,0,0:0:0:0:
192,192,145069,1,0,0:0:0:0:
320,192,145126,1,0,0:0:0:0:
448,192,145184,1,0,0:0:0:0:
64,192,145241,1,0,0:0:0:0:
192,192,145299,1,0,0:0:0:0:
448,192,145356,1,0,0:0:0:0:
320,192,145356,128,0,145442:0:0:0:0:
64,192,145442,128,0,145529:0:0:0:0:
320,192,145529,128,0,145615:0:0:0:0:
64,192,145615,128,0,145701:0:0:0:0:
320,192,145701,128,0,145787:0:0:0:0:
192,192,145787,128,0,145873:0:0:0:0:
320,192,145873,128,0,145960:0:0:0:0:
192,192,145960,128,0,146046:0:0:0:0:
448,192,146046,128,0,146132:0:0:0:0:
320,192,146046,1,0,0:0:0:0:
192,192,146132,128,0,146218:0:0:0:0:
448,192,146218,128,0,146304:0:0:0:0:
192,192,146304,128,0,146391:0:0:0:0:
448,192,146391,128,0,146477:0:0:0:0:
320,192,146477,128,0,146563:0:0:0:0:
448,192,146563,128,0,146649:0:0:0:0:
320,192,146649,128,0,146736:0:0:0:0:
192,192,146736,1,0,0:0:0:0:
64,192,146736,1,0,0:0:0:0:
320,192,146908,128,0,147253:0:0:0:0:
192,192,146908,128,0,147080:0:0:0:0:
448,192,147080,128,0,147253:0:0:0:0:
64,192,147253,128,0,147425:0:0:0:0:
192,192,147253,128,0,147368:0:0:0:0:
320,192,147425,1,0,0:0:0:0:
448,192,147425,1,0,0:0:0:0:
192,192,147483,1,0,0:0:0:0:
64,192,147540,1,0,0:0:0:0:
448,192,147598,1,0,0:0:0:0:
320,192,147655,1,0,0:0:0:0:
192,192,147713,1,0,0:0:0:0:
64,192,147770,1,0,0:0:0:0:
320,192,147827,1,0,0:0:0:0:
448,192,147885,1,0,0:0:0:0:
64,192,147942,1,0,0:0:0:0:
192,192,148000,1,0,0:0:0:0:
320,192,148057,1,0,0:0:0:0:
448,192,148115,128,0,148201:0:0:0:0:
64,192,148115,1,0,0:0:0:0:
192,192,148201,128,0,148287:0:0:0:0:
64,192,148287,128,0,148373:0:0:0:0:
320,192,148373,128,0,148460:0:0:0:0:
192,192,148460,128,0,148546:0:0:0:0:
448,192,148546,128,0,148632:0:0:0:0:
320,192,148632,128,0,148718:0:0:0:0:
64,192,148718,128,0,148804:0:0:0:0:
448,192,148804,128,0,148891:0:0:0:0:
320,192,148804,1,0,0:0:0:0:
192,192,148891,128,0,148977:0:0:0:0:
64,192,148977,128,0,149063:0:0:0:0:
320,192,149063,128,0,149149:0:0:0:0:
192,192,149149,128,0,149236:0:0:0:0:
448,192,149236,128,0,149322:0:0:0:0:
320,192,149322,128,0,149408:0:0:0:0:
64,192,149408,128,0,149494:0:0:0:0:
448,192,149494,128,0,149580:0:0:0:0:
320,192,149494,1,0,0:0:0:0:
192,192,149667,128,0,150098:0:0:0:0:
448,192,149839,128,0,150098:0:0:0:0:
64,192,150011,128,0,150184:0:0:0:0:
448,192,150184,1,0,0:0:0:0:
192,192,150184,1,0,0:0:0:0:
320,192,150241,1,0,0:0:0:0:
64,192,150299,1,0,0:0:0:0:
192,192,150356,1,0,0:0:0:0:
320,192,150414,1,0,0:0:0:0:
448,192,150471,1,0,0:0:0:0:
64,192,150529,1,0,0:0:0:0:
320,192,150586,1,0,0:0:0:0:
192,192,150644,1,0,0:0:0:0:
64,192,150701,1,0,0:0:0:0:
448,192,150758,1,0,0:0:0:0:
320,192,150816,1,0,0:0:0:0:
64,192,150873,128,0,150960:0:0:0:0:
192,192,150873,1,0,0:0:0:0:
320,192,150960,128,0,151046:0:0:0:0:
64,192,151046,128,0,151132:0:0:0:0:
320,192,151132,128,0,151218:0:0:0:0:
64,192,151218,128,0,151304:0:0:0:0:
448,192,151304,128,0,151391:0:0:0:0:
64,192,151391,128,0,151477:0:0:0:0:
448,192,151477,128,0,151563:0:0:0:0:
192,192,151563,128,0,151649:0:0:0:0:
64,192,151563,1,0,0:0:0:0:
320,192,151649,128,0,151736:0:0:0:0:
192,192,151736,128,0,151822:0:0:0:0:
320,192,151822,128,0,151908:0:0:0:0:
192,192,151908,128,0,151994:0:0:0:0:
448,192,151994,128,0,152080:0:0:0:0:
192,192,152080,128,0,152167:0:0:0:0:
448,192,152167,128,0,152253:0:0:0:0:
64,192,152253,1,0,0:0:0:0:
192,192,152253,1,0,0:0:0:0:
192,192,152425,128,0,152598:0:0:0:0:
320,192,152425,128,0,152598:0:0:0:0:
64,192,152598,128,0,152942:0:0:0:0:
448,192,152598,128,0,152770:0:0:0:0:
192,192,152770,128,0,152885:0:0:0:0:
448,192,152942,1,0,0:0:0:0:
320,192,152942,1,0,0:0:0:0:
192,192,153000,1,0,0:0:0:0:
64,192,153057,1,0,0:0:0:0:
320,192,153115,1,0,0:0:0:0:
448,192,153172,1,0,0:0:0:0:
64,192,153230,1,0,0:0:0:0:
192,192,153287,1,0,0:0:0:0:
448,192,153345,1,0,0:0:0:0:
64,192,153402,1,0,0:0:0:0:
192,192,153460,1,0,0:0:0:0:
320,192,153517,1,0,0:0:0:0:
448,192,153575,1,0,0:0:0:0:
64,192,153632,128,0,153977:0:0:0:0:
192,192,153632,128,0,154236:0:0:0:0:
320,192,153632,1,0,0:0:0:0:
320,192,153977,128,0,154667:0:0:0:0:
192,192,154322,1,0,0:0:0:0:
64,192,154322,128,0,155270:0:0:0:0:
448,192,154322,128,0,154925:0:0:0:0:
192,192,154667,128,0,155442:0:0:0:0:
448,192,155011,1,0,0:0:0:0:
320,192,155011,128,0,155615:0:0:0:0:
448,192,155184,128,0,155615:0:0:0:0:
64,192,155356,128,0,155615:0:0:0:0:
192,192,155529,128,0,155701:0:0:0:0:
64,192,155701,128,0,155960:0:0:0:0:
448,192,155701,128,0,156132:0:0:0:0:
320,192,155701,1,0,0:0:0:0:
64,192,156046,128,0,156304:0:0:0:0:
448,192,156218,128,0,156391:0:0:0:0:
64,192,156391,1,0,0:0:0:0:
192,192,156391,1,0,0:0:0:0:
192,192,156736,128,0,156994:0:0:0:0:
320,192,156736,128,0,157339:0:0:0:0:
192,192,157080,1,0,0:0:0:0:
64,192,157080,128,0,157684:0:0:0:0:
448,192,157080,128,0,158029:0:0:0:0:
320,192,157425,128,0,157684:0:0:0:0:
320,192,157770,1,0,0:0:0:0:
192,192,157770,128,0,158718:0:0:0:0:
64,192,157770,128,0,158373:0:0:0:0:
448,192,158115,128,0,158373:0:0:0:0:
320,192,158460,128,0,159063:0:0:0:0:
448,192,158460,1,0,0:0:0:0:
64,192,158460,128,0,159063:0:0:0:0:
192,192,158804,128,0,159149:0:0:0:0:
448,192,159149,1,0,0:0:0:0:
64,192,159149,1,0,0:0:0:0:
320,192,159149,1,0,0:0:0:0:
192,192,159494,128,0,159753:0:0:0:0:
320,192,159667,128,0,160098:0:0:0:0:
192,192,159839,128,0,160442:0:0:0:0:
448,192,159839,1,0,0:0:0:0:
320,192,160184,128,0,160615:0:0:0:0:
64,192,160529,1,0,0:0:0:0:
192,192,160529,128,0,160787:0:0:0:0:
320,192,160701,128,0,160960:0:0:0:0:
192,192,160873,128,0,161218:0:0:0:0:
320,192,161046,128,0,161218:0:0:0:0:
64,192,161218,128,0,161822:0:0:0:0:
448,192,161218,128,0,161649:0:0:0:0:
448,192,161736,128,0,161994:0:0:0:0:
64,192,161908,128,0,162253:0:0:0:0:
192,192,161908,1,0,0:0:0:0:
320,192,161908,1,0,0:0:0:0:
448,192,162080,128,0,162253:0:0:0:0:
320,192,162253,128,0,162511:0:0:0:0:
192,192,162253,128,0,162856:0:0:0:0:
320,192,162598,1,0,0:0:0:0:
64,192,162598,128,0,163201:0:0:0:0:
448,192,162598,128,0,163546:0:0:0:0:
192,192,162942,128,0,163201:0:0:0:0:
192,192,163287,1,0,0:0:0:0:
320,192,163287,128,0,164236:0:0:0:0:
64,192,163287,128,0,163891:0:0:0:0:
192,192,163632,128,0,163891:0:0:0:0:
448,192,163977,128,0,164580:0:0:0:0:
192,192,163977,1,0,0:0:0:0:
64,192,163977,128,0,164580:0:0:0:0:
320,192,164322,128,0,164667:0:0:0:0:
448,192,164667,1,0,0:0:0:0:
64,192,164667,1,0,0:0:0:0:
192,192,164667,128,0,165270:0:0:0:0:
448,192,165356,1,0,0:0:0:0:
320,192,165356,128,0,165960:0:0:0:0:
64,192,165356,128,0,165960:0:0:0:0:
192,192,165356,1,0,0:0:0:0:
192,192,165701,1,0,0:0:0:0:
64,192,166046,1,0,0:0:0:0:
320,192,166046,1,0,0:0:0:0:
192,192,166046,128,0,166391:0:0:0:0:
448,192,166046,128,0,166649:0:0:0:0:
320,192,166391,128,0,166649:0:0:0:0:
64,192,166736,128,0,169322:0:0:0:0:
192,192,166736,128,0,169236:0:0:0:0:
320,192,166736,128,0,169149:0:0:0:0:
448,192,166736,128,0,169063:0:0:0:0:
