osu file format v14

[General]
AudioFilename: audioremix.mp3
AudioLeadIn: 0
PreviewTime: 141224
Countdown: 0
SampleSet: Soft
StackLeniency: 0.3
Mode: 0
LetterboxInBreaks: 0
WidescreenStoryboard: 1

[Editor]
DistanceSpacing: 0.5
BeatDivisor: 2
GridSize: 16
TimelineZoom: 1.7

[Metadata]
Title:Emoji
TitleUnicode:Emoji
Artist:Pegboard Nerds
ArtistUnicode:Pegboard Nerds
Creator:Picrazo
Version:Insane (Remixed)
Source:
Tags:
BeatmapID:2160142
BeatmapSetID:1010800

[Difficulty]
HPDrainRate:7
CircleSize:4.6
OverallDifficulty:9
ApproachRate:9
SliderMultiplier:2
SliderTickRate:1

[Events]
//Background and Video events
0,0,"PegboardNerds-Computer-v2.jpg",0,0
//Break Periods
2,44982,45654
2,71485,81728
2,118601,129581
//Storyboard Layer 0 (Background)
//Storyboard Layer 1 (Fail)
//Storyboard Layer 2 (Pass)
//Storyboard Layer 3 (Foreground)
//Storyboard Layer 4 (Overlay)
//Storyboard Sound Samples

[TimingPoints]
611,736.196319018405,4,2,1,100,1,0
12390,-100,4,2,1,100,0,0
24169,-66.6666666666667,4,2,1,100,0,0
34660,-66.6666666666667,4,2,1,5,0,0
34844,-66.6666666666667,4,2,1,100,0,0
35028,-66.6666666666667,4,2,1,5,0,0
35212,-66.6666666666667,4,2,1,100,0,0
35948,368.098159509202,4,2,1,100,1,0
44782,-100,4,2,1,100,0,0
47727,-66.6666666666667,4,2,1,100,0,1
49383,-100,4,2,1,100,0,1
49935,-66.6666666666667,4,2,1,100,0,1
50303,-166.666666666667,4,2,1,100,0,1
50671,-100,4,2,1,100,0,1
51040,-66.6666666666667,4,2,1,100,0,1
51960,-100,4,2,1,100,0,1
52880,-66.6666666666667,4,2,1,100,0,1
54352,-133.333333333333,4,2,1,100,0,1
54905,-100,4,2,1,100,0,1
56009,-66.6666666666667,4,2,1,100,0,1
56193,-133.333333333333,4,2,1,100,0,1
57297,-100,4,2,1,100,0,1
57849,-133.333333333333,4,2,1,100,0,1
58770,-66.6666666666667,4,2,1,100,0,1
59506,-100,4,2,1,100,0,1
60242,-66.6666666666667,4,2,1,100,0,1
60794,-100,4,2,1,100,0,1
61898,-66.6666666666667,4,2,1,100,0,1
62082,-100,4,2,1,100,0,1
62451,-100,4,2,1,100,0,1
62819,-66.6666666666667,4,2,1,100,0,1
63739,-100,4,2,1,100,0,1
65027,-66.6666666666667,4,2,1,100,0,1
66684,-100,4,2,1,100,0,1
67788,-66.6666666666667,4,2,1,100,0,1
67972,-100,4,2,1,100,0,1
68340,-66.6666666666667,4,2,1,100,0,1
69628,-100,4,2,1,100,0,1
71285,-100,4,2,1,100,0,0
82328,-100,4,2,1,100,0,0
83064,-100,4,2,1,100,0,0
88954,-66.6666666666667,4,2,1,100,0,0
90426,-133.333333333333,4,2,1,100,0,0
91162,-100,4,2,1,100,0,0
91898,-200,4,2,1,100,0,0
93371,-66.6666666666667,4,2,1,100,0,0
94843,-50,4,2,1,100,0,1
95211,-133.333333333333,4,2,1,100,0,1
95579,-50,4,2,1,100,0,1
98892,-200,4,2,1,100,0,1
99997,-50,4,2,1,100,0,1
101101,-133.333333333333,4,2,1,100,0,1
101469,-50,4,2,1,100,0,1
101837,-25,4,2,1,100,0,1
102573,-50,4,2,1,100,0,1
102941,-133.333333333333,4,2,1,100,0,1
103309,-50,4,2,1,100,0,1
103862,-33.3333333333333,4,2,1,100,0,1
104046,-40,4,2,1,100,0,1
104230,-50,4,2,1,100,0,1
104414,-200,4,2,1,100,0,1
104782,-50,4,2,1,100,0,1
105150,-66.6666666666667,4,2,1,100,0,1
105886,-100,4,2,1,100,0,1
106254,-80,4,2,1,100,0,1
106254,-100,4,2,1,100,0,1
106622,-80,4,2,1,100,0,1
106990,-33.3333333333333,4,2,1,100,0,1
107359,-50,4,2,1,100,0,1
107727,-25,4,2,1,100,0,1
108463,-200,4,2,1,100,0,1
109199,-66.6666666666667,4,2,1,100,0,1
109567,-50,4,2,1,100,0,1
110303,-66.6666666666667,4,2,1,100,0,1
110671,-200,4,2,1,100,0,1
111776,-50,4,2,1,100,0,1
112512,-200,4,2,1,100,0,1
118401,-133.333333333333,4,2,1,100,0,0
130181,-133.333333333333,4,2,1,100,0,0
141224,-100,4,2,1,100,0,0
141960,-100,4,2,1,100,0,0
150794,-333.333333333333,4,2,1,100,0,0
152267,-66.6666666666667,4,2,1,100,0,0
153739,-66.6666666666667,4,2,1,100,0,1
154475,-100,4,2,1,100,0,1
155948,-66.6666666666667,4,2,1,100,0,1
157420,-100,4,2,1,100,0,1
158893,-66.6666666666667,4,2,1,100,0,1
160365,-133.333333333333,4,2,1,100,0,1
160917,-100,4,2,1,100,0,1
161837,-66.6666666666667,4,2,1,100,0,1
163862,-100,4,2,1,100,0,1
164782,-66.6666666666667,4,2,1,100,0,1
165518,-100,4,2,1,100,0,1
166439,-66.6666666666667,4,2,1,100,0,1
166807,-100,4,2,1,100,0,1
167911,-66.6666666666667,4,2,1,100,0,1
168095,-100,4,2,1,100,0,1
168463,-100,4,2,1,100,0,1
168831,-66.6666666666667,4,2,1,100,0,1
169199,-100,4,2,1,100,0,1
170672,-66.6666666666667,4,2,1,100,0,1
172144,-133.333333333333,4,2,1,100,0,1
172696,-100,4,2,1,100,0,1
173617,-66.6666666666667,4,2,1,100,0,1
175089,-100,4,2,1,100,0,1
177297,-133.333333333333,4,2,1,100,0,0

[Colours]
Combo1 : 179,0,0
Combo2 : 170,170,213
Combo3 : 205,145,255
Combo4 : 130,200,244
Combo5 : 180,220,200
Combo6 : 255,157,206
Combo7 : 255,125,255
Combo8 : 0,128,192

[HitObjects]
71,118,611,6,0,B|89:99|143:103|143:103|148:77|148:77|181:78|211:103|219:138,1,200,2|0,0:0|0:0,0:0:0:0:
226,246,1715,2,0,B|227:271|250:306|279:315|308:318|343:306|343:306|332:355|332:355|358:353|387:346|413:332|435:303|454:253|451:229|445:200,1,400,2|0,0:0|0:0,0:0:0:0:
426,119,3555,6,0,B|385:80|333:75|333:75|334:125|334:125|303:127|296:129|281:137|271:145|270:153|266:164|270:168,1,200,2|0,0:0|0:0,0:0:0:0:
226,246,4660,2,0,B|171:275|162:278|141:276|128:273|128:273|144:238|144:238|87:220|65:195|60:174|63:139|77:109|99:87|128:76|168:69|205:108,1,400,2|0,0:0|0:0,0:0:0:0:
274,156,6500,102,0,B|317:169|342:167|360:157|360:157|344:218|344:218|359:215|371:215|380:222|416:255,1,200,2|0,0:0|0:0,0:0:0:0:
226,246,7604,2,0,B|183:260|169:261|139:246|139:246|128:271|110:288|92:295|67:300|42:298|20:286|-3:270|-12:250|-3:198|-3:198|17:208|33:213|55:227|75:222|87:215|100:203|106:187,1,400,2|0,0:0|0:0,0:0:0:0:
152,165,9445,6,0,B|130:133|120:104|125:68|138:51|160:27|160:27|186:66|190:75|188:92,1,200,2|0,0:0|0:0,0:0:0:0:
226,246,10549,2,0,B|252:284|285:269|310:262|323:224|323:224|353:277|353:277|367:258|380:232|389:200|397:171|391:145|381:126|364:93|334:78,1,400,2|0,0:0|0:0,0:0:0:0:
215,88,12390,6,0,B|176:111|153:114|120:113|102:105|75:77|75:77|98:62|141:55,1,200,2|0,0:0|0:0,0:0:0:0:
270,28,13494,2,0,B|297:56|306:93|290:119|277:142|277:142|330:141|330:141|332:185|318:213|292:237|262:249|267:249,1,300,2|0,0:0|0:0,0:0:0:0:
120,249,14966,1,0,0:0:0:0:
57,110,15334,6,0,B|46:43|46:43|83:51|114:53|142:52|164:45|201:28,1,200,2|0,0:0|0:0,0:0:0:0:
362,72,16439,2,0,B|404:64|435:42|435:42|466:71|481:111|479:165|457:217|394:246,1,300,2|0,0:0|0:0,0:0:0:0:
288,179,17911,1,0,0:0:0:0:
164,273,18279,102,0,B|134:245|115:199|115:199|87:232|87:232|70:198|60:175|59:150|59:135,1,200,2|0,0:0|0:0,0:0:0:0:
204,63,19384,2,0,P|214:124|216:166,1,100,2|0,0:0|0:0,0:0:0:0:
316,272,20120,1,0,0:0:0:0:
408,164,20488,2,0,P|411:114|420:65,1,100
311,9,21224,5,2,0:0:0:0:
204,63,21592,2,0,P|154:71|104:74,1,100
64,182,22328,2,0,B|66:244|81:276|101:296|138:313|184:316|184:316|161:260|161:260|209:273|246:267|297:237,1,400,2|0,0:0|0:0,0:0:0:0:
432,131,24169,6,0,L|423:45,1,75.0000028610231,0|0,1:0|0:0,0:0:0:0:
393,246,24537,2,0,L|384:332,1,75.0000028610231,0|0,1:0|0:0,0:0:0:0:
217,162,24905,2,0,L|380:175,1,150.000005722046,0|0,1:0|1:0,0:0:0:0:
466,289,25457,1,0,0:0:0:0:
301,323,25641,5,0,1:0:0:0:
294,310,26009,2,0,P|261:292|217:287,1,75.0000028610231,0|0,1:0|0:0,0:0:0:0:
150,165,26377,2,0,P|117:182|80:188,1,75.0000028610231,0|0,1:0|0:0,0:0:0:0:
127,38,26745,1,0,1:0:0:0:
233,157,26930,1,0,1:0:0:0:
129,258,27114,102,0,L|120:346,1,75.0000028610231,0|0,1:0|0:0,0:0:0:0:
175,154,27482,2,0,L|167:80,1,75.0000028610231,0|0,1:0|0:0,0:0:0:0:
63,191,27850,1,0,1:0:0:0:
208,284,28034,1,0,0:0:0:0:
312,125,28218,2,0,L|320:199,1,75.0000028610231,0|0,1:0|0:0,0:0:0:0:
216,298,28586,5,0,1:0:0:0:
225,311,28954,2,0,P|274:320|304:315,1,75.0000028610231,0|0,1:0|0:0,0:0:0:0:
118,179,29322,2,0,P|167:170|197:175,1,75.0000028610231,0|0,1:0|0:0,0:0:0:0:
306,271,29690,1,0,1:0:0:0:
209,182,29874,1,0,1:0:0:0:
450,93,30058,102,0,L|445:7,1,75.0000028610231,0|0,1:0|0:0,0:0:0:0:
311,197,30426,2,0,L|306:283,1,75.0000028610231,0|0,1:0|0:0,0:0:0:0:
459,174,30795,2,0,B|404:166|377:132|316:121,1,150.000005722046,0|0,1:0|1:0,2:0:0:0:
176,206,31347,1,0,0:0:0:0:
307,302,31531,5,0,1:0:0:0:
318,288,31899,2,0,P|326:242|319:200,1,75.0000028610231,0|0,1:0|0:0,0:0:0:0:
176,206,32267,2,0,P|168:160|175:118,1,75.0000028610231,0|0,1:0|0:0,0:0:0:0:
307,302,32635,2,0,P|315:348|308:390,1,75.0000028610231,0|0,1:0|0:0,0:0:0:0:
262,168,33003,102,0,B|319:142|380:169|380:169|374:141|356:115,1,150.000005722046,0|0,1:0|1:0,0:0:0:0:
286,38,33555,1,0,0:0:0:0:
174,117,33739,2,0,P|127:117|92:106,1,75.0000028610231,0|0,1:0|0:0,0:0:0:0:
161,278,34107,2,0,P|208:278|243:289,1,75.0000028610231,0|0,1:0|0:0,0:0:0:0:
371,142,34476,6,0,L|360:25,1,112.500004291535,2|0,0:0|0:0,0:0:0:0:
302,117,34844,2,0,P|222:148|170:133,1,112.500004291535,2|0,0:3|0:0,0:0:0:0:
138,90,35212,101,0,1:0:0:0:
28,257,35396,1,0,1:0:0:0:
47,251,35488,1,0,1:0:0:0:
69,246,35580,1,0,1:0:0:0:
218,316,35764,1,0,1:0:0:0:
339,205,35948,54,0,P|344:171|343:147,1,50,8|0,0:0|0:0,0:0:0:0:
286,65,36132,1,2,0:0:0:0:
286,65,36224,1,0,0:0:0:0:
286,65,36316,2,0,P|252:60|228:61,1,50,8|0,0:0|0:0,0:0:0:0:
128,159,36500,1,2,0:0:0:0:
128,159,36592,1,0,0:0:0:0:
128,159,36684,6,0,L|119:236,1,50,8|0,0:0|0:0,0:0:0:0:
188,326,36868,2,0,L|179:249,1,50,2|0,0:0|0:0,0:0:0:0:
61,115,37052,2,0,L|52:192,1,50,8|0,0:0|0:0,0:0:0:0:
182,276,37236,2,0,L|173:199,1,50,2|0,0:0|0:0,0:0:0:0:
118,55,37420,6,0,P|65:37|11:46,1,100,8|2,0:0|0:0,0:0:0:0:
0,128,37696,1,0,0:0:0:0:
0,128,37788,2,0,L|-11:232,1,100,8|2,0:0|0:0,0:0:0:0:
46,301,38064,1,0,0:0:0:0:
46,301,38156,6,0,L|106:295,1,50,8|0,0:0|0:0,0:0:0:0:
162,192,38340,2,0,L|153:268,1,50,2|0,0:0|0:0,0:0:0:0:
172,369,38524,2,0,L|163:293,1,50,8|0,0:0|0:0,0:0:0:0:
40,251,38708,2,0,L|49:327,1,50,2|0,0:0|0:0,0:0:0:0:
122,375,38892,6,0,L|193:365,1,50,8|0,0:0|0:0,0:0:0:0:
260,311,39076,1,2,0:0:0:0:
260,311,39168,1,0,0:0:0:0:
260,311,39260,2,0,L|272:247,1,50,8|0,0:0|0:0,0:0:0:0:
237,160,39444,1,2,0:0:0:0:
237,160,39536,1,0,0:0:0:0:
237,160,39628,6,0,L|306:167,1,50,8|0,0:0|0:0,0:0:0:0:
410,130,39813,2,0,L|341:137,1,50,2|0,0:0|0:0,0:0:0:0:
208,229,39997,2,0,L|277:236,1,50,8|0,0:0|0:0,0:0:0:0:
124,137,40181,2,0,L|55:144,1,50,2|0,0:0|0:0,0:0:0:0:
208,229,40365,38,0,P|214:284|265:331,1,100,8|2,0:0|0:0,0:0:0:0:
315,380,40641,1,0,0:0:0:0:
315,380,40733,2,0,L|182:386,1,100,8|2,0:0|0:0,0:0:0:0:
143,328,41009,1,0,0:0:0:0:
143,328,41101,6,0,L|134:257,1,50,8|0,0:0|0:0,0:0:0:0:
76,146,41285,2,0,L|67:75,1,50,2|8,0:0|0:0,0:0:0:0:
220,182,41469,2,0,L|211:253,1,50,8|0,0:0|0:0,0:0:0:0:
164,86,41653,2,0,L|173:15,1,50,2|0,0:0|0:0,0:0:0:0:
277,107,41837,5,8,0:0:0:0:
351,0,42021,1,8,0:0:0:0:
424,117,42205,1,8,0:0:0:0:
279,102,42389,1,8,0:0:0:0:
332,246,42573,5,8,0:0:0:0:
464,101,42757,1,8,0:0:0:0:
261,77,42941,1,8,0:0:0:0:
433,204,43125,1,8,0:0:0:0:
231,242,43309,5,8,0:0:0:0:
263,243,43401,1,0,0:0:0:0:
300,245,43493,1,8,0:0:0:0:
332,246,43585,1,0,0:0:0:0:
371,250,43677,1,8,0:0:0:0:
403,251,43769,1,0,0:0:0:0:
442,256,43861,1,8,0:0:0:0:
474,257,43953,1,0,0:0:0:0:
485,301,44046,5,8,0:0:0:0:
461,339,44138,1,0,0:0:0:0:
417,350,44230,1,8,0:0:0:0:
374,333,44322,1,0,0:0:0:0:
358,290,44414,1,8,0:0:0:0:
360,245,44506,1,0,0:0:0:0:
342,203,44598,1,8,0:0:0:0:
300,185,44690,1,0,0:0:0:0:
255,189,44782,5,4,1:0:0:0:
255,189,46254,86,2,L|221:191,7,25
302,292,46806,2,2,L|342:291,2,25
226,337,46990,5,0,1:0:0:0:
135,162,47174,1,0,1:0:0:0:
148,168,47267,1,0,1:0:0:0:
161,174,47359,1,0,1:0:0:0:
0,228,47543,1,0,1:0:0:0:
185,34,47727,6,0,B|244:38|244:38|277:58|277:58|341:61,1,150.000005722046,4|0,0:1|0:0,0:0:0:0:
118,86,48095,6,0,L|40:80,1,75.0000028610231,8|0,0:0|0:0,0:0:0:0:
136,254,48279,2,0,L|214:248,1,75.0000028610231
306,144,48463,1,0,1:0:0:0:
189,258,48647,102,0,L|115:264,1,75.0000028610231,2|0,0:0|0:0,0:0:0:0:
19,61,48831,2,0,L|94:67,1,75.0000028610231,2|0,0:0|0:0,0:0:0:0:
269,100,49015,5,0,1:0:0:0:
257,110,49383,2,0,B|248:200|248:200|263:234|263:234|254:317,1,200,0|2,1:0|0:0,0:0:0:0:
269,100,49935,101,0,1:0:0:0:
179,325,50119,2,0,L|188:244,1,75.0000028610231,0|0,3:0|0:0,0:0:0:0:
335,90,50303,6,0,L|326:185,1,89.9999972534181,2|0,0:1|0:0,0:0:0:0:
336,306,50671,102,0,L|342:363,1,50
368,302,50855,2,0,L|374:359,1,50,8|0,0:0|0:0,0:0:0:0:
335,90,51040,6,0,B|291:113|246:77|246:77|240:112|240:112|192:83|136:113,1,225.000008583069,2|0,0:1|0:0,0:0:0:0:
111,181,51408,101,0,1:0:0:0:
412,97,51592,2,0,P|399:53|375:27,1,75.0000028610231,2|0,0:0|0:0,0:0:0:0:
189,177,51776,2,0,P|176:221|152:247,1,75.0000028610231,2|0,0:0|0:0,0:0:0:0:
35,303,51960,6,0,B|172:333|172:333|242:313,1,200,0|0,1:0|1:0,0:0:0:0:
287,139,52512,2,0,L|292:250,1,100,2|0,0:0|0:3,0:0:0:0:
115,90,52880,101,0,1:0:0:0:
359,109,53064,2,0,L|365:208,1,75.0000028610231
452,41,53248,6,0,B|418:17|418:17|278:43|278:43|240:101,1,225.000008583069,4|0,0:0|0:0,0:0:0:0:
235,218,53616,101,4,0:1:0:0:
88,170,53800,6,0,L|171:168,1,75.0000028610231,2|0,0:0|0:0,0:0:0:0:
307,260,53984,2,0,L|390:262,1,75.0000028610231,2|0,0:0|0:0,0:0:0:0:
255,77,54168,2,0,L|172:75,1,75.0000028610231,8|0,0:0|0:0,0:0:0:0:
381,261,54352,102,0,L|497:263,1,112.500004291535,2|0,1:1|0:0,0:0:0:0:
339,108,54721,1,2,0:0:0:0:
168,262,54905,5,0,1:0:0:0:
184,275,55273,2,0,B|285:271|285:271|294:263|294:263|388:260,1,200,0|2,1:0|0:0,0:0:0:0:
213,129,55825,101,0,1:0:0:0:
415,337,56009,2,0,L|330:339,1,75.0000028610231,2|0,0:3|0:0,0:0:0:0:
130,205,56193,6,0,L|250:202,1,112.500004291535,2|0,0:1|0:0,0:0:0:0:
381,260,56561,101,2,0:0:0:0:
285,64,56745,1,2,0:0:0:0:
308,71,56929,1,2,0:0:0:0:
130,205,57113,1,2,0:0:0:0:
301,49,57297,1,0,1:0:0:0:
229,248,57481,6,0,L|213:311,1,50,2|0,0:0|0:0,0:0:0:0:
268,258,57665,2,0,L|254:318,1,50,2|0,0:0|0:0,0:0:0:0:
130,205,57849,102,0,B|154:167|154:167|223:153|223:153|253:172,1,150.000005722046,0|0,1:0|1:0,0:0:0:0:
387,208,58401,2,0,B|337:220|337:220|296:197,1,75.0000028610231,2|0,0:0|3:0,0:0:0:0:
447,44,58770,6,0,B|478:85|487:121|488:159|466:204|466:204|462:181|453:153|426:131,1,225.000008583069,0|0,1:0|0:0,0:0:0:0:
375,60,59138,102,0,P|296:64|372:121,1,225.000008583069,2|0,0:1|0:0,0:0:0:0:
230,15,59506,6,0,B|177:6|177:6|124:10,1,100,4|0,0:1|0:0,0:0:0:0:
155,209,59874,1,0,0:0:0:0:
292,99,60058,1,4,0:1:0:0:
54,90,60242,102,0,B|39:166|39:166|51:240,2,150.000005722046,0|2|2,1:0|0:0|0:0,0:0:0:0:
292,99,60794,6,0,B|322:153|322:153|292:307,2,200,0|0|2,1:0|1:0|0:0,0:0:0:0:
160,54,61714,101,0,1:0:0:0:
91,210,61898,2,0,L|86:312,1,75.0000028610231,0|0,3:0|0:0,0:0:0:0:
60,169,62082,6,0,L|51:334,1,150,2|0,0:1|0:0,0:0:0:0:
150,363,62451,102,0,B|181:369|181:369|230:363,1,50
325,317,62635,1,8,0:0:0:0:
330,153,62819,6,0,B|332:217|332:217|325:239|325:239|329:324,1,150.000005722046,2|2,0:1|0:0,0:0:0:0:
245,100,63187,102,0,B|137:106|137:106|95:83,2,150.000005722046,0|2|2,1:0|0:0|0:0,0:0:0:0:
238,265,63739,6,0,B|138:250|138:250|36:281,2,200,0|0|2,1:0|1:0|0:0,0:0:0:0:
344,89,64659,2,0,L|215:102,1,100,0|0,1:0|0:0,0:0:0:0:
426,251,65027,102,0,B|458:149|424:84|424:84|422:112|403:155,1,225.000008583069,8|0,0:3|0:0,0:0:0:0:
321,281,65395,5,2,0:1:0:0:
321,281,65947,1,2,0:1:0:0:
214,165,66132,102,0,B|139:151|139:151|57:158,2,150.000005722046,0|2|2,1:0|0:0|0:0,0:0:0:0:
321,281,66684,6,0,B|271:297|271:297|121:277,2,200,0|0|2,1:0|1:0|0:0,0:0:0:0:
372,91,67604,101,0,1:0:0:0:
434,224,67788,2,0,L|439:326,1,75.0000028610231,4|0,0:3|0:0,0:0:0:0:
465,183,67972,6,0,L|474:348,1,150,8|0,0:3|0:0,0:0:0:0:
378,345,68340,101,2,0:0:0:0:
356,106,68524,1,2,0:0:0:0:
379,113,68708,1,2,0:0:0:0:
201,277,68892,1,2,0:0:0:0:
370,90,69076,2,0,B|352:167|352:167|314:237,2,150.000005722046,0|2|2,1:0|0:0|0:0,0:0:0:0:
449,181,69628,6,0,B|456:315|456:315|492:380,2,200,0|0|8,1:0|1:0|0:0,0:0:0:0:
308,120,70549,101,8,0:0:0:0:
176,125,70733,1,8,0:0:0:0:
66,168,70917,1,8,0:0:0:0:
10,254,71101,1,8,0:0:0:0:
4,341,71285,5,4,0:1:0:0:
118,229,82328,5,0,1:0:0:0:
239,66,82512,1,0,1:0:0:0:
247,100,82604,1,0,1:0:0:0:
255,133,82696,1,0,1:0:0:0:
86,22,82880,1,0,1:0:0:0:
46,148,83064,6,0,L|43:197,1,50
141,298,83248,1,0,0:0:0:0:
141,298,83340,1,0,0:0:0:0:
141,298,83432,2,0,L|138:249,1,50
186,120,83616,1,0,0:0:0:0:
186,120,83708,1,0,0:0:0:0:
186,120,83800,6,0,P|224:133|244:133,1,50
363,81,83984,2,0,P|338:84|315:94,1,50
294,177,84168,2,0,L|299:247,1,50
384,309,84352,2,0,L|389:239,1,50
427,166,84536,6,0,P|425:117|388:86,1,100
268,36,84813,1,0,0:0:0:0:
246,47,84905,2,0,L|146:50,1,100
51,124,85181,1,0,0:0:0:0:
39,147,85273,6,0,P|29:186|29:220,1,50
162,163,85457,2,0,P|133:134|103:117,1,50
88,257,85641,2,0,P|126:246|156:229,1,50
257,231,85825,2,0,P|233:221|209:216,1,50
88,257,86009,6,0,P|75:304|75:326,1,50
209,334,86193,1,0,0:0:0:0:
209,334,86285,1,0,0:0:0:0:
209,334,86377,2,0,P|204:309|195:286,1,50
93,188,86561,1,0,0:0:0:0:
93,188,86653,1,0,0:0:0:0:
93,188,86745,6,0,L|161:185,1,50
262,151,86929,2,0,L|194:148,1,50
155,63,87113,2,0,L|152:131,1,50
206,270,87297,2,0,L|203:202,1,50
39,121,87481,6,0,P|14:163|13:213,1,100
91,306,87757,1,0,0:0:0:0:
113,298,87849,2,0,P|162:271|213:271,1,100
298,305,88125,1,0,0:0:0:0:
311,332,88217,6,0,L|303:230,1,100
313,42,88586,1,0,0:0:0:0:
317,106,88678,1,0,0:0:0:0:
370,165,88770,1,0,0:0:0:0:
366,229,88862,1,0,0:0:0:0:
409,300,88954,5,8,0:0:0:0:
486,185,89138,1,8,0:0:0:0:
419,58,89322,1,8,0:0:0:0:
508,186,89506,1,8,0:0:0:0:
406,326,89690,5,8,0:0:0:0:
323,193,89874,1,8,0:0:0:0:
422,29,90058,1,8,0:0:0:0:
292,191,90242,1,8,0:0:0:0:
405,357,90426,5,8,0:0:0:0:
368,362,90518,1,0,0:0:0:0:
332,352,90610,1,8,0:0:0:0:
303,328,90702,1,0,0:0:0:0:
283,297,90794,1,8,0:0:0:0:
261,266,90886,1,0,0:0:0:0:
229,247,90978,1,8,0:0:0:0:
192,242,91070,1,0,0:0:0:0:
155,247,91162,5,8,0:0:0:0:
203,234,91254,1,0,0:0:0:0:
241,203,91346,1,8,0:0:0:0:
262,158,91438,1,0,0:0:0:0:
262,108,91530,1,8,0:0:0:0:
241,63,91622,1,0,0:0:0:0:
203,31,91714,1,8,0:0:0:0:
155,18,91806,1,0,0:0:0:0:
105,27,91898,6,0,B|94:140|94:140|76:151|76:151|73:189|73:189|88:202|88:202|81:282|81:282|143:340,1,350
177,250,93371,6,0,B|205:228|205:228|239:237|239:237|268:215|268:215|302:225|302:225|331:203|331:203|365:213|365:213|393:191,1,225.000008583069
452,183,93739,6,0,P|414:112|376:205,1,225.000008583069
418,306,94107,5,0,0:0:0:0:
248,308,94291,1,0,0:0:0:0:
284,314,94383,1,0,0:0:0:0:
320,321,94475,1,0,0:0:0:0:
159,333,94659,1,0,0:0:0:0:
213,64,94843,6,0,B|236:122|191:169|138:162|138:162|86:156|41:203|66:273,1,300
164,336,95211,6,0,B|166:284|166:284|128:229,1,112.500004291535
115,82,95579,6,0,P|118:136|135:61,1,300
41,129,95947,6,0,P|63:177|97:209,1,100
281,245,96132,2,0,P|260:199|225:164,1,100
97,209,96316,6,0,L|86:320,1,100
290,344,96500,2,0,L|279:233,1,100
142,47,96684,6,0,B|160:118|218:151|218:151|225:166|225:166|231:151|231:151|297:122|317:48,1,300
232,59,97052,6,0,B|230:117|225:166|225:166|281:135|319:162|319:162|359:193|415:169,1,300
410,31,97420,6,0,P|369:57|366:105,1,100
254,300,97604,2,0,P|287:265|279:218,1,100
126,207,97788,5,0,0:0:0:0:
35,288,97972,6,0,B|16:336|16:336|10:394,1,100
158,327,98156,2,0,B|209:319|209:319|262:295,1,100
126,207,98340,2,0,B|93:166|93:166|46:132,1,100
106,277,98524,6,0,B|139:296|158:328|158:328|179:254|224:211|290:191|290:191|291:224|265:244,1,300
257,351,98892,6,0,L|252:384,1,25
324,365,99076,2,0,L|327:340,1,25
400,329,99260,2,0,L|395:362,1,25
467,343,99444,2,0,L|470:318,1,25
411,255,99628,6,0,B|401:294|401:294|399:328,1,75
466,188,99997,6,0,P|413:168|353:177,1,100
293,61,100181,2,0,P|342:62|388:43,1,100
466,188,100365,6,0,P|410:176|352:194,1,100
293,61,100549,2,0,P|342:55|384:29,1,100
172,28,100733,6,0,B|152:75|165:135|215:162|215:162|207:219|232:273|280:294,1,300
212,163,101101,6,0,B|189:167|189:167|175:166|175:166|155:173|155:173|133:174|133:174|115:184|115:184|100:187,1,112.500004291535
71,239,101469,6,0,P|161:182|42:188,1,300
129,272,101837,6,0,B|170:317|170:317|151:351|151:351|117:332|117:332|129:272,1,200
71,103,102021,2,0,B|29:57|29:57|48:23|48:23|82:42|82:42|71:103,1,200
160,172,102205,6,0,B|205:130|205:130|239:149|239:149|220:183|220:183|160:172,1,200
46,210,102389,2,0,B|0:251|0:251|-33:232|-33:232|-14:198|-14:198|46:210,1,200
218,37,102573,6,0,B|349:111|349:111|281:244,1,300
153,348,102941,6,0,B|138:336|138:336|126:334|126:334|113:337|113:337|90:333|90:333|83:322|83:322|47:314,1,112.500004291535
206,185,103309,6,0,L|216:284,1,100
35,210,103494,2,0,L|115:151,1,100
195,95,103678,5,0,0:0:0:0:
377,57,103862,6,0,P|402:14|399:72,1,150.000005722046
428,156,104046,2,0,P|468:144|433:177,1,125
410,258,104230,2,0,P|439:274|400:273,1,100
324,318,104414,6,0,P|326:343|310:318,1,75
314,217,104782,6,0,L|318:117,1,100
175,35,104966,2,0,L|179:135,1,100
141,254,105150,6,0,L|111:280,1,37.5000014305115
141,254,105242,2,0,L|179:265,1,37.5000014305115
141,254,105334,6,0,L|134:214,3,37.5000014305115
86,163,105518,1,0,0:0:0:0:
260,307,105702,2,0,L|269:254,3,37.5000014305115
314,217,105886,5,0,0:0:0:0:
353,186,105978,1,0,0:0:0:0:
399,168,106070,1,0,0:0:0:0:
449,164,106162,1,0,0:0:0:0:
498,175,106254,5,0,0:0:0:0:
447,139,106346,1,0,0:0:0:0:
388,117,106438,1,0,0:0:0:0:
326,113,106530,1,0,0:0:0:0:
265,124,106622,5,0,0:0:0:0:
265,124,106990,6,0,B|269:100|259:85|239:77|239:77|242:64|242:64|239:77|239:77|216:72|195:73|175:103|174:117|176:134|187:150|205:161|205:161|229:175|236:207|226:231|206:246|185:250|165:246|165:246|161:262|161:262|164:246|164:246|145:239|125:222|131:189|147:174,1,450.000017166138
299,208,107359,6,0,B|293:253|273:287|234:311|234:311|371:321|371:321|354:300|352:275,1,300
373,120,107727,6,0,B|350:59|350:59|418:72|418:72|373:120,1,200
415,227,107911,2,0,B|478:237|478:237|433:290|433:290|415:227,1,200
299,208,108095,2,0,B|257:257|257:257|234:192|234:192|299:208,1,200
377,96,108279,2,0,B|354:35|354:35|422:48|422:48|377:96,1,200
415,227,108463,6,0,B|408:188|408:188|421:154,1,75
487,120,108831,2,0,B|494:159|494:159|481:193,1,75
415,227,109199,6,0,L|420:153,1,75.0000028610231
487,120,109383,2,0,L|482:194,1,75.0000028610231
410,299,109567,5,0,0:0:0:0:
273,200,109751,6,0,P|285:156|297:212,1,100
173,203,109935,2,0,P|173:150|219:81,1,100
83,248,110119,2,0,P|69:183|74:120,1,100
293,273,110303,6,0,B|261:332|213:344|213:344|210:349|210:349|205:345|205:345|163:356|97:317,1,225.000008583069
69,149,110671,6,0,L|72:124,1,25
142,114,110855,2,0,L|139:139,1,25
212,127,111039,2,0,L|215:102,1,25
284,92,111223,2,0,L|281:117,1,25
209,201,111408,6,0,B|205:162|205:162|212:124,1,75
330,26,111776,6,0,L|434:37,1,100
477,138,111960,2,0,L|373:127,1,100
330,26,112144,6,0,L|434:20,1,100
477,138,112328,2,0,L|372:143,1,100
231,204,112512,5,0,0:0:0:0:
113,233,112696,1,0,0:0:0:0:
143,106,112880,2,0,P|155:146|155:169,1,50
32,235,113248,2,0,P|35:210|44:187,1,50
266,95,113616,1,0,0:0:0:0:
266,95,113800,6,0,B|314:84|308:140|368:127,1,100
428,73,114352,2,0,P|445:107|448:128,1,50
237,218,114721,2,0,P|243:193|256:172,1,50
433,275,115089,2,0,L|375:281,1,50
265,354,115457,6,0,B|291:359|305:355|322:332|322:332|337:344|354:345|373:345,2,100
195,256,116561,2,0,B|169:273|159:293|159:293|149:221|161:154|161:154|65:128|39:163|36:202|85:221|85:221|99:78,1,500,0|4,0:0|0:0,0:0:0:0:
65,63,130181,5,0,0:0:0:0:
58,140,130365,1,0,0:0:0:0:
137,26,130549,1,0,0:0:0:0:
121,194,130733,1,0,0:0:0:0:
201,75,130917,1,0,0:0:0:0:
194,153,131101,1,0,0:0:0:0:
274,122,131285,1,0,0:0:0:0:
201,60,131469,1,0,0:0:0:0:
359,65,131653,5,0,0:0:0:0:
284,123,131837,1,0,0:0:0:0:
375,186,132021,1,0,0:0:0:0:
354,278,132205,1,0,0:0:0:0:
484,193,132389,1,0,0:0:0:0:
463,101,132573,1,0,0:0:0:0:
290,219,132757,2,0,P|250:220|206:213,1,75.0000028610231
180,83,133125,5,0,0:0:0:0:
87,185,133309,1,0,0:0:0:0:
215,215,133494,1,0,0:0:0:0:
98,104,133678,1,0,0:0:0:0:
11,209,133862,1,0,0:0:0:0:
162,159,134046,1,0,0:0:0:0:
23,129,134230,1,0,0:0:0:0:
72,259,134414,1,0,0:0:0:0:
263,144,134598,6,0,P|289:170|302:205,1,75.0000028610231
173,352,134966,2,0,P|186:317|212:290,1,75.0000028610231
418,321,135334,2,0,P|381:326|345:317,1,75.0000028610231
392,171,135702,1,0,0:0:0:0:
495,357,135886,1,0,0:0:0:0:
263,218,136070,6,0,B|354:204|319:264|424:249,1,150.000005722046
486,109,136622,1,0,0:0:0:0:
372,8,136806,2,0,P|366:55|372:95,1,75.0000028610231
512,274,137174,2,0,P|514:236|508:199,1,75.0000028610231
286,105,137543,5,0,0:0:0:0:
191,129,137727,1,0,0:0:0:0:
284,285,137911,1,0,0:0:0:0:
257,190,138095,1,0,0:0:0:0:
224,348,138279,1,0,0:0:0:0:
319,372,138463,1,0,0:0:0:0:
194,258,138647,2,0,P|156:263|122:277,1,75.0000028610231
35,349,139015,6,0,B|50:308|41:267|41:267|30:227|45:188,2,150.000005722046
124,185,140119,2,0,P|92:134|53:118,1,75.0000028610231
231,18,140487,6,0,P|202:42|187:76,1,75.0000028610231
281,229,140855,1,0,0:0:0:0:
340,32,141040,1,0,0:0:0:0:
81,127,141224,85,0,1:0:0:0:
214,281,141408,1,0,1:0:0:0:
208,256,141500,1,0,1:0:0:0:
202,232,141592,1,0,1:0:0:0:
266,89,141776,1,0,1:0:0:0:
381,180,141960,38,0,L|310:171,1,50,8|0,0:0|0:0,0:0:0:0:
198,125,142144,1,2,0:0:0:0:
198,125,142236,1,0,0:0:0:0:
198,125,142328,2,0,P|188:93|189:66,1,50,8|0,0:0|0:0,0:0:0:0:
67,35,142512,1,2,0:0:0:0:
67,35,142604,1,0,0:0:0:0:
67,35,142696,6,0,L|0:40,1,50,8|0,0:0|0:0,0:0:0:0:
15,141,142880,2,0,L|64:144,1,50,2|0,0:0|0:0,0:0:0:0:
64,260,143064,2,0,L|-3:265,1,50,8|0,0:0|0:0,0:0:0:0:
12,366,143248,2,0,L|61:369,1,50,2|0,0:0|0:0,0:0:0:0:
184,315,143432,6,0,P|199:246|195:182,1,100,8|2,0:0|0:0,0:0:0:0:
166,119,143709,1,0,0:0:0:0:
166,119,143801,2,0,L|293:127,1,100,8|2,0:0|0:0,0:0:0:0:
357,85,144077,1,0,0:0:0:0:
357,85,144169,6,0,L|415:81,1,50,8|0,0:0|0:0,0:0:0:0:
387,196,144353,2,0,L|337:192,1,50,2|0,0:0|0:0,0:0:0:0:
266,25,144537,2,0,L|324:21,1,50,8|0,0:0|0:0,0:0:0:0:
436,199,144721,2,0,L|386:195,1,50,2|0,0:0|0:0,0:0:0:0:
231,258,144905,6,0,P|266:260|303:253,1,50,8|0,0:0|0:0,0:0:0:0:
381,128,145089,1,2,0:0:0:0:
381,128,145181,1,0,0:0:0:0:
381,128,145273,2,0,P|365:96|340:68,1,50,8|0,0:0|0:0,0:0:0:0:
160,79,145457,1,2,0:0:0:0:
160,79,145549,1,0,0:0:0:0:
160,79,145641,6,0,P|140:108|128:143,1,50,8|0,0:0|0:0,0:0:0:0:
163,228,145825,2,0,P|152:250|137:270,1,50,2|0,0:0|0:0,0:0:0:0:
28,329,146009,2,0,L|103:334,1,50,8|0,0:0|0:0,0:0:0:0:
261,308,146193,2,0,L|195:315,1,50,2|0,0:0|0:0,0:0:0:0:
357,284,146377,38,0,P|381:231|382:169,1,100,8|2,0:0|0:0,0:0:0:0:
253,101,146653,1,0,0:0:0:0:
253,101,146745,2,0,L|384:111,1,100,8|2,0:0|0:0,0:0:0:0:
448,30,147021,1,0,0:0:0:0:
448,30,147113,6,0,L|452:91,1,50,8|0,0:0|0:0,0:0:0:0:
454,230,147297,2,0,L|458:169,1,50,2|0,0:0|0:0,0:0:0:0:
372,1,147482,2,0,L|376:62,1,50,8|0,0:0|0:0,0:0:0:0:
450,279,147666,2,0,L|454:218,1,50,2|0,0:0|0:0,0:0:0:0:
352,108,147850,5,8,0:0:0:0:
297,258,148034,1,8,0:0:0:0:
454,230,148218,1,8,0:0:0:0:
352,108,148402,1,8,0:0:0:0:
297,258,148586,5,8,0:0:0:0:
195,136,148770,1,8,0:0:0:0:
352,108,148954,1,8,0:0:0:0:
297,258,149138,1,8,0:0:0:0:
130,288,149322,5,8,0:0:0:0:
105,284,149414,1,0,0:0:0:0:
80,281,149506,2,0,L|5:273,1,50,8|0,0:0|0:0,0:0:0:0:
155,360,149690,2,0,L|218:355,1,50,8|0,0:0|0:0,0:0:0:0:
337,328,149874,5,8,0:0:0:0:
386,319,149966,1,0,0:0:0:0:
420,283,150058,1,8,0:0:0:0:
417,233,150150,1,0,0:0:0:0:
382,196,150242,1,8,0:0:0:0:
333,184,150334,1,0,0:0:0:0:
298,147,150426,1,8,0:0:0:0:
295,97,150518,1,0,0:0:0:0:
329,61,150610,1,8,0:0:0:0:
378,52,150702,1,0,0:0:0:0:
454,99,150794,38,0,B|461:196|461:196|456:219|456:219|468:344|468:344|394:296,1,329.9999899292,4|0,0:0|0:0,0:0:0:0:
272,205,153003,5,0,1:0:0:0:
444,89,153187,1,0,1:0:0:0:
422,82,153279,1,0,1:0:0:0:
400,75,153371,1,0,1:0:0:0:
463,268,153555,1,0,1:0:0:0:
197,132,153739,70,0,L|46:118,1,150.000005722046,4|0,0:1|0:0,0:0:0:0:
384,282,154107,6,0,B|206:269|206:269|245:307,1,225.000008583069,2|2,0:0|0:0,0:0:0:0:
414,354,154475,101,0,1:0:0:0:
428,169,154659,2,2,L|483:172,2,50
414,354,155028,5,0,1:0:0:0:
399,349,155396,2,0,B|297:341|297:341|217:331|235:237,1,200,0|0,1:0|0:0,0:0:0:0:
201,88,155948,102,0,B|226:53|226:53|239:195|239:195|204:161,1,225.000008583069,2|0,1:1|0:0,0:0:0:0:
79,32,156316,2,0,L|169:28,1,75.0000028610231,2|0,0:1|0:0,0:0:0:0:
380,108,156500,2,0,L|290:112,1,75.0000028610231,2|0,0:1|0:0,0:0:0:0:
167,242,156684,5,0,0:0:0:0:
389,263,156868,1,2,0:0:0:0:
199,248,157052,102,0,B|266:252|266:252|283:262|283:262|365:266,1,150.000005722046,2|0,0:1|0:0,0:0:0:0:
96,106,157420,6,0,B|73:152|73:152|81:207,1,100,0|0,1:0|0:0,0:0:0:0:
209,324,157788,1,0,0:0:0:0:
314,185,157972,102,0,B|315:133|315:133|348:88,1,100,0|0,1:0|0:0,0:0:0:0:
389,263,158340,2,0,B|415:218|415:218|465:195,1,100,0|0,1:0|0:0,0:0:0:0:
209,324,158709,1,2,0:0:0:0:
138,177,158893,6,0,P|132:143|136:99,1,75.0000028610231,8|0,1:2|0:0,0:0:0:0:
277,235,159077,2,0,P|310:219|339:195,1,75.0000028610231,8|0,0:0|0:0,0:0:0:0:
311,38,159261,2,0,P|295:27|278:20,6,37.5000014305115,8|0|8|8|8|0|8,0:0|0:0|0:0|0:0|0:0|0:0|0:0,0:0:0:0:
395,2,159629,102,0,B|400:69|400:69|394:84|394:84|401:167,1,150.000005722046,4|0,0:1|0:0,0:0:0:0:
346,346,159997,2,0,L|341:262,1,75.0000028610231,2|0,0:0|0:0,0:0:0:0:
467,109,160181,2,0,L|473:200,1,75.0000028610231
277,314,160365,6,0,L|270:193,1,112.500004291535,0|0,1:0|0:0,0:0:0:0:
150,60,160733,1,2,0:0:0:0:
71,221,160917,101,0,1:0:0:0:
81,234,161285,2,0,B|181:232|181:232|215:203|215:203|292:201,1,200,0|2,1:0|0:0,0:0:0:0:
371,60,161837,6,0,P|412:37|373:107,1,225.000008583069,2|0,1:1|0:0,0:0:0:0:
291,75,162205,2,0,P|289:31|310:-7,1,75.0000028610231,2|0,0:1|0:0,0:0:0:0:
352,198,162390,2,0,P|390:218|414:256,1,75.0000028610231,2|0,0:1|0:0,0:0:0:0:
263,245,162574,101,2,0:0:0:0:
167,49,162758,1,2,0:0:0:0:
190,56,162942,1,2,0:0:0:0:
12,190,163126,1,2,0:0:0:0:
185,36,163310,6,0,B|161:107|161:107|170:129|170:129|154:175|154:175|132:188|132:188|109:248,1,225.000008583069,0|0,1:0|0:0,0:0:0:0:
110,311,163678,1,2,0:0:0:0:
239,207,163862,102,0,B|285:68|285:68|245:6,2,200,0|0|2,1:0|1:0|0:0,0:0:0:0:
318,295,164782,6,0,B|300:243|311:199|332:174|363:153|363:153|352:194|364:223,1,225.000008583069,2|2,0:3|0:1,0:0:0:0:
412,299,165150,102,0,P|442:365|449:276,1,225.000008583069,8|0,0:3|0:0,0:0:0:0:
318,295,165518,6,0,P|265:301|209:293,1,100,4|0,0:1|0:0,0:0:0:0:
30,61,165886,2,0,P|61:103|82:156,1,100,2|2,0:0|0:0,0:0:0:0:
116,253,166163,1,2,0:0:0:0:
130,264,166255,2,0,L|126:328,1,50,2|0,1:2|0:0,0:0:0:0:
211,144,166439,102,0,L|203:48,1,75.0000028610231,8|0,0:0|0:0,0:0:0:0:
357,140,166623,2,0,L|361:224,1,75.0000028610231,8|0,0:0|0:0,0:0:0:0:
266,321,166807,6,0,B|212:338|212:338|55:300,2,200,0|0|2,1:0|1:0|0:0,0:0:0:0:
296,177,167727,101,0,1:0:0:0:
99,78,167911,2,0,L|104:180,1,75.0000028610231,0|0,3:0|0:0,0:0:0:0:
130,37,168095,6,0,L|139:202,1,150,2|0,0:1|0:0,0:0:0:0:
207,341,168463,102,0,B|157:337|157:337|104:350,1,100,0|8,0:0|0:0,0:0:0:0:
219,325,168831,6,0,B|314:308|314:308|334:268|334:268|420:252,1,225.000008583069,2|0,0:0|0:0,0:0:0:0:
475,167,169199,102,0,P|483:117|472:65,1,100,0|2,1:0|0:0,0:0:0:0:
312,34,169567,1,2,0:0:0:0:
194,169,169751,6,0,B|43:194|43:194|-9:172,2,200,0|0|2,1:0|1:0|0:0,0:0:0:0:
390,128,170672,102,0,B|429:138|429:138|453:167,1,75.0000028610231,8|0,1:2|0:0,0:0:0:0:
267,189,170856,2,0,B|255:222|255:222|266:261,1,75.0000028610231,8|0,0:0|0:0,0:0:0:0:
386,316,171040,2,0,B|403:313|403:313|417:298,6,37.5000014305115,8|0|8|0|8|0|8,0:0|0:0|0:0|0:0|0:0|0:0|0:0,0:0:0:0:
299,346,171408,6,0,B|233:339|233:339|220:324|220:324|151:315,1,150.000005722046,4|0,0:1|0:0,0:0:0:0:
155,134,171776,1,2,0:0:0:0:
138,318,171960,1,0,0:0:0:0:
167,126,172144,102,0,L|294:137,1,112.500004291535,0|0,1:0|0:0,0:0:0:0:
358,169,172512,1,2,0:0:0:0:
432,304,172696,6,0,B|458:261|458:261|444:108,2,200,0|0|2,1:0|1:0|0:0,0:0:0:0:
324,286,173617,102,0,B|235:280|235:280|185:259|185:259|95:251,1,225.000008583069,2|0,1:1|0:0,0:0:0:0:
268,208,173985,2,0,L|358:215,1,75.0000028610231,2|0,0:1|0:0,0:0:0:0:
162,328,174169,2,0,L|78:320,1,75.0000028610231,2|0,0:1|0:0,0:0:0:0:
17,263,174353,5,2,0:0:0:0:
113,67,174537,1,2,0:0:0:0:
90,74,174721,1,2,0:0:0:0:
268,208,174905,1,2,0:0:0:0:
95,52,175089,102,0,B|119:97|119:97|215:119|215:119|264:89,1,200,0|2,1:0|0:0,0:0:0:0:
449,100,175641,6,0,B|299:70|299:70|251:95,2,200,0|0|0,1:0|1:0|1:0,0:0:0:0:
472,248,176561,1,8,0:0:0:0:
368,295,176745,1,8,0:0:0:0:
278,240,176929,1,8,0:0:0:0:
206,275,177113,1,8,0:0:0:0:
80,131,177297,6,0,L|89:45,1,75.0000028610231,0|0,1:0|0:0,0:0:0:0:
119,246,177665,2,0,L|128:332,1,75.0000028610231,0|0,1:0|0:0,0:0:0:0:
295,162,178033,2,0,L|132:175,1,150.000005722046,0|0,1:0|1:0,0:0:0:0:
46,289,178585,1,0,0:0:0:0:
211,323,178769,5,0,1:0:0:0:
218,310,179137,2,0,P|251:292|295:287,1,75.0000028610231,0|0,1:0|0:0,0:0:0:0:
362,165,179505,2,0,P|395:182|432:188,1,75.0000028610231,0|0,1:0|0:0,0:0:0:0:
385,38,179873,1,0,1:0:0:0:
279,157,180058,1,0,1:0:0:0:
383,258,180242,102,0,L|392:346,1,75.0000028610231,0|0,1:0|0:0,0:0:0:0:
337,154,180610,2,0,L|345:80,1,75.0000028610231,0|0,1:0|0:0,0:0:0:0:
449,191,180978,1,0,1:0:0:0:
304,284,181162,1,0,0:0:0:0:
200,125,181346,2,0,L|192:199,1,75.0000028610231,0|0,1:0|0:0,0:0:0:0:
296,298,181714,5,0,1:0:0:0:
287,311,182082,2,0,P|238:320|208:315,1,75.0000028610231,0|0,1:0|0:0,0:0:0:0:
394,179,182450,2,0,P|345:170|315:175,1,75.0000028610231,0|0,1:0|0:0,0:0:0:0:
206,271,182818,1,0,1:0:0:0:
303,182,183002,1,0,1:0:0:0:
62,93,183186,102,0,L|67:7,1,75.0000028610231,0|0,1:0|0:0,0:0:0:0:
201,197,183554,2,0,L|206:283,1,75.0000028610231,0|0,1:0|0:0,0:0:0:0:
53,174,183923,2,0,B|108:166|135:132|196:121,1,150.000005722046,0|0,1:0|1:0,2:0:0:0:
336,206,184475,1,0,0:0:0:0:
205,302,184659,5,0,1:0:0:0:
194,288,185027,2,0,P|186:242|193:200,1,75.0000028610231,0|0,1:0|0:0,0:0:0:0:
336,206,185395,2,0,P|344:160|337:118,1,75.0000028610231,0|0,1:0|0:0,0:0:0:0:
205,302,185763,2,0,P|197:348|204:390,1,75.0000028610231,0|0,1:0|0:0,0:0:0:0:
250,168,186131,102,0,B|193:142|132:169|132:169|138:141|156:115,1,150.000005722046,0|0,1:0|1:0,0:0:0:0:
226,38,186683,1,0,0:0:0:0:
338,117,186867,2,0,P|385:117|420:106,1,75.0000028610231,0|0,1:0|0:0,0:0:0:0:
256,192,187236,12,0,194874,0:0:0:0:
