osu file format v14

[General]
AudioFilename: audio.mp3
AudioLeadIn: 0
PreviewTime: 117834
Countdown: 0
SampleSet: Soft
StackLeniency: 0.3
Mode: 0
LetterboxInBreaks: 0
WidescreenStoryboard: 1

[Editor]
DistanceSpacing: 1
BeatDivisor: 2
GridSize: 16
TimelineZoom: 1.7

[Metadata]
Title:Emoji
TitleUnicode:Emoji
Artist:Pegboard Nerds
ArtistUnicode:Pegboard Nerds
Creator:Picrazo
Version:Easy
Source:
Tags:
BeatmapID:2115864
BeatmapSetID:1010800

[Difficulty]
HPDrainRate:2
CircleSize:3
OverallDifficulty:2
ApproachRate:4
SliderMultiplier:0.999999999999999
SliderTickRate:1

[Events]
//Background and Video events
0,0,"Emoji.jpg",0,0
//Break Periods
2,44414,45839
2,70917,81176
//Storyboard Layer 0 (Background)
//Storyboard Layer 1 (Fail)
//Storyboard Layer 2 (Pass)
//Storyboard Layer 3 (Foreground)
//Storyboard Sound Samples

[TimingPoints]
43,368.098159509202,4,2,0,100,1,0
11822,-100,4,2,0,100,0,0
35380,-100,4,2,0,100,0,0
47159,-100,4,2,0,100,0,1
58938,-100,4,2,0,100,0,1
70717,-100,4,2,0,100,0,0
82496,-100,4,2,0,100,0,0
94276,-100,4,2,0,100,0,1
117834,-100,4,2,0,100,0,1
141392,-100,4,2,0,100,0,0

[Colours]
Combo1 : 179,0,0
Combo2 : 255,255,128
Combo3 : 94,174,255
Combo4 : 202,215,221
Combo5 : 180,220,200
Combo6 : 255,157,206
Combo7 : 255,125,255
Combo8 : 0,128,192

[HitObjects]
23,60,11822,6,0,B|130:90|208:26|323:62,1,300,2|2,0:0|0:0,0:0:0:0:
320,61,14398,1,0,0:0:0:0:
416,36,14766,2,0,B|419:205|344:116|350:249|418:171|415:331,1,300,2|2,0:0|0:0,0:0:0:0:
415,317,17343,1,0,0:0:0:0:
316,336,17711,6,0,B|268:204|441:211|366:60,1,300,2|2,0:0|0:0,0:0:0:0:
366,62,19552,1,0,0:0:0:0:
269,37,19920,1,2,0:0:0:0:
175,73,20288,1,0,0:0:0:0:
77,50,20656,2,0,P|54:115|61:154,1,99.9999999999999,2|0,0:0|0:0,0:0:0:0:
57,144,21760,2,0,B|357:146|145:207|461:214,1,400,2|0,0:0|0:0,0:0:0:0:
472,117,23601,6,0,P|442:67|307:42,1,200,0|8,1:0|0:0,0:0:0:0:
250,119,24705,1,2,0:0:0:0:
165,65,25073,2,0,P|74:55|21:140,1,200,0|8,1:0|0:0,0:0:0:0:
69,225,26177,1,2,0:0:0:0:
27,316,26546,2,0,P|133:328|228:317,1,200,0|8,1:0|0:0,0:0:0:0:
259,223,27650,1,2,0:0:0:0:
220,130,28018,2,0,P|319:119|418:131,1,200,2|8,0:0|0:0,0:0:0:0:
407,231,29122,1,2,0:0:0:0:
373,325,29490,6,0,P|274:317|226:228,1,200,0|8,1:0|0:0,0:0:0:0:
297,166,30595,2,0,P|246:84|150:77,1,200,2|2,0:0|0:0,0:0:0:0:
92,159,31699,1,8,0:0:0:0:
122,254,32067,1,2,0:0:0:0:
221,263,32435,2,0,P|294:238|408:275,1,200,0|8,1:0|0:0,0:0:0:0:
477,202,33539,1,2,0:0:0:0:
409,127,33908,6,0,P|397:77|406:22,1,99.9999999999999,2|0,0:1|0:0,0:0:0:0:
303,37,34644,2,0,L|194:36,1,99.9999999999999,0|0,1:0|1:0,0:0:0:0:
108,70,35380,6,0,P|113:133|91:275,1,200,8|8,0:0|0:0,0:0:0:0:
166,335,36484,1,2,0:0:0:0:
242,271,36852,2,0,P|308:281|352:271,2,99.9999999999999,8|8|8,0:0|0:0|0:0,0:0:0:0:
210,175,37957,1,2,0:0:0:0:
263,90,38325,2,0,P|343:100|470:76,1,200,8|8,0:0|0:0,0:0:0:0:
500,170,39429,1,2,0:0:0:0:
434,245,39797,2,0,P|382:233|323:237,2,99.9999999999999,8|8|8,0:0|0:0|0:0,0:0:0:0:
468,338,40901,1,2,0:0:0:0:
371,362,41269,102,0,P|286:328|180:348,1,200,8|8,0:0|0:0,0:0:0:0:
104,283,42374,1,2,0:0:0:0:
152,195,42742,2,0,L|159:96,1,99.9999999999999,8|8,0:0|0:0,0:0:0:0:
249,53,43478,2,0,L|255:163,1,99.9999999999999,8|8,0:0|0:0,0:0:0:0:
309,236,44214,1,4,0:1:0:0:
309,236,47159,6,0,P|371:219|417:226,1,99.9999999999999,4|2,0:1|0:0,0:0:0:0:
383,125,47895,2,0,P|307:122|228:80,2,150,0|0|8,1:0|1:0|0:0,0:0:0:0:
462,186,49368,1,0,1:0:0:0:
457,285,49736,1,2,0:1:0:0:
362,317,50104,2,0,P|290:301|245:306,1,99.9999999999999,2|2,0:0|0:0,0:0:0:0:
181,247,50840,2,0,P|115:248|34:199,2,150,0|0|8,1:0|1:0|0:0,0:0:0:0:
255,180,52312,2,0,L|262:69,1,99.9999999999999,0|2,1:0|0:1,0:0:0:0:
355,113,53049,6,0,P|414:131|452:132,1,99.9999999999999,4|8,0:1|0:0,0:0:0:0:
458,231,53785,2,0,P|389:214|314:251,2,150,2|0|8,1:1|1:0|0:0,0:0:0:0:
457,330,55257,1,0,1:0:0:0:
360,354,55625,1,2,0:1:0:0:
267,316,55993,2,0,P|194:285|65:308,1,200,2|0,0:0|1:0,0:0:0:0:
38,209,57098,2,0,P|54:138|40:63,2,150,8|2|2,0:0|1:2|1:1,0:0:0:0:
77,301,58570,1,8,0:3:0:0:
149,232,58938,6,0,P|175:173|176:123,1,99.9999999999999,4|2,0:1|0:0,0:0:0:0:
243,62,59674,2,0,P|308:69|399:41,2,150,0|0|8,1:0|1:0|0:0,0:0:0:0:
143,51,61147,2,0,L|38:40,1,99.9999999999999,0|2,1:0|0:1,0:0:0:0:
83,132,61883,2,0,P|88:218|79:248,1,99.9999999999999,2|2,0:0|0:0,0:0:0:0:
168,284,62619,2,0,P|110:326|17:309,2,150,0|0|8,1:0|1:0|0:0,0:0:0:0:
221,199,64092,1,0,1:0:0:0:
271,285,64460,1,2,0:1:0:0:
364,238,64828,5,6,0:1:0:0:
258,67,65564,2,0,P|175:60|100:92,2,150,0|0|8,1:0|1:0|0:0,0:0:0:0:
204,151,67036,2,0,P|217:213|206:256,1,99.9999999999999,0|2,1:0|0:1,0:0:0:0:
126,304,67773,2,0,P|113:242|124:199,1,99.9999999999999,2|2,0:0|0:0,0:0:0:0:
204,151,68509,2,0,P|270:139|370:188,2,150,0|0|8,1:0|1:0|0:0,0:0:0:0:
121,94,69981,2,0,P|72:71|21:89,1,99.9999999999999,8|8,0:0|0:0,0:0:0:0:
0,186,70717,5,4,0:1:0:0:
276,186,82496,6,0,P|330:202|484:177,1,200,8|8,0:0|0:0,0:0:0:0:
412,101,83601,1,8,0:0:0:0:
473,22,83969,2,0,P|419:6|265:31,1,200,8|8,0:0|0:0,0:0:0:0:
224,107,85073,1,8,0:0:0:0:
148,41,85441,6,0,P|108:145|203:205,1,200,8|8,0:0|0:0,0:0:0:0:
244,256,86546,1,8,0:0:0:0:
312,182,86914,2,0,P|356:265|298:341,1,200,8|8,0:0|0:0,0:0:0:0:
244,256,88018,1,8,0:0:0:0:
163,196,88386,6,0,P|92:213|-31:157,1,200,8|8,0:0|0:0,0:0:0:0:
34,84,89490,1,8,0:0:0:0:
122,37,89858,2,0,L|242:34,1,99.9999999999999,8|8,0:0|0:0,0:0:0:0:
296,101,90595,2,0,L|416:104,1,99.9999999999999,8|8,0:0|0:0,0:0:0:0:
256,192,91331,12,2,92803,0:1:0:0:
365,61,94276,6,0,P|370:120|361:181,1,99.9999999999999,4|2,0:1|0:0,0:0:0:0:
278,209,95012,2,0,P|209:207|125:245,2,150,0|0|8,1:0|1:0|0:0,0:0:0:0:
349,278,96484,2,0,L|455:274,1,99.9999999999999,2|2,1:1|0:1,0:0:0:0:
489,182,97220,2,0,P|498:117|483:63,1,99.9999999999999,2|2,0:0|0:0,0:0:0:0:
394,59,97957,2,0,P|299:75|230:60,2,150,0|0|2,1:0|1:0|0:0,0:0:0:0:
491,83,99429,1,8,0:0:0:0:
489,182,99797,1,8,0:0:0:0:
403,233,100165,6,0,P|321:215|290:220,1,99.9999999999999,4|2,0:1|0:0,0:0:0:0:
217,263,100901,2,0,P|183:206|185:117,2,150,0|0|8,1:0|1:0|0:0,0:0:0:0:
292,329,102374,2,0,P|374:347|405:342,1,99.9999999999999,2|2,0:1|0:1,0:0:0:0:
470,287,103110,2,0,P|493:221|450:94,1,200,2|0,0:0|1:0,0:0:0:0:
357,115,104214,2,0,P|267:126|203:102,2,150,2|0|2,0:0|1:0|1:0,0:0:0:0:
294,36,105687,1,8,0:3:0:0:
194,28,106055,6,0,P|117:46|72:42,1,99.9999999999999,4|2,0:1|0:0,0:0:0:0:
38,127,106791,2,0,P|48:200|37:284,2,150,2|2|2,1:2|1:2|0:0,0:0:0:0:
135,149,108263,2,0,L|241:146,1,99.9999999999999,0|2,1:0|0:1,0:0:0:0:
335,140,109000,2,0,P|312:213|337:273,1,99.9999999999999,2|2,0:0|0:0,0:0:0:0:
410,200,109736,2,0,P|428:138|379:53,2,150,2|2|2,1:2|1:2|0:0,0:0:0:0:
384,296,111208,1,8,1:2:0:0:
287,322,111576,1,8,0:0:0:0:
222,245,111944,6,0,P|131:234|94:200,1,99.9999999999999,4|2,0:1|0:0,0:0:0:0:
183,148,112681,2,0,P|167:78|101:26,2,150,2|2|2,1:2|1:2|0:0,0:0:0:0:
282,158,114153,2,0,L|396:164,1,99.9999999999999,2|2,0:1|0:1,0:0:0:0:
469,115,114889,2,0,P|485:170|463:227,1,99.9999999999999,2|2,0:0|0:0,0:0:0:0:
387,259,115625,2,0,L|228:250,2,150,0|0|2,1:0|1:0|0:0,0:0:0:0:
444,340,117098,2,0,L|334:345,1,99.9999999999999,2|8,0:1|0:3,0:0:0:0:
250,379,117834,5,4,0:1:0:0:
158,338,118202,2,0,P|128:286|128:232,1,99.9999999999999,2|0,0:0|1:2,0:0:0:0:
188,169,118938,2,0,P|188:117|167:63,2,99.9999999999999,2|0|2,0:0|0:0|0:0,0:0:0:0:
273,221,120042,2,0,L|385:216,1,99.9999999999999,0|2,1:0|0:0,0:0:0:0:
458,164,120779,1,4,0:0:0:0:
395,85,121147,2,0,P|331:77|270:89,1,99.9999999999999,2|0,0:0|1:0,0:0:0:0:
219,145,121883,2,0,P|148:161|92:149,1,99.9999999999999,2|2,0:0|0:0,0:0:0:0:
75,69,122619,2,0,P|0:162|-7:186,2,99.9999999999999,8|0|8,0:0|1:0|0:0,0:0:0:0:
167,31,123723,5,4,0:1:0:0:
260,66,124092,2,0,P|323:75|361:65,1,99.9999999999999,2|0,0:0|1:0,0:0:0:0:
452,98,124828,2,0,L|466:213,2,99.9999999999999,2|0|2,0:0|0:0|0:0,0:0:0:0:
357,66,125932,1,0,1:0:0:0:
325,161,126300,1,2,0:0:0:0:
235,116,126668,2,0,P|168:132|123:126,1,99.9999999999999,4|2,0:0|0:0,0:0:0:0:
89,217,127404,1,0,1:0:0:0:
159,288,127773,2,0,P|217:266|259:269,1,99.9999999999999,2|0,0:0|0:0,0:0:0:0:
349,298,128509,2,0,P|414:302|454:286,2,99.9999999999999,2|0|2,0:0|1:0|0:0,0:0:0:0:
318,202,129613,5,4,0:1:0:0:
240,138,129981,2,0,P|178:136|125:157,1,99.9999999999999,2|0,0:0|1:0,0:0:0:0:
85,229,130717,2,0,P|32:251|-19:249,2,99.9999999999999,2|0|2,0:0|0:0|0:0,0:0:0:0:
174,274,131822,2,0,L|281:282,1,99.9999999999999,0|2,1:0|0:0,0:0:0:0:
360,232,132558,1,4,0:0:0:0:
296,154,132926,2,0,P|288:103|306:57,1,99.9999999999999,2|0,0:0|1:0,0:0:0:0:
388,114,133662,2,0,P|443:112|491:132,1,99.9999999999999,2|0,0:0|0:0,0:0:0:0:
426,208,134398,2,0,P|422:270|402:308,2,99.9999999999999,2|0|2,0:0|1:0|0:0,0:0:0:0:
330,239,135503,5,0,1:0:0:0:
231,221,135871,1,0,1:0:0:0:
134,248,136239,2,0,P|74:261|-28:241,2,150,0|8|0,1:0|0:0|1:0,0:0:0:0:
177,158,137711,2,0,L|186:48,1,99.9999999999999,0|8,1:0|0:0,0:0:0:0:
256,192,138447,12,0,141392,0:0:0:0:
