osu file format v14

[General]
AudioFilename: Pegboard Nerds - Emoji.mp3
AudioLeadIn: 0
PreviewTime: 46423
Countdown: 0
SampleSet: None
StackLeniency: 0.7
Mode: 0
LetterboxInBreaks: 0
WidescreenStoryboard: 0

[Editor]
DistanceSpacing: 1
BeatDivisor: 4
GridSize: 32
TimelineZoom: 0.5

[Metadata]
Title:Emoji
TitleUnicode:Emoji
Artist:Pegboard Nerds
ArtistUnicode:Pegboard Nerds
Creator:Marmowka
Version:Normal
Source:
Tags:future bass glitch hop edm electronic bass pink cloud monstercat nerdnation hacksl
BeatmapID:932426
BeatmapSetID:391823

[Difficulty]
HPDrainRate:3
CircleSize:3
OverallDifficulty:3
ApproachRate:4
SliderMultiplier:0.8
SliderTickRate:1

[Events]
//Background and Video events
0,0,"oboi_3.jpg",0,0
//Break Periods
2,141592,151611
//Storyboard Layer 0 (Background)
//Storyboard Layer 1 (Fail)
//Storyboard Layer 2 (Pass)
//Storyboard Layer 3 (Foreground)
//Storyboard Sound Samples

[TimingPoints]
43,368.098159509202,4,3,1,20,1,0
43,-133.333333333333,4,3,1,20,0,0
11822,-133.333333333333,4,3,1,40,0,0
23601,-111.111111111111,4,3,1,65,0,0
47159,-100,4,3,1,65,0,1
70717,-111.111111111111,4,3,1,65,0,0
82496,-111.111111111111,4,3,1,65,0,0
94276,-100,4,3,1,65,0,1
117834,-100,4,3,1,65,0,0
135503,-111.111111111111,4,3,1,65,0,0
138447,-111.111111111111,4,3,1,65,0,0
153171,-111.111111111111,4,3,1,65,0,0
164950,-111.111111111111,4,3,1,65,0,0
176730,-100,4,3,1,65,0,1
200288,-111.111111111111,4,3,1,65,0,0
217589,-111.111111111111,4,3,1,15,0,0

[Colours]
Combo1 : 123,9,63
Combo2 : 182,12,190
Combo3 : 34,125,238
Combo4 : 215,37,228

[HitObjects]
270,74,43,6,0,B|357:51|357:51|449:81,2,180.000006866455,2|2|0,2:0|2:0|0:0,0:0:0:0:
152,194,2987,6,0,B|172:326|172:326|218:364,2,180.000006866455,2|2|0,2:0|2:0|0:0,0:0:0:0:
97,34,5932,6,0,P|18:74|8:165,2,180.000006866455,2|2|0,2:0|2:0|0:0,0:0:0:0:
213,155,8877,6,0,P|290:116|304:31,2,180.000006866455,2|2|0,2:0|2:0|0:0,0:0:0:0:
52,103,11822,6,0,P|37:164|60:220,1,120.000004577637,2|0,2:0|2:0,0:0:0:0:
125,263,12926,2,0,P|213:238|299:267,1,180.000006866455,2|0,2:0|2:0,0:0:0:0:
444,340,14766,6,0,P|463:280|441:226,1,120.000004577637,2|0,2:0|2:0,0:0:0:0:
388,165,15871,2,0,P|306:128|227:170,1,180.000006866455,2|0,2:0|2:0,0:0:0:0:
124,294,17711,6,0,P|65:276|36:223,1,120.000004577637,2|0,2:0|2:0,0:0:0:0:
68,149,18816,2,0,L|52:20,2,120.000004577637,2|2|2,2:0|2:0|2:0,0:0:0:0:
127,207,20656,6,0,P|179:181|235:216,1,120.000004577637,2|0,2:0|2:0,0:0:0:0:
291,264,21760,2,0,P|346:344|426:260,1,240.000009155274,2|0,2:0|0:0,0:0:0:0:
471,199,23601,6,0,P|495:135|458:60,1,143.999995605469,4|0,1:0|0:0,0:0:0:0:
393,41,24705,2,0,L|237:48,1,143.999995605469
178,82,25809,2,0,L|99:78,1,71.9999978027344
32,107,26546,6,0,P|4:171|46:242,1,143.999995605469,0|0,1:0|0:0,0:0:0:0:
99,279,27650,2,0,P|168:259|247:286,1,143.999995605469
312,297,28754,2,0,P|352:303|388:293,1,71.9999978027344,0|0,0:0|1:0,0:0:0:0:
451,258,29490,6,0,P|486:191|470:115,1,143.999995605469,0|0,1:0|0:0,0:0:0:0:
423,66,30595,2,0,P|354:40|283:69,1,143.999995605469
275,140,31699,2,0,L|274:212,1,71.9999978027344
267,290,32435,6,0,P|184:313|120:285,1,143.999995605469,0|0,1:0|0:0,0:0:0:0:
64,254,33539,1,0,0:0:0:0:
51,175,33908,2,0,L|56:90,1,71.9999978027344
112,48,34644,2,0,P|150:41|195:53,1,71.9999978027344,0|0,1:0|1:0,0:0:0:0:
234,106,35380,6,0,L|232:253,1,143.999995605469,4|0,1:1|1:0,0:0:0:0:
270,319,36484,2,0,P|345:339|416:309,2,143.999995605469,0|0|0,1:0|1:0|1:0,0:0:0:0:
200,280,38325,6,0,P|167:273|125:280,1,71.9999978027344,0|0,1:0|1:0,0:0:0:0:
57,311,39061,1,0,1:0:0:0:
6,250,39429,2,0,L|4:105,2,143.999995605469,0|0|0,1:0|1:0|1:0,0:0:0:0:
56,311,41269,6,0,P|157:262|163:159,1,215.999993408203,0|0,1:0|1:0,0:0:0:0:
256,192,42742,12,0,44214,0:0:0:0:
85,197,47159,6,0,P|124:186|165:199,1,80,4|0,0:1|0:0,0:0:0:0:
232,232,47895,2,0,P|290:250|353:229,1,120,0|0,1:0|1:0,0:0:0:0:
410,186,48816,1,0,1:0:0:0:
364,75,49368,2,0,L|275:75,1,80,0|0,1:0|0:0,0:0:0:0:
231,135,50104,6,0,P|219:171|230:213,1,80,4|0,1:1|0:0,0:0:0:0:
294,256,50840,2,0,P|348:234|411:267,1,120,0|0,1:0|1:0,0:0:0:0:
452,318,51761,1,0,1:0:0:0:
334,334,52313,2,0,P|289:344|246:326,1,80,0|0,1:0|1:0,0:0:0:0:
184,302,53049,6,0,P|147:292|103:303,1,80,4|0,1:1|0:0,0:0:0:0:
29,321,53785,2,0,L|29:197,1,120,0|0,1:0|1:0,0:0:0:0:
90,149,54706,1,0,1:0:0:0:
189,219,55258,2,0,P|229:228|272:217,1,80,0|0,1:0|0:0,0:0:0:0:
326,166,55993,6,0,P|368:157|404:166,1,80,4|0,1:1|0:0,0:0:0:0:
460,220,56730,2,0,P|481:159|451:103,1,120,0|0,1:0|1:0,0:0:0:0:
411,49,57651,1,0,1:0:0:0:
323,130,58202,2,0,P|283:139|241:123,1,80,0|0,1:0|0:0,0:0:0:0:
173,94,58938,6,0,P|129:84|91:96,1,80,4|0,1:1|0:0,0:0:0:0:
46,155,59674,2,0,P|26:211|50:276,1,120,0|0,1:0|1:0,0:0:0:0:
87,333,60595,1,0,1:0:0:0:
206,339,61147,2,0,L|290:334,1,80,0|0,1:0|1:0,0:0:0:0:
356,296,61883,6,0,L|357:214,1,80,4|0,1:1|0:0,0:0:0:0:
313,148,62619,2,0,P|295:88|320:30,2,120,0|0|0,1:0|1:0|0:0,0:0:0:0:
278,220,64092,2,0,P|230:210|189:227,1,80,0|0,1:0|1:0,0:0:0:0:
239,289,64828,5,4,1:1:0:0:
392,266,65564,2,0,P|449:223|456:172,1,120,0|0,1:0|1:0,0:0:0:0:
442,99,66485,1,0,1:0:0:0:
330,55,67037,2,0,P|293:47|248:57,1,80,0|0,1:0|0:0,0:0:0:0:
196,112,67773,6,0,P|160:121|116:114,1,80,4|0,1:1|0:0,0:0:0:0:
46,150,68509,2,0,P|26:206|49:260,1,120,0|0,1:0|1:0,0:0:0:0:
121,292,69429,2,0,P|158:283|201:293,1,80,0|0,1:0|0:0,0:0:0:0:
234,273,69981,2,0,L|233:190,1,80,0|0,1:0|1:0,0:0:0:0:
234,113,70717,6,0,P|296:142|310:212,1,143.999995605469,4|0,1:1|0:0,0:0:0:0:
258,271,71822,2,0,P|178:254|153:189,1,143.999995605469
175,126,72926,2,0,P|186:91|169:46,1,71.9999978027344
102,32,73662,6,0,P|51:57|36:142,1,143.999995605469,0|0,1:0|0:0,0:0:0:0:
34,216,74766,2,0,P|55:282|120:307,1,143.999995605469
178,252,75871,2,0,P|198:212|201:173,1,71.9999978027344
234,113,76607,6,0,P|297:83|362:118,1,143.999995605469,0|0,1:0|0:0,0:0:0:0:
405,178,77711,2,0,P|428:257|402:317,1,143.999995605469
328,294,78816,1,0,0:0:0:0:
254,323,79184,1,0,0:0:0:0:
189,276,79552,6,0,L|181:124,1,143.999995605469,0|0,1:0|0:0,0:0:0:0:
206,56,80656,1,0,0:0:0:0:
128,39,81024,2,0,P|56:54|38:125,1,143.999995605469,0|0,0:0|1:0,0:0:0:0:
78,180,82128,1,0,1:0:0:0:
36,247,82496,6,0,P|62:318|125:335,1,143.999995605469,4|0,1:0|1:0,0:0:0:0:
188,290,83601,2,0,P|255:267|332:298,1,143.999995605469,0|0,1:0|1:0,0:0:0:0:
391,328,84705,1,0,1:0:0:0:
459,287,85073,1,0,1:0:0:0:
472,208,85441,6,0,B|467:101|467:101|444:64,1,143.999995605469,0|0,1:0|1:0,0:0:0:0:
370,89,86546,2,0,P|306:111|236:87,1,143.999995605469,0|0,1:0|1:0,0:0:0:0:
164,53,87650,1,0,1:0:0:0:
85,58,88018,1,0,1:0:0:0:
33,120,88386,6,0,P|18:235|98:299,1,215.999993408203,0|0,1:0|1:0,0:0:0:0:
256,192,89858,12,0,91330,0:0:0:0:
312,307,94276,6,0,L|317:228,1,80,4|0,1:1|0:0,0:0:0:0:
372,171,95012,2,0,P|429:155|491:176,2,120,0|0|0,1:0|1:0|0:0,0:0:0:0:
317,227,96485,2,0,P|279:237|237:224,1,80,2|0,0:0|0:0,0:0:0:0:
172,185,97220,6,0,P|130:176|88:186,1,80,4|0,1:1|0:0,0:0:0:0:
38,241,97957,2,0,P|15:186|34:131,1,120,0|0,1:0|1:0,0:0:0:0:
84,68,98878,1,0,1:0:0:0:
203,65,99430,2,0,P|242:56|281:66,1,80,0|0,1:0|1:0,0:0:0:0:
242,136,100166,6,0,P|205:145|159:132,1,80,4|0,1:0|0:0,0:0:0:0:
90,161,100901,2,0,P|66:203|91:282,1,120,0|0,1:0|1:0,0:0:0:0:
138,325,101822,1,0,0:0:0:0:
236,255,102375,2,0,P|277:244|317:259,1,80,0|0,1:0|0:0,0:0:0:0:
350,326,103111,6,0,P|312:337|275:326,1,80,4|0,1:1|0:0,0:0:0:0:
195,322,103847,2,0,P|158:268|173:205,1,120,0|0,1:0|0:0,0:0:0:0:
221,160,104766,1,0,1:0:0:0:
327,98,105319,2,0,P|367:90|405:100,1,80,0|0,1:0|0:0,0:0:0:0:
464,153,106055,6,0,P|476:193|458:243,1,80,4|0,1:1|0:0,0:0:0:0:
429,299,106791,2,0,P|378:328|309:307,1,120,0|0,1:0|1:0,0:0:0:0:
266,256,107712,1,0,1:0:0:0:
346,167,108263,2,0,P|383:158|428:169,1,80,0|0,1:0|1:0,0:0:0:0:
469,232,109000,6,0,P|472:273|447:316,1,80,4|0,1:0|0:0,0:0:0:0:
380,331,109736,2,0,L|259:328,1,120,0|0,1:0|1:0,0:0:0:0:
193,283,110657,1,0,1:0:0:0:
227,169,111209,2,0,P|233:125|223:88,1,80,0|0,1:0|0:0,0:0:0:0:
153,54,111945,6,0,P|144:101|157:136,1,80,4|0,1:0|0:0,0:0:0:0:
155,210,112681,2,0,B|154:283|154:283|194:329,1,120,0|0,1:0|1:0,0:0:0:0:
262,337,113602,1,0,1:0:0:0:
338,245,114153,2,0,P|346:205|336:157,1,80,0|0,1:0|0:0,0:0:0:0:
269,132,114889,6,0,L|185:133,1,80,4|0,1:0|0:0,0:0:0:0:
130,187,115625,2,0,P|106:241|127:297,1,120,0|0,1:0|0:0,0:0:0:0:
185,243,116546,1,0,0:0:0:0:
298,206,117097,2,0,P|308:163|295:114,1,80,0|0,1:0|0:0,0:0:0:0:
264,57,117834,5,4,1:0:0:0:
185,41,118202,2,0,P|143:47|102:37,1,80,0|0,0:0|1:0,0:0:0:0:
71,56,118754,2,0,P|58:94|71:136,1,80
123,189,119490,2,0,P|161:180|210:200,1,80
227,220,120042,2,0,P|240:261|229:300,2,80,0|0|4,1:0|1:0|0:0,0:0:0:0:
158,262,121147,5,0,0:0:0:0:
95,211,121515,2,0,L|87:122,1,80
97,92,122067,2,0,P|139:77|180:87,1,80
275,145,122987,1,0,0:0:0:0:
377,267,123723,5,4,1:1:0:0:
432,209,124091,2,0,L|438:113,1,80,0|0,0:0|1:0,0:0:0:0:
424,91,124644,2,0,P|384:78|343:89,1,80
277,123,125380,2,0,P|233:131|197:121,1,80
159,124,125932,2,0,P|127:196|163:271,1,160,0|4,0:0|0:0,0:0:0:0:
225,307,127036,6,0,P|263:318|315:298,1,80,0|0,0:0|1:0,0:0:0:0:
332,282,127589,2,0,P|374:273|412:286,1,80
466,228,128325,2,0,L|472:148,1,80
445,119,128877,2,0,P|409:105|369:116,1,80,0|0,1:0|0:0,0:0:0:0:
305,162,129613,5,4,1:1:0:0:
247,217,129981,2,0,P|204:227|162:211,1,80,0|0,0:0|1:0,0:0:0:0:
145,185,130533,2,0,L|148:105,1,80
213,58,131269,2,0,P|252:52|301:63,1,80
326,79,131822,2,0,P|368:84|420:73,2,80,0|0|4,1:0|1:0|0:0,0:0:0:0:
270,136,132926,6,0,P|256:170|262:217,1,80,0|0,0:0|1:0,0:0:0:0:
281,246,133478,2,0,P|288:289|263:330,1,80
196,345,134214,2,0,L|111:339,1,80
77,328,134766,2,0,P|56:290|59:250,1,80
58,175,135503,6,0,P|87:104|150:89,1,143.999995605469,4|0,1:0|0:0,0:0:0:0:
208,138,136607,2,0,P|296:151|338:103,1,143.999995605469
393,65,137711,2,0,P|431:58|471:70,1,71.9999978027344
256,192,138447,12,4,141392,0:1:0:0:
392,139,153171,6,0,P|417:202|384:277,1,143.999995605469,4|0,1:0|0:0,0:0:0:0:
319,304,154276,2,0,L|170:305,1,143.999995605469
119,249,155379,2,0,P|111:211|122:171,1,71.9999978027344
173,122,156116,6,0,L|318:122,1,143.999995605469,0|0,1:0|0:0,0:0:0:0:
385,162,157220,2,0,P|410:229|377:304,1,143.999995605469
320,338,158324,2,0,L|244:336,1,71.9999978027344
191,280,159061,6,0,L|184:131,1,143.999995605469,0|0,1:0|0:0,0:0:0:0:
145,66,160165,2,0,P|90:50|30:104,1,143.999995605469
26,182,161269,2,0,L|25:260,1,71.9999978027344
32,332,162005,6,0,P|104:330|143:270,1,143.999995605469,0|0,1:0|0:0,0:0:0:0:
177,204,163109,1,0,0:0:0:0:
246,164,163478,2,0,P|320:138|382:166,1,143.999995605469,0|0,0:0|1:0,0:0:0:0:
426,222,164582,1,0,1:0:0:0:
499,192,164950,6,0,P|522:120|486:53,1,143.999995605469,4|0,1:0|1:0,0:0:0:0:
422,94,166055,1,0,1:0:0:0:
350,58,166423,2,0,P|314:50|272:65,1,71.9999978027344,0|0,1:0|1:0,1:0:0:0:
223,113,167159,2,0,L|221:197,1,71.9999978027344,0|0,1:0|1:0,0:0:0:0:
190,258,167895,6,0,L|186:337,2,71.9999978027344,0|0|0,1:0|1:0|1:0,0:0:0:0:
221,184,169000,1,0,1:0:0:0:
290,145,169367,2,0,P|364:163|392:231,1,143.999995605469,0|0,1:0|1:0,0:0:0:0:
378,298,170471,1,0,1:0:0:0:
307,339,170840,6,0,P|221:313|200:189,1,215.999993408203,0|0,1:0|1:0,0:0:0:0:
256,192,172312,12,0,173784,0:0:0:0:
348,301,176730,6,0,L|266:305,1,80,4|0,1:0|0:0,0:0:0:0:
188,304,177466,2,0,P|124:287|90:228,1,120,0|0,1:0|1:0,0:0:0:0:
68,169,178386,1,0,1:0:0:0:
141,74,178938,2,0,L|221:71,1,80,0|0,1:0|0:0,0:0:0:0:
281,123,179675,6,0,P|294:159|276:213,1,80,4|0,1:0|0:0,0:0:0:0:
223,248,180411,2,0,P|169:232|100:253,1,120,0|0,1:0|1:0,0:0:0:0:
49,300,181332,1,0,1:0:0:0:
162,342,181884,2,0,P|203:348|251:333,1,80,0|0,1:0|0:0,0:0:0:0:
313,304,182620,6,0,P|350:294|403:310,1,80,4|0,1:0|0:0,0:0:0:0:
446,245,183356,2,0,L|445:107,1,120,0|0,1:0|1:0,0:0:0:0:
471,49,184277,1,0,1:0:0:0:
351,57,184829,2,0,P|308:66|261:55,1,80,0|0,1:0|0:0,0:0:0:0:
195,40,185565,6,0,P|153:31|116:43,1,80,4|0,1:0|0:0,0:0:0:0:
57,92,186301,2,0,P|30:156|55:213,1,120,0|0,1:0|1:0,0:0:0:0:
108,152,187220,1,0,1:0:0:0:
205,223,187773,2,0,L|289:221,1,80,0|0,1:0|0:0,0:0:0:0:
323,150,188509,6,0,P|313:111|329:66,1,80,4|0,1:0|0:0,0:0:0:0:
393,114,189245,2,0,P|399:175|350:227,1,120,0|0,1:0|1:0,0:0:0:0:
297,263,190166,1,0,1:0:0:0:
184,225,190718,2,0,L|176:136,1,80,0|0,1:0|1:0,0:0:0:0:
213,74,191454,6,0,P|252:63|296:78,1,80,4|0,1:0|0:0,0:0:0:0:
335,138,192190,2,0,L|338:275,2,120,0|0|0,1:0|1:0|0:0,0:0:0:0:
414,151,193663,2,0,L|416:247,1,80
405,308,194399,6,0,P|375:331|322:331,1,80,4|0,1:0|0:0,0:0:0:0:
263,296,195135,2,0,P|205:278|140:304,1,120,0|0,1:0|1:0,0:0:0:0:
81,335,196055,1,0,1:0:0:0:
19,231,196608,2,0,P|14:177|26:138,1,80,0|0,1:0|0:0,0:0:0:0:
83,104,197343,6,0,L|171:104,1,80,4|0,1:0|0:0,0:0:0:0:
230,149,198079,2,0,P|247:207|219:263,1,120,0|0,1:0|1:0,0:0:0:0:
163,313,199001,1,0,1:0:0:0:
67,244,199552,2,0,L|67:161,1,80,0|0,1:0|1:0,0:0:0:0:
106,95,200288,6,0,P|180:71|253:100,1,143.999995605469,4|0,1:0|0:0,0:0:0:0:
292,151,201393,2,0,P|313:217|280:293,1,143.999995605469
216,318,202496,2,0,L|135:319,1,71.9999978027344
75,278,203233,6,0,P|51:206|77:129,1,143.999995605469,0|0,1:0|0:0,0:0:0:0:
120,82,204337,2,0,P|189:60|265:90,1,143.999995605469
321,124,205442,2,0,P|361:132|398:123,1,71.9999978027344
468,141,206177,6,0,P|492:207|470:274,1,143.999995605469,0|0,1:0|0:0,0:0:0:0:
403,318,207282,2,0,P|333:341|268:318,1,143.999995605469
227,250,208387,2,0,L|227:164,1,71.9999978027344
256,192,209122,12,0,217773,2:0:0:0:
