osu file format v14

[General]
AudioFilename: Pegboard Nerds - Emoji.mp3
AudioLeadIn: 0
PreviewTime: 46423
Countdown: 0
SampleSet: None
StackLeniency: 0.7
Mode: 0
LetterboxInBreaks: 0
WidescreenStoryboard: 0

[Editor]
Bookmarks: 18277,26454
DistanceSpacing: 2
BeatDivisor: 4
GridSize: 32
TimelineZoom: 1.8

[Metadata]
Title:Emoji
TitleUnicode:Emoji
Artist:Pegboard Nerds
ArtistUnicode:Pegboard Nerds
Creator:Marmowka
Version:Insane
Source:
Tags:future bass glitch hop edm electronic bass pink cloud monstercat nerdnation hacksl
BeatmapID:853412
BeatmapSetID:391823

[Difficulty]
HPDrainRate:7
CircleSize:4.2
OverallDifficulty:8
ApproachRate:9
SliderMultiplier:1.6
SliderTickRate:1

[Events]
//Background and Video events
0,0,"oboi_3.jpg",0,0
//Break Periods
2,141592,152571
//Storyboard Layer 0 (Background)
//Storyboard Layer 1 (Fail)
//Storyboard Layer 2 (Pass)
//Storyboard Layer 3 (Foreground)
//Storyboard Sound Samples

[TimingPoints]
43,368.098159509202,4,3,1,20,1,0
43,-200,4,3,1,20,0,0
11822,-200,4,3,1,40,0,0
23601,-133.333333333333,4,3,1,65,0,0
35380,-117.647058823529,4,3,1,65,0,0
47159,-100,4,3,1,65,0,1
47527,-200,4,3,1,65,0,1
47711,-100,4,3,1,65,0,1
50472,-200,4,3,1,65,0,1
50656,-100,4,3,1,65,0,1
56362,-200,4,3,1,65,0,1
56546,-100,4,3,1,65,0,1
62251,-200,4,3,1,65,0,1
62435,-100,4,3,1,65,0,1
68141,-200,4,3,1,65,0,1
68325,-100,4,3,1,65,0,1
70717,-133.333333333333,4,3,1,65,0,0
82496,-117.647058823529,4,3,1,65,0,0
94276,-100,4,3,1,65,0,1
94644,-200,4,3,1,65,0,1
94828,-100,4,3,1,65,0,1
117834,-100,4,3,1,65,0,0
125380,-200,4,3,1,65,0,0
125564,-100,4,3,1,65,0,0
125748,-200,4,3,1,65,0,0
125932,-100,4,3,1,65,0,0
135503,-117.647058823529,4,3,1,65,0,0
138447,-133.333333333333,4,3,1,65,0,0
141392,-200,4,3,1,65,0,0
153171,-133.333333333333,4,3,1,65,0,0
164950,-117.647058823529,4,3,1,65,0,0
176730,-100,4,3,1,65,0,1
177098,-200,4,3,1,65,0,1
177282,-100,4,3,1,65,0,1
180042,-200,4,3,1,65,0,1
180227,-100,4,3,1,65,0,1
185932,-200,4,3,1,65,0,1
186116,-100,4,3,1,65,0,1
200288,-133.333333333333,4,3,1,65,0,0
217589,-133.333333333333,4,3,1,15,0,0

[Colours]
Combo1 : 123,9,63
Combo2 : 182,12,190
Combo3 : 34,125,238
Combo4 : 215,37,228

[HitObjects]
59,256,43,6,0,B|90:267|90:267|116:229|116:229|151:258|209:250,1,160,2|0,2:0|2:0,0:0:0:0:
296,255,1147,2,0,B|372:274|409:249|423:213|423:213|449:251|449:251|496:217|494:163|462:128,1,320,2|0,2:0|2:0,0:0:0:0:
374,81,2987,6,0,B|350:63|350:63|308:60|308:60|261:91|217:60,1,160,2|0,2:0|2:0,0:0:0:0:
118,38,4092,2,0,B|50:65|41:119|56:155|56:155|10:146|10:146|5:202|27:240|81:240,1,320,2|0,2:0|2:0,0:0:0:0:
176,262,5932,6,0,B|205:279|246:269|246:269|283:306|344:285,1,160,2|0,2:0|2:0,0:0:0:0:
427,254,7036,2,0,B|492:235|449:173|449:173|499:179|542:104|461:24|397:91,1,320,2|0,2:0|2:0,0:0:0:0:
332,172,8877,6,0,B|315:227|268:238|268:238|239:210|209:223,1,160,2|0,2:0|2:0,0:0:0:0:
105,187,9981,2,0,B|41:165|-5:231|15:286|15:286|56:269|56:269|48:306|92:341|132:301,1,320,2|0,2:0|2:0,0:0:0:0:
241,271,11822,6,0,B|317:313|319:234|396:275,1,160,2|0,2:0|2:0,0:0:0:0:
488,245,12926,2,0,P|475:130|369:71,1,240,2|0,2:0|2:0,0:0:0:0:
255,48,14398,1,2,2:0:0:0:
151,103,14766,6,0,B|115:137|113:179|136:213|136:213|133:244|103:252,1,160,2|0,2:0|2:0,0:0:0:0:
195,330,15871,2,0,P|315:338|391:256,1,240,2|0,2:0|2:0,0:0:0:0:
371,142,17343,1,2,2:0:0:0:
262,174,17711,6,0,B|202:146|180:223|111:175,1,160,2|0,2:0|2:0,0:0:0:0:
32,128,18816,2,0,P|18:171|28:206,1,80,2|0,2:0|0:0,0:0:0:0:
85,274,19552,2,0,L|80:358,2,80,2|2|2,2:0|2:0|2:0,0:0:0:0:
176,219,20656,6,0,B|214:215|251:240|251:240|276:212|331:212,1,160,2|0,2:0|2:0,0:0:0:0:
387,308,21760,2,0,P|244:349|176:218,1,320,2|0,2:0|2:0,0:0:0:0:
353,192,23601,5,4,1:0:0:0:
219,103,23969,1,0,0:0:0:0:
259,289,24337,1,0,0:0:0:0:
219,103,24705,2,0,L|208:28,1,60.0000022888184
268,229,25073,2,0,L|256:308,1,60.0000022888184
351,96,25441,2,0,L|340:17,1,60.0000022888184
416,231,25809,2,0,L|398:309,1,60.0000022888184
292,337,26177,1,0,0:0:0:0:
181,289,26362,1,0,0:0:0:0:
76,347,26546,5,0,1:0:0:0:
85,195,26914,1,0,0:0:0:0:
145,63,27282,1,0,0:0:0:0:
246,145,27650,2,0,L|324:155,1,60.0000022888184
444,254,28018,2,0,L|372:243,1,60.0000022888184
307,74,28386,2,0,L|374:81,1,60.0000022888184
507,182,28754,2,0,L|432:173,1,60.0000022888184,0|0,0:0|1:0,0:0:0:0:
397,189,29030,1,0,1:0:0:0:
343,209,29122,1,0,1:0:0:0:
254,128,29306,1,0,1:0:0:0:
193,231,29490,5,0,1:0:0:0:
101,66,29858,1,0,0:0:0:0:
254,128,30227,1,0,0:0:0:0:
254,128,30595,2,0,L|254:54,1,60.0000022888184
251,267,30963,2,0,L|251:354,1,60.0000022888184
194,132,31331,2,0,L|272:126,1,60.0000022888184
427,173,31699,2,0,L|348:182,1,60.0000022888184
178,255,32067,2,0,L|242:248,1,60.0000022888184
421,287,32435,5,0,1:0:0:0:
284,186,32803,1,0,0:0:0:0:
337,345,33171,1,0,0:0:0:0:
192,258,33539,1,0,0:0:0:0:
83,128,33908,2,0,B|53:128|53:128|14:119,1,60.0000022888184
287,97,34276,2,0,B|318:87|318:87|360:98,1,60.0000022888184
169,176,34644,1,0,0:0:0:0:
247,281,34828,1,0,1:0:0:0:
247,281,34920,1,0,1:0:0:0:
247,281,35012,2,0,P|281:290|322:280,1,60.0000022888184,0|0,1:0|0:0,0:0:0:0:
397,197,35380,5,4,0:1:0:0:
397,197,35564,1,0,0:0:0:0:
299,92,35748,2,0,B|264:78|226:96,1,68.0000012969971,0|0,1:0|0:0,0:0:0:0:
94,128,36116,1,0,1:0:0:0:
94,128,36300,1,0,0:0:0:0:
85,259,36484,2,0,P|87:296|73:338,1,68.0000012969971,0|0,1:0|0:0,0:0:0:0:
167,107,36852,6,0,P|164:73|161:31,1,68.0000012969971,0|0,1:0|0:0,0:0:0:0:
292,189,37220,2,0,P|325:179|369:185,1,68.0000012969971,0|0,1:0|0:0,0:0:0:0:
148,247,37589,2,0,P|116:258|73:254,1,68.0000012969971,0|0,1:0|0:0,0:0:0:0:
265,339,37957,2,0,L|340:334,1,68.0000012969971,0|0,1:0|0:0,0:0:0:0:
461,283,38325,5,0,1:0:0:0:
461,283,38509,1,0,0:0:0:0:
329,213,38693,1,0,1:0:0:0:
485,152,38877,1,0,0:0:0:0:
275,106,39061,1,0,1:0:0:0:
501,54,39245,1,0,0:0:0:0:
246,35,39429,2,0,P|288:32|318:43,1,68.0000012969971,0|0,1:0|0:0,0:0:0:0:
383,161,39797,6,0,P|346:160|301:143,1,68.0000012969971,0|0,1:0|0:0,0:0:0:0:
183,246,40165,2,0,P|219:243|260:262,1,68.0000012969971,0|0,1:0|0:0,0:0:0:0:
383,353,40533,2,0,P|343:354|309:340,1,68.0000012969971,0|0,1:0|1:0,0:0:0:0:
317,344,40809,1,0,1:0:0:0:
317,344,40901,1,0,1:0:0:0:
260,239,41085,1,0,0:0:0:0:
226,116,41269,5,0,1:0:0:0:
227,103,41454,1,0,1:0:0:0:
183,246,41638,5,0,1:0:0:0:
182,260,41822,1,0,1:0:0:0:
176,49,42006,5,0,1:0:0:0:
177,37,42190,1,0,1:0:0:0:
113,285,42374,5,0,1:0:0:0:
111,298,42558,1,0,1:0:0:0:
172,136,42742,5,0,1:0:0:0:
206,152,42834,1,0,1:0:0:0:
240,156,42926,1,0,1:0:0:0:
272,146,43018,1,0,1:0:0:0:
307,130,43110,1,0,1:0:0:0:
341,127,43202,1,0,1:0:0:0:
373,137,43294,1,0,1:0:0:0:
401,156,43386,1,0,1:0:0:0:
417,185,43478,5,0,1:0:0:0:
421,217,43570,1,0,1:0:0:0:
413,249,43662,1,0,1:0:0:0:
391,276,43754,1,0,1:0:0:0:
359,284,43846,1,0,1:0:0:0:
326,279,43938,1,0,1:0:0:0:
301,258,44030,1,0,1:0:0:0:
296,224,44122,1,0,1:0:0:0:
256,192,44214,12,0,46423,1:0:0:0:
157,196,47159,5,4,1:0:0:0:
305,289,47343,1,0,0:0:0:0:
304,81,47527,2,0,L|317:34,1,40
343,218,47895,1,0,1:0:0:0:
157,196,48079,1,0,0:0:0:0:
236,340,48263,1,0,0:0:0:0:
245,152,48447,5,0,1:0:0:0:
402,325,48816,1,0,1:0:0:0:
359,121,49184,1,0,0:0:0:0:
163,137,49368,2,0,B|119:129|119:129|75:133,1,80,0|0,1:0|0:0,0:0:0:0:
269,195,49736,2,0,B|309:201|309:201|350:193,1,80
438,106,50104,5,4,1:1:0:0:
432,298,50288,1,0,0:0:0:0:
269,195,50472,2,0,L|221:198,1,40
85,315,50840,1,0,1:0:0:0:
161,116,51024,1,0,0:0:0:0:
165,337,51208,1,0,0:0:0:0:
95,164,51392,5,0,1:0:0:0:
292,333,51760,1,0,1:0:0:0:
298,138,52128,1,0,0:0:0:0:
232,238,52312,1,0,1:0:0:0:
377,199,52496,1,0,1:0:0:0:
383,197,52681,2,0,L|498:192,1,80,0|0,1:0|0:0,0:0:0:0:
319,264,53049,5,4,1:1:0:0:
187,349,53233,1,0,0:0:0:0:
171,130,53417,1,0,0:0:0:0:
75,280,53601,1,0,0:0:0:0:
279,201,53785,1,0,1:0:0:0:
103,92,53969,1,0,0:0:0:0:
151,292,54153,1,0,0:0:0:0:
312,132,54337,5,0,1:0:0:0:
81,330,54705,1,0,1:0:0:0:
108,121,55073,1,0,0:0:0:0:
223,54,55257,1,0,1:0:0:0:
219,181,55441,1,0,1:0:0:0:
219,181,55533,1,0,0:0:0:0:
219,181,55625,2,0,B|219:273,1,80
232,349,55993,5,4,1:1:0:0:
143,198,56177,1,0,0:0:0:0:
53,336,56362,2,0,L|6:359,1,40
64,184,56730,1,0,1:0:0:0:
249,255,56914,1,0,0:0:0:0:
225,85,57098,1,0,0:0:0:0:
171,300,57282,5,0,1:0:0:0:
397,201,57650,1,0,1:0:0:0:
141,81,58018,1,0,0:0:0:0:
66,169,58202,2,0,P|144:198|220:166,1,160,0|0,1:0|0:0,0:0:0:0:
298,68,58938,6,0,P|370:39|445:77,1,160,4|0,1:1|0:0,0:0:0:0:
504,163,59490,1,0,0:0:0:0:
447,251,59674,2,0,P|373:285|303:251,1,160,0|0,1:0|0:0,0:0:0:0:
234,157,60227,5,0,1:0:0:0:
378,353,60595,1,0,1:0:0:0:
234,157,60963,1,0,1:0:0:0:
191,274,61147,1,0,1:0:0:0:
63,275,61331,1,0,1:0:0:0:
63,275,61423,1,0,0:0:0:0:
63,275,61515,2,0,B|54:232|54:232|63:196,1,80,0|0,1:0|0:0,0:0:0:0:
234,157,61883,5,4,1:1:0:0:
62,197,62067,1,0,0:0:0:0:
261,278,62251,2,0,L|305:273,1,40
165,232,62619,1,0,1:0:0:0:
335,342,62803,1,0,0:0:0:0:
234,157,62987,1,0,0:0:0:0:
245,359,63171,5,0,1:0:0:0:
335,138,63539,1,0,1:0:0:0:
245,359,63907,1,0,0:0:0:0:
203,245,64092,1,0,1:0:0:0:
291,154,64275,1,0,1:0:0:0:
291,154,64460,2,0,L|406:149,1,80,0|0,1:0|0:0,0:0:0:0:
270,70,64828,5,4,1:1:0:0:
213,257,65012,2,0,L|206:351,1,80
139,209,65380,1,4,1:1:0:0:
92,77,65564,1,0,1:0:0:0:
85,272,65748,1,0,0:0:0:0:
197,139,65932,1,0,0:0:0:0:
290,272,66116,5,0,1:0:0:0:
85,272,66484,1,0,1:0:0:0:
219,124,66852,1,0,1:0:0:0:
351,92,67036,1,0,1:0:0:0:
477,169,67220,1,0,1:0:0:0:
477,169,67312,1,0,0:0:0:0:
477,169,67404,2,0,P|494:214|474:250,1,80,0|0,1:0|0:0,0:0:0:0:
383,354,67772,5,4,1:1:0:0:
225,279,67956,1,0,0:0:0:0:
342,170,68141,2,0,L|392:166,1,40
274,59,68509,1,0,1:0:0:0:
324,241,68693,1,0,0:0:0:0:
231,142,68877,1,0,0:0:0:0:
285,328,69061,5,0,1:0:0:0:
105,262,69429,1,0,1:0:0:0:
231,142,69797,1,0,1:0:0:0:
236,246,69981,1,0,1:0:0:0:
136,198,70165,1,0,1:0:0:0:
319,187,70349,1,0,1:0:0:0:
135,103,70533,1,0,1:0:0:0:
136,287,70717,5,4,1:1:0:0:
280,217,71085,1,0,0:0:0:0:
134,165,71453,1,0,0:0:0:0:
265,85,71821,2,0,L|254:14,1,60.0000022888184
318,200,72189,2,0,L|327:270,1,60.0000022888184
386,85,72557,2,0,L|373:2,1,60.0000022888184
462,195,72926,2,0,L|469:263,1,60.0000022888184
382,331,73293,1,0,0:0:0:0:
277,274,73478,1,0,0:0:0:0:
250,156,73662,5,0,1:0:0:0:
374,187,74030,1,0,0:0:0:0:
397,313,74398,1,0,0:0:0:0:
277,274,74766,2,0,L|269:342,1,60.0000022888184
223,172,75135,2,0,L|232:96,1,60.0000022888184,0|0,0:0|0:0,0:0:0:0:
144,255,75503,2,0,L|133:338,1,60.0000022888184
95,145,75871,2,0,L|108:66,1,60.0000022888184
220,33,76239,1,0,0:0:0:0:
399,128,76606,5,0,1:0:0:0:
294,301,76974,1,0,0:0:0:0:
110,221,77343,1,0,0:0:0:0:
269,95,77711,2,0,L|269:21,1,60.0000022888184
243,217,78079,2,0,L|245:289,1,60.0000022888184,0|0,0:0|0:0,0:0:0:0:
339,110,78447,2,0,L|417:104,1,60.0000022888184
511,177,78815,2,0,L|432:186,1,60.0000022888184
311,278,79183,2,0,L|382:267,1,60.0000022888184
476,296,79551,5,0,1:0:0:0:
358,175,79919,1,0,0:0:0:0:
338,343,80288,1,0,0:0:0:0:
246,207,80656,1,0,0:0:0:0:
98,254,81024,2,0,L|27:255,1,60.0000022888184
210,324,81392,2,0,L|284:319,1,60.0000022888184
415,207,81760,2,0,L|345:210,1,60.0000022888184,0|0,1:0|1:0,0:0:0:0:
321,210,82036,1,0,1:0:0:0:
297,183,82128,2,0,L|289:117,1,60.0000022888184,0|0,1:0|0:0,0:0:0:0:
200,40,82496,5,4,1:0:0:0:
168,137,82681,1,0,0:0:0:0:
78,180,82864,2,0,L|-15:172,1,68.0000012969971,0|0,1:0|0:0,0:0:0:0:
149,251,83232,1,0,1:0:0:0:
223,187,83416,1,0,0:0:0:0:
249,91,83601,2,0,P|253:51|250:9,1,68.0000012969971,0|0,1:0|0:0,0:0:0:0:
159,93,83968,5,0,1:0:0:0:
139,186,84152,1,0,0:0:0:0:
159,278,84337,2,0,P|166:319|157:355,1,68.0000012969971,0|0,1:0|0:0,0:0:0:0:
235,186,84705,2,0,P|226:150|243:103,1,68.0000012969971,0|0,1:0|0:0,0:0:0:0:
312,278,85073,2,0,P|324:313|303:357,1,68.0000012969971,0|0,1:0|0:0,0:0:0:0:
207,332,85441,5,0,1:0:0:0:
377,263,85625,1,0,0:0:0:0:
240,257,85809,1,0,1:0:0:0:
328,138,85993,1,0,0:0:0:0:
226,181,86177,1,0,1:0:0:0:
267,51,86362,1,0,0:0:0:0:
267,51,86545,2,0,L|342:57,1,68.0000012969971,0|0,1:0|0:0,0:0:0:0:
487,137,86914,6,0,L|399:127,1,68.0000012969971,0|0,1:0|0:0,0:0:0:0:
226,181,87281,2,0,L|304:192,1,68.0000012969971,0|0,1:0|0:0,0:0:0:0:
479,287,87650,2,0,L|405:274,1,68.0000012969971,0|0,1:0|0:0,0:0:0:0:
259,333,88018,1,0,1:0:0:0:
259,333,88202,1,0,1:0:0:0:
148,243,88386,5,0,1:0:0:0:
223,115,88570,1,0,1:0:0:0:
352,219,88754,1,0,1:0:0:0:
390,77,88938,1,0,1:0:0:0:
258,222,89122,1,0,1:0:0:0:
147,129,89306,1,0,1:0:0:0:
244,21,89490,1,0,1:0:0:0:
342,148,89674,1,0,1:0:0:0:
285,292,89858,5,0,1:0:0:0:
252,274,89950,1,0,1:0:0:0:
217,269,90042,1,0,1:0:0:0:
186,277,90134,1,0,1:0:0:0:
151,291,90226,1,0,1:0:0:0:
117,294,90318,1,0,1:0:0:0:
85,284,90410,1,0,1:0:0:0:
58,263,90502,1,0,1:0:0:0:
42,234,90594,5,0,1:0:0:0:
39,201,90686,1,0,1:0:0:0:
49,169,90778,1,0,1:0:0:0:
72,145,90870,1,0,1:0:0:0:
104,136,90962,1,0,1:3:0:0:
137,143,91054,1,0,1:0:0:0:
161,166,91146,1,0,1:0:0:0:
165,198,91238,1,0,1:0:0:0:
256,192,91331,12,0,92804,1:0:0:0:
275,274,94276,5,4,1:1:0:0:
216,94,94644,2,0,L|203:47,1,40
155,193,95012,1,0,1:0:0:0:
245,348,95380,1,0,1:0:0:0:
360,293,95564,5,0,1:0:0:0:
129,271,95932,1,0,1:0:0:0:
330,219,96300,1,2,0:0:0:0:
432,167,96484,2,0,L|535:160,1,80,2|0,0:0|0:0,0:0:0:0:
404,89,96852,1,0,1:0:0:0:
330,219,97036,1,0,1:0:0:0:
330,219,97220,6,0,L|230:229,1,80,4|0,1:1|0:0,0:0:0:0:
117,195,97589,1,0,0:0:0:0:
162,332,97773,1,0,0:0:0:0:
250,226,97957,2,0,L|336:215,1,80,0|0,1:0|0:0,0:0:0:0:
441,163,98325,1,0,0:0:0:0:
342,76,98509,5,0,1:0:0:0:
275,312,98877,1,0,1:0:0:0:
340,192,99245,1,0,0:0:0:0:
223,245,99429,1,0,1:0:0:0:
102,212,99613,1,0,1:0:0:0:
243,159,99797,1,0,1:0:0:0:
89,126,99981,1,0,1:0:0:0:
268,71,100165,6,0,P|313:97|328:135,1,80,4|0,1:0|0:0,0:0:0:0:
360,241,100533,1,0,0:0:0:0:
229,321,100717,1,0,0:0:0:0:
177,137,100901,1,0,1:0:0:0:
103,256,101085,1,0,0:0:0:0:
280,241,101269,2,0,L|376:241,1,80,0|0,0:0|1:0,0:0:0:0:
177,137,101822,5,0,1:0:0:0:
45,88,102190,1,0,0:0:0:0:
128,32,102374,2,0,B|150:27|150:27|208:33,1,80,0|0,1:0|0:0,0:0:0:0:
370,100,102742,1,0,1:0:0:0:
218,170,102926,1,0,1:0:0:0:
381,217,103110,6,0,L|470:224,1,80,4|0,1:1|0:0,0:0:0:0:
291,325,103478,2,0,L|211:331,1,80,0|0,0:0|0:0,0:0:0:0:
112,214,103846,1,0,1:0:0:0:
263,227,104030,1,0,0:0:0:0:
150,132,104214,1,0,0:0:0:0:
175,328,104398,5,0,1:0:0:0:
223,98,104766,1,0,1:0:0:0:
313,279,105135,1,0,1:0:0:0:
347,161,105319,2,0,B|356:123|356:123|329:66,1,80,0|0,1:0|0:0,0:0:0:0:
248,30,105687,2,0,B|208:19|208:19|129:57,1,120,0|0,0:0|0:0,0:0:0:0:
114,119,106055,6,0,B|87:201|163:242|218:200|218:200|273:220,1,240,4|0,1:1|0:0,0:0:0:0:
361,284,106791,1,0,1:0:0:0:
415,147,106975,1,0,0:0:0:0:
291,339,107159,1,0,0:0:0:0:
333,173,107343,5,0,1:0:0:0:
135,328,107711,1,0,1:0:0:0:
186,156,108079,1,0,0:0:0:0:
160,34,108263,1,0,1:0:0:0:
280,114,108447,1,0,1:0:0:0:
280,114,108631,2,0,L|372:104,1,80,0|0,1:0|0:0,0:0:0:0:
258,204,109000,6,0,L|156:216,1,80,4|0,1:0|0:0,0:0:0:0:
56,316,109368,2,0,L|150:303,1,80
345,293,109736,1,0,1:0:0:0:
282,119,110104,1,0,0:0:0:0:
266,342,110288,5,0,1:0:0:0:
144,269,110656,1,0,1:0:0:0:
144,269,111024,2,0,L|41:268,1,80,0|0,0:0|1:0,0:0:0:0:
285,205,111392,1,0,1:0:0:0:
127,159,111576,1,0,1:0:0:0:
307,119,111760,1,0,1:0:0:0:
106,54,111944,6,0,L|197:53,1,80,4|0,1:0|0:0,0:0:0:0:
381,97,112312,1,0,0:0:0:0:
290,213,112496,1,0,0:0:0:0:
407,287,112681,2,0,L|522:276,1,80,0|0,1:0|0:0,0:0:0:0:
301,340,113049,1,0,0:0:0:0:
171,279,113233,5,0,1:0:0:0:
382,218,113601,1,0,1:0:0:0:
193,121,113969,1,0,0:0:0:0:
289,61,114153,2,0,L|381:68,1,80,0|0,1:0|0:0,0:0:0:0:
382,218,114521,1,0,1:0:0:0:
215,232,114705,1,0,1:0:0:0:
432,154,114889,6,0,L|520:148,1,80,4|0,1:0|0:0,0:0:0:0:
215,232,115257,2,0,L|121:242,1,80,0|0,0:0|0:0,0:0:0:0:
77,164,115625,1,0,1:0:0:0:
292,214,115809,1,0,0:0:0:0:
96,250,115993,1,0,0:0:0:0:
317,298,116177,1,0,1:0:0:0:
256,192,116362,12,4,117834,1:0:0:0:
260,110,118202,6,0,L|259:11,1,80,0|0,0:0|0:0,0:0:0:0:
254,203,118570,1,0,1:0:0:0:
254,203,118754,2,0,P|211:210|167:196,1,80,0|0,0:0|0:0,0:0:0:0:
335,162,119122,2,0,B|379:144|428:168,1,80,0|0,0:0|0:0,0:0:0:0:
475,223,119490,5,0,0:0:0:0:
373,260,119674,2,0,P|326:265|275:250,1,80,0|0,0:0|0:0,0:0:0:0:
139,215,120042,1,0,1:0:0:0:
315,189,120227,1,0,1:0:0:0:
81,170,120411,1,0,1:0:0:0:
384,220,120595,1,0,1:0:0:0:
73,247,120779,6,0,P|67:204|97:155,1,80,4|0,0:0|0:0,0:0:0:0:
204,51,121147,2,0,L|214:163,1,80,0|0,0:0|0:0,0:0:0:0:
244,239,121515,1,0,1:0:0:0:
350,298,121699,2,0,L|438:296,1,80,0|0,0:0|0:0,0:0:0:0:
244,239,122067,2,0,L|142:244,1,80,0|0,0:0|0:0,0:0:0:0:
112,164,122435,5,0,0:0:0:0:
141,330,122619,1,0,0:0:0:0:
58,230,122803,1,0,0:0:0:0:
244,239,122987,2,0,L|329:230,1,80,0|0,1:0|0:0,0:0:0:0:
376,169,123355,2,0,P|387:110|371:53,1,120,0|0,0:0|0:0,0:0:0:0:
352,47,123723,6,0,L|262:38,1,80,4|0,1:1|0:0,0:0:0:0:
222,122,124092,2,0,L|230:202,1,80,0|0,0:0|0:0,0:0:0:0:
285,276,124460,1,0,1:0:0:0:
285,276,124644,2,0,P|330:267|381:284,1,80,0|0,0:0|0:0,0:0:0:0:
207,205,125012,2,0,P|164:210|118:200,1,80,0|0,0:0|0:0,0:0:0:0:
92,284,125380,6,0,B|89:335,1,40
82,105,125748,2,0,L|87:58,1,40,0|0,0:0|1:0,0:0:0:0:
11,224,126116,1,0,1:0:0:0:
169,177,126300,1,0,1:0:0:0:
137,331,126484,1,0,1:0:0:0:
137,331,126668,6,0,P|178:339|232:321,1,80,4|0,0:0|0:0,0:0:0:0:
281,240,127036,2,0,P|293:202|273:149,1,80
232,64,127404,1,0,1:0:0:0:
169,177,127589,2,0,P|126:185|84:174,1,80
281,240,127957,2,0,P|319:229|364:236,1,80
240,168,128325,5,0,0:0:0:0:
164,28,128509,1,0,0:0:0:0:
91,177,128693,1,0,0:0:0:0:
290,109,128877,2,0,L|386:100,1,80,0|0,1:0|0:0,0:0:0:0:
240,216,129245,2,0,B|234:246|234:246|241:272|241:272|232:309,1,80
169,131,129613,6,0,L|58:125,1,80,4|0,1:1|0:0,0:0:0:0:
285,165,129981,2,0,L|388:160,1,80
198,251,130349,1,0,1:0:0:0:
108,180,130533,2,0,L|21:173,1,80
196,105,130901,2,0,B|289:111,1,80
384,139,131269,5,0,0:0:0:0:
408,244,131454,2,0,L|404:334,1,80
256,277,131822,1,0,1:0:0:0:
464,191,132006,1,0,1:0:0:0:
181,225,132190,1,0,1:0:0:0:
408,244,132374,1,0,1:0:0:0:
128,160,132558,6,0,L|35:151,1,80,4|0,0:0|0:0,0:0:0:0:
0,39,132926,2,0,L|86:46,1,80,0|0,0:0|0:0,0:0:0:0:
128,160,133294,1,0,1:0:0:0:
128,160,133478,2,0,L|132:249,1,80,0|0,0:0|0:0,0:0:0:0:
240,313,133846,2,0,L|328:301,1,80,0|0,0:0|0:0,0:0:0:0:
409,209,134214,5,0,0:0:0:0:
310,125,134398,1,0,0:0:0:0:
456,87,134582,1,0,0:0:0:0:
302,42,134766,2,0,L|222:45,1,80,0|0,1:0|0:0,0:0:0:0:
147,94,135135,2,0,B|140:136|140:136|150:177|150:177|144:215,1,120
121,235,135503,5,4,1:0:0:0:
42,332,135687,1,0,0:0:0:0:
0,216,135871,1,0,0:0:0:0:
114,319,136055,1,0,0:0:0:0:
64,180,136239,1,0,0:0:0:0:
189,311,136423,1,0,0:0:0:0:
121,138,136607,5,0,0:0:0:0:
189,311,136791,1,0,0:0:0:0:
333,229,136975,1,0,0:0:0:0:
196,165,137159,1,0,0:0:0:0:
401,166,137343,1,0,0:0:0:0:
296,330,137527,1,0,0:0:0:0:
295,153,137711,5,0,0:0:0:0:
122,193,137895,1,0,0:0:0:0:
244,56,138079,1,0,0:0:0:0:
333,229,138263,1,0,0:0:0:0:
127,336,138447,6,0,P|46:256|135:194,1,240.000009155274
244,193,139552,2,0,P|318:153|236:57,1,240.000009155274,0|0,0:0|2:0,0:0:0:0:
87,125,140656,6,0,L|10:118,1,60.0000022888184,0|0,2:0|2:0,0:0:0:0:
221,181,141024,2,0,L|293:188,1,60.0000022888184,0|0,2:0|2:0,0:0:0:0:
396,268,141392,1,4,0:1:0:0:
353,209,153171,5,4,1:1:0:0:
169,191,153539,1,0,0:0:0:0:
254,313,153907,1,0,0:0:0:0:
353,209,154275,2,0,L|367:290,1,60.0000022888184
255,119,154643,2,0,L|246:49,1,60.0000022888184
186,238,155012,2,0,L|195:313,1,60.0000022888184
104,136,155380,2,0,L|97:70,1,60.0000022888184
184,32,155748,1,0,0:0:0:0:
229,137,155932,1,0,0:0:0:0:
200,254,156116,5,0,1:0:0:0:
101,78,156484,1,0,0:0:0:0:
200,254,156852,1,0,0:0:0:0:
281,122,157220,2,0,L|284:49,1,60.0000022888184
352,223,157589,2,0,L|351:299,1,60.0000022888184
421,131,157957,2,0,L|423:55,1,60.0000022888184
352,223,158325,2,0,L|272:229,1,60.0000022888184,0|0,0:0|1:0,0:0:0:0:
257,239,158601,1,0,1:0:0:0:
226,261,158693,1,0,1:0:0:0:
115,213,158877,1,0,1:0:0:0:
53,317,159061,5,0,1:0:0:0:
50,123,159429,1,0,0:0:0:0:
205,228,159797,1,0,0:0:0:0:
326,73,160165,2,0,L|386:68,1,60.0000022888184,0|0,0:0|0:0,0:0:0:0:
265,156,160533,2,0,L|204:159,1,60.0000022888184
91,244,160901,2,0,L|150:239,1,60.0000022888184
318,274,161269,2,0,L|258:280,1,60.0000022888184
52,353,161637,2,0,L|113:346,1,60.0000022888184
258,279,162005,5,0,1:0:0:0:
377,115,162374,1,0,0:0:0:0:
175,186,162741,1,0,0:0:0:0:
374,247,163110,1,0,0:0:0:0:
175,186,163478,2,0,L|176:259,1,60.0000022888184
65,310,163846,2,0,L|63:250,1,60.0000022888184
99,137,164214,1,0,1:0:0:0:
217,107,164398,1,0,1:0:0:0:
217,107,164490,1,0,1:0:0:0:
217,107,164582,2,0,L|287:99,1,60.0000022888184,0|0,1:0|0:0,0:0:0:0:
384,114,164950,5,4,1:0:0:0:
401,212,165134,1,0,0:0:0:0:
371,299,165318,2,0,L|376:374,1,68.0000012969971,0|0,1:0|0:0,0:0:0:0:
453,277,165687,1,0,1:0:0:0:
469,180,165872,1,0,0:0:0:0:
453,84,166055,2,0,L|462:16,1,68.0000012969971,0|0,1:0|0:0,0:0:0:0:
324,133,166423,6,0,L|312:209,1,68.0000012969971,0|0,1:0|0:0,0:0:0:0:
181,191,166792,2,0,P|144:197|93:182,1,68.0000012969971,0|0,1:0|0:0,0:0:0:0:
324,133,167159,2,0,P|355:127|398:133,1,68.0000012969971,0|0,1:0|0:0,0:0:0:0:
279,262,167527,2,0,P|284:300|269:337,1,68.0000012969971,0|0,1:0|0:0,0:0:0:0:
131,336,167895,5,0,1:0:0:0:
279,262,168079,1,0,0:0:0:0:
453,285,168263,1,0,1:0:0:0:
332,193,168447,1,0,0:0:0:0:
386,354,168631,1,0,1:0:0:0:
416,157,168815,1,0,0:0:0:0:
279,262,169000,2,0,P|243:255|205:263,1,68.0000012969971,0|0,1:0|0:0,0:0:0:0:
350,156,169367,6,0,P|384:164|434:143,1,68.0000012969971,0|0,1:0|0:0,0:0:0:0:
490,41,169736,2,0,P|450:34|413:46,1,68.0000012969971,0|0,1:0|0:0,0:0:0:0:
187,89,170103,2,0,P|220:97|276:80,1,68.0000012969971,0|0,1:0|0:0,0:0:0:0:
281,80,170379,1,0,0:0:0:0:
317,84,170472,2,0,L|318:155,1,68.0000012969971,0|0,1:0|1:0,0:0:0:0:
401,251,170840,5,0,1:0:0:0:
205,179,171024,1,0,1:0:0:0:
354,323,171208,1,0,1:0:0:0:
285,136,171392,1,0,1:0:0:0:
265,324,171576,1,0,1:0:0:0:
372,169,171760,1,0,1:0:0:0:
204,267,171944,1,0,1:0:0:0:
401,251,172128,1,0,1:0:0:0:
204,267,172312,5,0,1:0:0:0:
175,248,172404,1,0,1:0:0:0:
154,222,172496,1,0,1:0:0:0:
140,190,172588,1,0,1:0:0:0:
136,157,172680,1,0,1:0:0:0:
142,123,172772,1,0,1:0:0:0:
157,93,172864,1,0,1:0:0:0:
180,68,172956,1,0,1:0:0:0:
209,51,173048,5,0,1:0:0:0:
242,42,173140,1,0,1:0:0:0:
275,43,173232,1,0,1:0:0:0:
308,54,173324,1,0,1:0:0:0:
335,73,173416,1,0,1:0:0:0:
357,99,173508,1,0,1:0:0:0:
369,131,173600,1,0,1:0:0:0:
373,164,173692,1,0,1:0:0:0:
256,192,173785,12,0,175993,1:0:0:0:
327,224,176730,5,4,1:0:0:0:
227,117,176914,1,0,0:0:0:0:
115,215,177098,2,0,L|73:216,1,40
107,323,177466,1,0,1:0:0:0:
154,137,177650,1,0,0:0:0:0:
228,257,177834,1,0,0:0:0:0:
278,58,178018,5,0,1:0:0:0:
312,320,178386,1,0,1:0:0:0:
455,154,178754,1,0,0:0:0:0:
298,128,178938,1,0,1:0:0:0:
203,254,179122,1,0,1:0:0:0:
203,254,179214,1,0,0:0:0:0:
203,254,179306,2,0,B|159:263|159:263|120:253,1,80
72,126,179675,5,4,1:0:0:0:
203,254,179858,1,0,0:0:0:0:
256,81,180042,2,0,L|259:28,1,40
310,164,180411,1,0,1:0:0:0:
120,194,180595,1,0,0:0:0:0:
236,325,180779,1,0,0:0:0:0:
224,116,180963,5,0,1:0:0:0:
412,342,181331,1,0,1:0:0:0:
323,102,181699,1,0,0:0:0:0:
190,189,181882,1,0,1:0:0:0:
347,259,182067,1,0,1:0:0:0:
347,259,182251,2,0,L|336:338,1,80,0|0,1:0|0:0,0:0:0:0:
295,173,182620,5,0,1:0:0:0:
169,95,182804,1,0,0:0:0:0:
275,266,182988,1,0,0:0:0:0:
347,97,183172,1,0,0:0:0:0:
153,216,183355,1,0,1:0:0:0:
376,211,183539,1,0,0:0:0:0:
256,45,183724,1,0,0:0:0:0:
153,216,183908,5,0,1:0:0:0:
397,143,184276,1,0,1:0:0:0:
230,321,184644,1,0,0:0:0:0:
192,192,184828,1,0,1:0:0:0:
107,96,185012,1,0,1:0:0:0:
107,96,185104,1,0,0:0:0:0:
107,96,185196,2,0,B|63:100|63:100|24:91,1,80
221,42,185564,5,4,1:0:0:0:
365,118,185748,1,0,0:0:0:0:
227,207,185932,2,0,L|219:252,1,40
149,353,186300,1,0,1:0:0:0:
319,301,186485,1,0,0:0:0:0:
153,224,186669,1,0,0:0:0:0:
319,159,186853,5,0,1:0:0:0:
99,282,187220,1,0,1:0:0:0:
331,235,187589,1,0,1:0:0:0:
331,235,187773,2,0,B|326:275|326:275|339:320,1,80,0|0,1:0|0:0,0:0:0:0:
423,243,188141,2,0,B|433:202|433:202|393:124,1,120
343,92,188509,6,0,B|291:73|291:73|236:115|169:35|115:128,1,240,4|0,1:1|0:0,0:0:0:0:
101,202,189245,1,0,0:0:0:0:
267,297,189429,1,0,0:0:0:0:
189,139,189613,1,0,0:0:0:0:
167,329,189797,5,0,0:0:0:0:
272,99,190165,1,0,1:0:0:0:
469,241,190533,1,0,0:0:0:0:
469,241,190718,2,0,P|447:280|405:299,1,80,0|0,1:0|1:0,0:0:0:0:
380,284,190994,1,0,0:0:0:0:
344,266,191086,2,0,B|302:258|302:258|255:268,1,80,0|0,1:0|0:0,0:0:0:0:
129,213,191454,5,4,1:0:0:0:
160,56,191638,1,0,0:0:0:0:
169,234,191822,1,0,0:0:0:0:
291,44,192006,1,0,0:0:0:0:
183,265,192190,1,0,1:0:0:0:
404,105,192374,1,0,0:0:0:0:
169,299,192558,1,0,0:0:0:0:
498,214,192742,5,0,1:0:0:0:
356,347,193110,1,0,1:0:0:0:
266,120,193478,1,0,1:0:0:0:
236,300,193662,2,0,L|137:304,1,80,0|0,0:0|0:0,0:0:0:0:
361,194,194031,2,0,L|440:190,1,80,0|0,0:0|0:0,0:0:0:0:
360,90,194398,5,4,1:0:0:0:
319,281,194582,1,0,0:0:0:0:
171,159,194766,1,0,0:0:0:0:
361,194,194951,1,0,0:0:0:0:
122,244,195135,1,0,1:0:0:0:
266,343,195319,1,0,0:0:0:0:
171,159,195502,1,0,0:0:0:0:
103,347,195687,5,0,1:0:0:0:
88,122,196055,1,0,1:0:0:0:
342,133,196423,1,0,0:0:0:0:
247,255,196607,1,0,1:0:0:0:
111,196,196791,1,0,1:0:0:0:
111,196,196883,1,0,0:0:0:0:
111,196,196975,2,0,P|92:161|88:113,1,80
188,53,197343,6,0,L|280:51,1,80,4|0,1:0|0:0,0:0:0:0:
421,127,197712,2,0,L|341:132,1,80
168,238,198079,2,0,L|262:235,1,80,0|0,1:0|0:0,0:0:0:0:
458,284,198447,2,0,L|386:290,1,40,0|0,0:0|0:0,0:0:0:0:
294,332,198631,5,0,1:0:0:0:
315,75,199000,1,0,1:0:0:0:
155,274,199368,1,0,1:0:0:0:
262,180,199552,1,0,1:0:0:0:
218,338,199736,1,0,1:0:0:0:
139,134,199920,1,0,1:0:0:0:
70,286,200104,1,0,1:0:0:0:
318,232,200288,5,4,1:0:0:0:
376,144,200656,1,0,0:0:0:0:
474,173,201024,1,0,0:0:0:0:
455,275,201392,2,0,L|467:348,1,60.0000022888184
369,206,201760,2,0,L|364:133,1,60.0000022888184
299,282,202128,2,0,L|305:365,1,60.0000022888184
216,223,202496,2,0,L|212:157,1,60.0000022888184
248,70,202865,1,0,0:0:0:0:
148,136,203049,1,0,0:0:0:0:
275,183,203233,5,0,1:0:0:0:
146,277,203601,1,0,0:0:0:0:
122,101,203969,1,0,0:0:0:0:
34,204,204337,2,0,L|31:263,1,60.0000022888184
110,285,204705,2,0,L|111:361,1,60.0000022888184,0|0,0:0|0:0,0:0:0:0:
194,301,205073,2,0,L|198:233,1,60.0000022888184
274,229,205441,2,0,L|279:151,1,60.0000022888184
289,72,205809,1,0,0:0:0:0:
393,137,206177,5,0,1:0:0:0:
393,259,206545,1,0,0:0:0:0:
290,324,206914,1,0,0:0:0:0:
172,345,207282,2,0,L|109:342,1,60.0000022888184
35,263,207650,2,0,L|122:267,1,60.0000022888184
211,208,208018,2,0,L|141:205,1,60.0000022888184
54,129,208386,2,0,L|133:135,1,60.0000022888184
234,83,208754,2,0,L|148:77,1,60.0000022888184
113,133,209122,6,0,L|112:203,1,60.0000022888184,0|0,1:0|0:0,0:0:0:0:
157,265,209490,2,0,B|210:266|244:292|244:292|287:268|327:268,1,180.000006866455
256,192,210227,12,0,217773,2:0:0:0:
