osu file format v14

[General]
AudioFilename: Pegboard Nerds - Emoji.mp3
AudioLeadIn: 0
PreviewTime: 46423
Countdown: 0
SampleSet: None
StackLeniency: 0.7
Mode: 0
LetterboxInBreaks: 0
WidescreenStoryboard: 0

[Editor]
Bookmarks: 18277
DistanceSpacing: 1.2
BeatDivisor: 4
GridSize: 32
TimelineZoom: 1

[Metadata]
Title:Emoji
TitleUnicode:Emoji
Artist:Pegboard Nerds
ArtistUnicode:Pegboard Nerds
Creator:Marmowka
Version:Hard
Source:
Tags:future bass glitch hop edm electronic bass pink cloud monstercat nerdnation hacksl
BeatmapID:877432
BeatmapSetID:391823

[Difficulty]
HPDrainRate:5.5
CircleSize:4
OverallDifficulty:6
ApproachRate:7.5
SliderMultiplier:1.4
SliderTickRate:1

[Events]
//Background and Video events
0,0,"oboi_3.jpg",0,0
//Break Periods
2,141592,152346
//Storyboard Layer 0 (Background)
//Storyboard Layer 1 (Fail)
//Storyboard Layer 2 (Pass)
//Storyboard Layer 3 (Foreground)
//Storyboard Sound Samples

[TimingPoints]
43,368.098159509202,4,3,1,20,1,0
43,-200,4,3,1,20,0,0
11822,-200,4,3,1,40,0,0
23601,-133.333333333333,4,3,1,65,0,0
35380,-117.647058823529,4,3,1,65,0,0
47159,-100,4,3,1,65,0,1
70717,-133.333333333333,4,3,1,65,0,0
82496,-117.647058823529,4,3,1,65,0,0
94276,-100,4,3,1,65,0,1
117834,-100,4,3,1,65,0,0
135503,-117.647058823529,4,3,1,65,0,0
138447,-133.333333333333,4,3,1,65,0,0
141392,-200,4,3,1,65,0,0
153171,-133.333333333333,4,3,1,65,0,0
164950,-117.647058823529,4,3,1,65,0,0
176730,-100,4,3,1,65,0,1
200288,-133.333333333333,4,3,1,65,0,0
217589,-133.333333333333,4,3,1,15,0,0

[Colours]
Combo1 : 123,9,63
Combo2 : 182,12,190
Combo3 : 34,125,238
Combo4 : 215,37,228

[HitObjects]
123,208,43,6,0,B|192:161|265:218,1,140,2|0,2:0|2:0,0:0:0:0:
316,266,1147,2,0,P|404:253|359:103,1,280,2|0,2:0|2:0,0:0:0:0:
287,88,2987,6,0,P|216:113|193:180,1,140,2|0,2:0|2:0,0:0:0:0:
216,249,4092,2,0,P|248:296|275:178,1,280,2|0,2:0|2:0,0:0:0:0:
202,178,5932,6,0,B|90:185|90:185|50:171,1,140,2|0,2:0|2:0,0:0:0:0:
65,91,7036,2,0,P|206:69|283:180,1,280,2|0,2:0|2:0,0:0:0:0:
254,247,8877,6,0,B|237:285|209:303|209:303|181:273|181:273|146:263,1,140,2|0,2:0|2:0,0:0:0:0:
98,204,9981,2,0,P|155:136|316:200,1,280,2|0,2:0|2:0,0:0:0:0:
355,266,11822,6,0,P|426:260|470:204,1,140,2|0,2:0|2:0,0:0:0:0:
401,162,12926,2,0,B|362:150|362:150|227:164|227:164|183:147,1,210,2|0,2:0|2:0,0:0:0:0:
136,92,14398,1,2,2:0:0:0:
80,156,14766,6,0,P|60:233|91:286,1,140,2|0,2:0|2:0,0:0:0:0:
168,259,15871,2,0,P|260:222|361:261,1,210,2|0,2:0|2:0,0:0:0:0:
435,294,17343,1,2,2:0:0:0:
483,223,17711,6,0,P|502:161|475:87,1,140,2|0,2:0|2:0,0:0:0:0:
400,61,18816,2,0,B|316:55,1,70,2|0,2:0|0:0,0:0:0:0:
250,82,19552,2,0,L|174:79,2,70,2|2|2,2:0|2:0|2:0,0:0:0:0:
304,146,20656,6,0,P|332:213|295:277,1,140,2|0,2:0|2:0,0:0:0:0:
231,312,21760,2,0,P|137:243|237:239,1,280,2|0,2:0|2:0,0:0:0:0:
315,324,23601,5,4,1:0:0:0:
409,240,23969,1,0,0:0:0:0:
354,126,24337,2,0,P|321:94|261:88,1,105.000004005432
149,152,25073,1,0,0:0:0:0:
51,71,25441,1,0,0:0:0:0:
11,190,25809,2,0,P|10:257|37:296,1,105.000004005432
152,337,26546,5,0,1:0:0:0:
235,242,26914,1,0,0:0:0:0:
344,304,27282,2,0,P|397:322|443:295,1,105.000004005432,0|0,0:0|0:0,0:0:0:0:
428,182,28018,1,0,0:0:0:0:
357,77,28386,1,0,0:0:0:0:
260,157,28754,2,0,B|167:161|167:161|139:151,1,105.000004005432,0|0,0:0|1:0,0:0:0:0:
100,127,29306,1,0,1:0:0:0:
100,127,29490,5,0,1:0:0:0:
205,88,29858,1,0,0:0:0:0:
135,219,30227,1,0,0:0:0:0:
188,313,30595,2,0,P|236:327|293:302,1,105.000004005432
234,220,31331,2,0,P|181:205|121:229,2,105.000004005432
353,259,32435,6,0,P|413:251|457:206,1,105.000004005432,0|0,1:0|0:0,0:0:0:0:
438,97,33171,1,0,0:0:0:0:
325,41,33539,1,0,0:0:0:0:
215,103,33908,2,0,P|201:154|219:218,1,105.000004005432
290,301,34644,6,0,L|300:369,2,52.5000020027161,0|0|0,1:0|0:0|1:0,0:0:0:0:
280,232,35196,1,0,1:0:0:0:
290,164,35380,6,0,L|313:44,2,119.000002269745,4|0|0,1:1|1:0|1:0,0:0:0:0:
280,232,36300,1,0,0:0:0:0:
254,298,36484,2,0,P|217:293|184:300,1,59.5000011348725,0|0,1:0|0:0,0:0:0:0:
137,254,36852,6,0,P|129:219|139:182,1,59.5000011348725,0|0,1:0|0:0,0:0:0:0:
168,134,37220,2,0,P|176:97|168:56,1,59.5000011348725,0|0,1:0|0:0,0:0:0:0:
119,29,37589,2,0,L|53:24,1,59.5000011348725,0|0,1:0|1:0,0:0:0:0:
50,95,37957,2,0,L|135:103,1,59.5000011348725,0|0,1:0|0:0,0:0:0:0:
169,138,38325,5,0,1:0:0:0:
237,182,38509,1,0,0:0:0:0:
302,141,38693,1,0,1:0:0:0:
353,198,38877,1,0,0:0:0:0:
318,260,39061,2,0,L|315:336,1,59.5000011348725,0|0,1:0|0:0,0:0:0:0:
254,355,39429,2,0,P|220:358|187:349,1,59.5000011348725,0|0,1:0|0:0,0:0:0:0:
130,323,39797,6,0,P|97:315|59:324,1,59.5000011348725,0|0,1:0|0:0,0:0:0:0:
28,262,40165,2,0,L|28:187,1,59.5000011348725,0|0,1:0|0:0,0:0:0:0:
51,135,40533,2,0,P|82:128|116:137,1,59.5000011348725,0|0,1:0|1:0,0:0:0:0:
168,173,40901,1,0,1:0:0:0:
237,154,41085,1,0,0:0:0:0:
299,187,41269,6,0,L|295:248,1,59.5000011348725,0|0,1:0|1:0,0:0:0:0:
363,268,41638,2,0,L|367:199,1,59.5000011348725,0|0,1:0|1:0,0:0:0:0:
412,154,42006,2,0,P|446:159|484:149,1,59.5000011348725,0|0,1:0|1:0,0:0:0:0:
441,89,42374,2,0,P|405:83|368:97,1,59.5000011348725,0|0,1:0|1:0,0:0:0:0:
328,149,42742,6,0,L|329:186,3,29.7500005674362,0|0|0|0,1:0|1:0|1:0|1:0,0:0:0:0:
249,193,43111,2,0,L|232:230,3,29.7500005674362,0|0|0|0,1:0|1:0|1:0|1:0,0:0:0:0:
153,208,43479,2,0,L|119:223,3,29.7500005674362,0|0|0|0,1:0|1:0|1:0|1:0,0:0:0:0:
60,169,43847,2,0,L|8:174,3,29.7500005674362,0|0|0|0,1:0|1:0|1:0|1:0,0:0:0:0:
256,192,44214,12,0,45687,0:0:0:0:
108,106,47159,6,0,P|172:81|232:110,1,140,4|0,0:1|0:0,0:0:0:0:
307,261,47895,2,0,P|350:267|393:252,1,70,0|0,1:0|0:0,0:0:0:0:
453,228,48263,1,0,0:0:0:0:
498,157,48447,6,0,L|491:0,1,140,0|0,1:0|1:0,0:0:0:0:
326,49,49184,1,0,0:0:0:0:
246,75,49368,2,0,L|177:71,1,70,0|0,1:0|0:0,0:0:0:0:
105,117,49736,2,0,P|90:160|104:205,1,70,0|0,1:0|0:0,0:0:0:0:
119,263,50104,5,4,1:1:0:0:
199,290,50288,1,0,0:0:0:0:
280,266,50472,2,0,P|316:258|360:274,1,70
310,341,50840,2,0,P|235:339|198:286,1,140,0|0,1:0|0:0,0:0:0:0:
176,210,51392,1,0,1:0:0:0:
303,86,51760,6,0,P|367:56|437:96,1,140,0|0,1:0|0:0,0:0:0:0:
369,143,52312,1,0,1:0:0:0:
445,178,52496,1,0,1:0:0:0:
390,242,52681,2,0,L|395:316,1,70,0|0,1:0|0:0,0:0:0:0:
330,366,53049,5,4,1:1:0:0:
276,301,53233,2,0,P|228:259|172:305,1,140
103,342,53785,2,0,P|68:353|35:341,1,70,0|0,1:0|0:0,0:0:0:0:
0,267,54153,1,0,0:0:0:0:
0,179,54337,6,0,P|6:126|85:76,1,140,0|0,1:0|1:0,0:0:0:0:
235,115,55073,1,0,0:0:0:0:
310,77,55258,2,0,L|381:78,1,70,0|0,1:0|0:0,0:0:0:0:
458,105,55625,2,0,P|467:148|449:178,1,70,0|0,1:0|0:0,0:0:0:0:
391,224,55993,5,4,1:1:0:0:
307,239,56178,1,0,0:0:0:0:
224,224,56362,2,0,P|198:199|150:197,1,70
89,229,56730,2,0,P|81:316|143:363,1,140,0|0,1:0|0:0,0:0:0:0:
158,280,57282,1,0,1:0:0:0:
251,140,57650,6,0,P|304:91|386:107,1,140,0|0,1:0|0:0,0:0:0:0:
444,134,58202,2,0,P|450:173|431:213,1,70,0|0,1:0|0:0,0:0:0:0:
430,284,58571,2,0,P|422:324|434:363,1,70,0|0,0:0|0:0,0:0:0:0:
342,337,58938,6,0,P|281:326|190:342,1,140,4|0,1:1|0:0,0:0:0:0:
131,294,59490,1,0,0:0:0:0:
83,220,59674,2,0,P|76:185|86:151,1,70,0|0,1:0|0:0,0:0:0:0:
142,90,60042,1,0,0:0:0:0:
219,122,60226,6,0,B|262:132|262:132|363:126,1,140,0|0,1:0|1:0,0:0:0:0:
497,32,60963,1,0,0:0:0:0:
480,114,61147,2,0,P|480:149|471:187,1,70,0|0,1:0|1:0,0:0:0:0:
400,226,61515,2,0,P|365:220|319:236,1,70,0|0,1:0|0:0,0:0:0:0:
252,255,61883,5,4,1:1:0:0:
176,218,62067,1,0,0:0:0:0:
117,276,62251,2,0,L|105:357,1,70
36,299,62619,2,0,P|63:209|130:192,1,140,0|0,1:0|0:0,0:0:0:0:
176,218,63171,1,0,1:0:0:0:
347,219,63539,6,0,P|412:185|430:117,1,140,0|0,1:0|0:0,0:0:0:0:
364,73,64091,2,0,B|313:69|313:69|290:74,1,70,0|0,1:0|1:0,0:0:0:0:
215,102,64460,2,0,B|167:108|167:108|147:102,1,70,0|0,1:0|0:0,0:0:0:0:
71,64,64828,5,4,1:1:0:0:
39,141,65012,2,0,B|33:176|33:176|51:243|51:243|53:291,1,140,0|4,0:0|1:1,0:0:0:0:
112,337,65564,2,0,L|195:333,1,70,0|0,1:0|0:0,0:0:0:0:
262,310,65932,1,0,0:0:0:0:
319,248,66116,6,0,P|346:190|306:104,1,140,0|0,1:0|1:0,0:0:0:0:
170,51,66853,1,0,0:0:0:0:
130,125,67037,2,0,P|123:160|136:200,1,70,0|0,1:0|1:0,0:0:0:0:
195,245,67404,2,0,L|288:248,1,70,0|0,1:0|0:0,0:0:0:0:
349,244,67773,5,4,1:1:0:0:
421,206,67957,1,0,0:0:0:0:
445,122,68141,2,0,P|452:82|427:35,1,70,0|0,1:0|0:0,0:0:0:0:
366,89,68509,2,0,B|331:84|331:84|258:103|258:103|225:98,1,140,0|0,1:0|0:0,0:0:0:0:
145,95,69061,1,0,1:0:0:0:
64,241,69429,6,0,P|103:298|200:314,1,140,0|0,1:0|1:0,0:0:0:0:
270,332,69981,1,0,1:0:0:0:
356,285,70165,1,0,1:0:0:0:
267,238,70349,1,0,1:0:0:0:
352,187,70533,1,0,1:0:0:0:
263,141,70717,5,4,1:1:0:0:
169,56,71085,1,0,0:0:0:0:
145,171,71454,2,0,P|90:184|42:167,1,105.000004005432
89,50,72189,1,0,0:0:0:0:
194,118,72557,1,0,0:0:0:0:
308,69,72925,2,0,P|323:125|298:184,1,105.000004005432,0|0,0:0|0:0,0:0:0:0:
212,241,73662,5,0,1:0:0:0:
194,118,74030,1,0,0:0:0:0:
309,168,74398,2,0,P|363:182|426:150,1,105.000004005432,0|0,0:0|0:0,0:0:0:0:
496,78,75134,1,0,0:0:0:0:
479,202,75502,1,0,0:0:0:0:
447,324,75870,2,0,B|374:339|374:339|341:332,1,105.000004005432,0|0,0:0|0:0,0:0:0:0:
250,253,76606,5,0,1:0:0:0:
161,170,76974,1,0,0:0:0:0:
58,244,77343,1,0,0:0:0:0:
164,301,77711,2,0,P|231:279|257:234,1,105.000004005432,0|0,0:0|0:0,0:0:0:0:
313,144,78447,2,0,P|348:106|399:96,1,105.000004005432,0|0,0:0|0:0,0:0:0:0:
481,191,79183,1,0,0:0:0:0:
420,302,79552,6,0,L|309:298,1,105.000004005432,0|0,1:0|0:0,0:0:0:0:
195,336,80287,1,0,0:0:0:0:
94,260,80655,1,0,0:0:0:0:
189,176,81024,2,0,P|204:127|188:78,1,105.000004005432
60,97,81760,6,0,L|6:93,2,52.5000020027161,0|0|0,1:0|1:0|1:0,0:0:0:0:
131,118,82312,1,0,1:0:0:0:
96,180,82496,6,0,P|77:240|100:299,2,119.000002269745,4|0|0,1:0|1:0|1:0,0:0:0:0:
131,118,83416,1,0,0:0:0:0:
188,163,83600,2,0,P|217:159|246:164,1,59.5000011348725,0|0,1:0|0:0,0:0:0:0:
317,173,83969,6,0,P|348:178|392:162,1,59.5000011348725,0|0,1:0|0:0,0:0:0:0:
427,221,84336,2,0,P|422:250|432:281,1,59.5000011348725,0|0,1:0|0:0,0:0:0:0:
379,328,84705,2,0,P|346:322|312:329,1,59.5000011348725,0|0,1:0|0:0,0:0:0:0:
249,330,85073,2,0,P|219:335|187:327,1,59.5000011348725,0|0,1:0|0:0,0:0:0:0:
136,282,85441,5,0,1:0:0:0:
107,216,85625,1,0,0:0:0:0:
174,191,85809,1,0,1:0:0:0:
151,123,85993,1,0,0:0:0:0:
192,65,86177,2,0,P|221:61|250:66,1,59.5000011348725,0|0,1:0|0:0,0:0:0:0:
319,86,86545,2,0,P|348:91|377:88,1,59.5000011348725,0|0,1:0|0:0,0:0:0:0:
420,145,86913,6,0,P|427:173|417:207,1,59.5000011348725,0|0,1:0|0:0,0:0:0:0:
387,265,87281,2,0,P|381:293|387:322,1,59.5000011348725,0|0,1:0|0:0,0:0:0:0:
323,354,87649,2,0,P|293:348|265:355,1,59.5000011348725,0|0,1:0|0:0,0:0:0:0:
203,319,88017,1,0,1:0:0:0:
133,346,88201,1,0,1:0:0:0:
87,290,88385,6,0,L|90:230,1,59.5000011348725,0|0,1:0|1:0,0:0:0:0:
137,175,88754,2,0,L|141:106,1,59.5000011348725,0|0,1:0|1:0,0:0:0:0:
184,59,89122,2,0,P|213:53|241:59,1,59.5000011348725,0|0,1:0|1:0,0:0:0:0:
271,125,89490,2,0,L|266:208,1,59.5000011348725,0|0,1:0|1:0,0:0:0:0:
313,251,89858,6,0,L|346:247,3,29.7500005674362,0|0|0|0,1:0|1:0|1:0|1:0,0:0:0:0:
236,288,90227,2,0,L|187:293,3,29.7500005674362,0|0|0|0,1:0|1:0|1:0|1:0,0:0:0:0:
327,325,90595,2,0,L|376:322,3,29.7500005674362,0|0|0|0,1:0|1:0|1:0|1:0,0:0:0:0:
241,361,90963,2,0,L|189:366,3,29.7500005674362,0|0|0|0,1:3|1:3|1:3|1:3,0:0:0:0:
256,192,91331,12,0,92804,1:0:0:0:
93,277,94276,6,0,P|176:279|225:237,1,140,4|0,1:1|0:0,0:0:0:0:
305,102,95012,2,0,L|391:93,1,70,0|0,1:0|0:0,0:0:0:0:
432,155,95380,1,0,1:0:0:0:
375,216,95564,6,0,P|356:277|381:355,1,140,0|0,1:0|1:0,0:0:0:0:
487,222,96301,1,2,0:0:0:0:
432,155,96484,2,0,P|369:133|306:171,1,140,2|0,0:0|1:0,0:0:0:0:
261,236,97036,1,0,1:0:0:0:
182,266,97220,6,0,B|111:262,1,70,4|0,1:1|0:0,0:0:0:0:
78,184,97589,2,0,L|157:188,1,70,0|0,0:0|0:0,0:0:0:0:
227,161,97957,2,0,P|269:109|254:29,1,140,0|0,1:0|0:0,0:0:0:0:
193,84,98509,1,0,1:0:0:0:
91,217,98877,6,0,P|112:281|192:301,1,140,0|0,1:0|0:0,0:0:0:0:
252,271,99429,2,0,L|328:264,1,70,0|0,1:0|1:0,0:0:0:0:
369,334,99798,2,0,L|290:342,1,70,0|0,1:0|0:0,0:0:0:0:
252,271,100166,5,4,1:0:0:0:
91,217,100533,2,0,L|21:225,1,70,0|0,0:0|0:0,0:0:0:0:
69,294,100902,2,0,L|140:286,1,70,0|0,1:0|0:0,0:0:0:0:
191,220,101270,1,0,0:0:0:0:
191,220,101454,6,0,P|250:192|313:221,1,140,0|0,1:0|1:0,0:0:0:0:
414,290,102191,1,0,0:0:0:0:
414,290,102374,2,0,P|437:225|410:163,1,140,0|0,1:0|1:0,0:0:0:0:
346,109,102926,1,0,1:0:0:0:
269,74,103110,6,0,P|230:67|199:73,1,70,4|0,1:1|0:0,0:0:0:0:
162,147,103479,2,0,P|195:154|230:147,1,70,0|0,0:0|0:0,0:0:0:0:
302,189,103846,2,0,B|299:298|299:298|292:328,1,140,0|0,1:0|0:0,0:0:0:0:
213,355,104399,5,0,1:0:0:0:
69,272,104766,2,0,P|47:208|70:138,1,140,0|0,1:0|1:0,0:0:0:0:
137,93,105319,2,0,L|286:79,1,140,0|0,1:0|0:0,0:0:0:0:
439,113,106055,6,0,P|471:193|433:260,1,140,4|0,1:1|0:0,0:0:0:0:
302,313,106791,2,0,L|225:318,1,70,0|0,1:0|0:0,0:0:0:0:
156,280,107159,1,0,0:0:0:0:
121,203,107343,6,0,B|114:101|114:101|125:64,1,140,0|0,1:0|1:0,0:0:0:0:
268,153,108080,1,0,0:0:0:0:
302,229,108263,2,0,L|297:311,1,70,0|0,1:0|1:0,0:0:0:0:
226,342,108631,2,0,P|187:335|144:345,1,70,0|0,1:0|0:0,0:0:0:0:
127,260,109000,6,0,P|191:247|268:267,1,140,4|0,1:0|0:0,0:0:0:0:
343,285,109552,1,0,0:0:0:0:
421,255,109736,2,0,P|442:177|412:124,1,140,0|0,1:0|0:0,0:0:0:0:
338,95,110288,1,0,1:0:0:0:
227,221,110656,6,0,P|201:288|232:353,1,140,0|0,1:0|0:0,0:0:0:0:
308,330,111208,2,0,B|337:318|376:330,1,70,0|0,1:0|1:0,0:0:0:0:
447,284,111577,2,0,B|440:205,1,70,0|0,1:0|0:0,0:0:0:0:
362,184,111944,6,0,P|325:194|282:186,1,70,4|0,1:0|0:0,0:0:0:0:
217,155,112312,1,0,1:0:0:0:
147,202,112496,1,0,0:0:0:0:
63,211,112681,2,0,P|41:184|40:134,1,70,0|0,1:0|0:0,0:0:0:0:
77,77,113049,1,0,0:0:0:0:
115,151,113233,6,0,P|139:218|109:278,1,140,0|0,1:0|1:0,0:0:0:0:
268,327,113969,1,0,0:0:0:0:
246,245,114153,2,0,P|237:211|244:177,1,70,0|0,1:0|0:0,0:0:0:0:
314,131,114521,2,0,P|323:164|320:199,1,70,0|0,1:0|1:0,0:0:0:0:
246,245,114889,6,0,L|145:244,1,70,4|0,1:0|0:0,0:0:0:0:
137,318,115257,2,0,L|237:318,1,70,0|0,1:0|0:0,0:0:0:0:
289,315,115625,2,0,P|325:259|303:188,1,140,0|0,1:0|0:0,0:0:0:0:
240,139,116178,5,0,1:0:0:0:
102,236,116546,2,0,P|152:281|229:284,1,140,0|0,1:0|0:0,0:0:0:0:
305,284,117098,2,0,P|372:279|427:230,1,140,0|0,1:0|0:0,0:0:0:0:
362,77,117834,6,0,B|279:81,1,70,4|0,1:0|0:0,0:0:0:0:
211,105,118202,2,0,P|164:149|219:188,1,140,0|0,0:0|1:0,0:0:0:0:
288,215,118754,2,0,P|295:249|286:290,1,70,0|0,0:0|0:0,0:0:0:0:
230,342,119122,2,0,P|190:336|145:346,1,70,0|0,0:0|0:0,0:0:0:0:
88,302,119490,5,0,0:0:0:0:
54,222,119674,2,0,L|50:120,1,70,0|0,0:0|0:0,0:0:0:0:
128,90,120042,1,0,1:0:0:0:
233,103,120227,1,0,1:0:0:0:
176,180,120411,1,0,1:0:0:0:
280,200,120595,1,0,1:0:0:0:
280,200,120779,6,0,L|359:206,1,70,4|0,0:0|0:0,0:0:0:0:
309,279,121147,2,0,L|235:272,1,70
156,283,121515,1,0,1:0:0:0:
108,213,121699,2,0,P|97:175|112:134,1,70
174,100,122067,2,0,P|206:93|246:103,1,70
323,81,122435,6,0,P|344:43|345:11,2,70
358,157,122987,2,0,L|356:226,1,70,0|0,1:0|0:0,0:0:0:0:
285,273,123355,2,0,P|245:265|212:274,1,70
136,295,123723,6,0,P|96:301|64:291,1,70,4|0,1:1|0:0,0:0:0:0:
33,215,124092,2,0,P|100:197|175:220,1,140,0|0,0:0|1:0,0:0:0:0:
242,177,124644,2,0,P|258:140|256:105,1,70
307,44,125013,2,0,P|338:55|382:54,1,70
435,110,125380,6,0,B|427:135|427:135|435:165|435:165|430:188,1,70
413,261,125748,1,0,0:0:0:0:
358,344,125931,1,0,0:0:0:0:
300,261,126116,1,0,0:0:0:0:
239,341,126300,1,0,0:0:0:0:
197,257,126484,1,0,0:0:0:0:
197,257,126668,6,0,L|193:185,1,70,4|0,0:0|0:0,0:0:0:0:
221,104,127036,2,0,B|256:99|256:99|305:108,1,70
363,145,127404,1,0,1:0:0:0:
311,213,127588,2,0,L|305:282,1,70
244,341,127956,2,0,P|211:348|164:336,1,70
90,279,128324,5,0,0:0:0:0:
170,209,128508,1,0,0:0:0:0:
104,124,128692,1,0,0:0:0:0:
201,79,128876,2,0,B|235:68|235:68|289:85,1,70,0|0,1:0|0:0,0:0:0:0:
306,153,129245,2,0,B|341:162|341:162|377:151,1,70
461,154,129613,6,0,L|464:233,1,70
472,302,129981,2,0,P|418:333|347:307,1,140,0|0,0:0|1:0,0:0:0:0:
285,255,130533,2,0,P|251:249|214:257,1,70
140,288,130901,2,0,P|97:295|54:279,1,70,0|0,0:0|0:0,0:0:0:0:
15,226,131269,5,0,0:0:0:0:
13,142,131453,2,0,L|23:59,1,70,0|0,0:0|0:0,0:0:0:0:
113,15,131821,1,0,1:0:0:0:
107,115,132006,1,0,1:0:0:0:
209,143,132190,1,0,1:0:0:0:
191,237,132374,1,0,1:0:0:0:
191,237,132558,6,0,P|184:278|187:314,1,70,4|0,0:0|0:0,0:0:0:0:
262,339,132926,2,0,P|299:334|357:346,1,70
408,304,133294,1,0,1:0:0:0:
460,238,133478,2,0,P|470:204|458:152,1,70
399,118,133846,2,0,L|326:113,1,70
262,62,134214,5,0,0:0:0:0:
182,87,134398,1,0,0:0:0:0:
103,57,134582,1,0,0:0:0:0:
81,138,134766,2,0,B|89:174|89:174|76:223,1,70,0|0,1:0|0:0,0:0:0:0:
50,284,135135,2,0,B|41:317|41:317|48:353,1,70
119,355,135503,6,0,B|154:344|154:344|198:349,1,59.5000011348725,4|0,1:0|0:0,0:0:0:0:
248,344,135871,1,0,0:0:0:0:
384,301,136239,2,0,P|412:235|397:170,1,119.000002269745
360,135,136791,1,0,0:0:0:0:
293,160,136975,2,0,P|256:184|170:181,1,119.000002269745,0|0,0:0|0:0,0:0:0:0:
88,78,137711,1,0,0:0:0:0:
100,220,138079,1,0,0:0:0:0:
256,192,138447,12,4,141392,0:1:0:0:
71,213,153171,5,4,1:0:0:0:
124,327,153539,1,0,0:0:0:0:
169,209,153908,2,0,B|222:201|222:201|272:213,1,105.000004005432,0|0,0:0|0:0,0:0:0:0:
362,299,154643,1,0,0:0:0:0:
451,210,155011,1,0,0:0:0:0:
387,101,155379,2,0,P|335:88|279:103,1,105.000004005432,0|0,0:0|0:0,0:0:0:0:
203,195,156116,5,0,1:0:0:0:
150,309,156484,1,0,0:0:0:0:
75,207,156852,2,0,B|82:134|82:134|72:101,1,105.000004005432,0|0,0:0|0:0,0:0:0:0:
1,207,157588,1,0,0:0:0:0:
143,241,157956,1,0,0:0:0:0:
261,186,158325,2,0,B|351:164|351:164|380:168,1,105.000004005432,0|0,0:0|1:0,0:0:0:0:
423,184,158877,1,0,1:0:0:0:
423,184,159061,5,0,1:0:0:0:
352,332,159428,1,0,0:0:0:0:
246,262,159797,1,0,0:0:0:0:
139,328,160165,2,0,P|119:278|136:220,1,105.000004005432,0|0,0:0|0:0,0:0:0:0:
148,105,160901,2,0,P|123:152|72:171,1,105.000004005432,0|0,0:0|0:0,0:0:0:0:
10,278,161637,1,0,0:0:0:0:
128,320,162006,6,0,L|240:319,1,105.000004005432,0|0,1:0|0:0,0:0:0:0:
361,308,162741,1,0,0:0:0:0:
435,206,163109,1,0,0:0:0:0:
357,106,163478,2,0,P|302:86|246:111,1,105.000004005432
180,154,164214,6,0,L|198:225,2,52.5000020027161,0|0|0,1:0|0:0|1:0,0:0:0:0:
111,130,164766,1,0,1:0:0:0:
66,184,164950,6,0,L|57:326,2,119.000002269745,4|0|0,1:0|1:0|1:0,0:0:0:0:
111,130,165870,1,0,0:0:0:0:
169,89,166054,2,0,P|200:85|244:95,1,59.5000011348725,0|0,1:0|0:0,0:0:0:0:
288,126,166423,6,0,P|321:132|361:123,1,59.5000011348725,0|0,1:0|0:0,0:0:0:0:
411,156,166790,2,0,P|418:187|409:221,1,59.5000011348725,0|0,1:0|0:0,0:0:0:0:
374,274,167159,2,0,L|314:269,1,59.5000011348725,0|0,1:0|0:0,0:0:0:0:
292,336,167527,2,0,L|358:342,1,59.5000011348725,0|0,1:0|0:0,0:0:0:0:
374,274,167895,5,0,1:0:0:0:
318,229,168079,1,0,0:0:0:0:
255,262,168263,1,0,1:0:0:0:
203,212,168447,1,0,0:0:0:0:
231,146,168631,2,0,L|234:70,1,59.5000011348725,0|0,1:0|0:0,0:0:0:0:
270,25,168999,2,0,P|304:22|337:31,1,59.5000011348725,0|0,1:0|0:0,0:0:0:0:
394,57,169367,6,0,P|427:65|465:56,1,59.5000011348725,0|0,1:0|0:0,0:0:0:0:
496,118,169735,2,0,L|496:193,1,59.5000011348725,0|0,1:0|0:0,0:0:0:0:
473,245,170103,2,0,P|442:252|408:243,1,59.5000011348725,0|0,1:0|0:0,0:0:0:0:
356,207,170471,1,0,1:0:0:0:
287,226,170655,1,0,0:0:0:0:
225,193,170840,6,0,L|229:132,1,59.5000011348725,0|0,1:0|1:0,0:0:0:0:
161,112,171208,2,0,L|157:181,1,59.5000011348725,0|0,1:0|1:0,0:0:0:0:
112,226,171576,2,0,P|78:221|40:231,1,59.5000011348725,0|0,1:0|1:0,0:0:0:0:
83,291,171944,2,0,P|119:297|156:283,1,59.5000011348725,0|0,1:0|1:0,0:0:0:0:
238,317,172312,6,0,L|243:364,3,29.7500005674362,0|0|0|0,1:0|1:0|1:0|1:0,0:0:0:0:
328,306,172681,2,0,L|356:337,3,29.7500005674362,0|0|0|0,1:0|1:0|1:0|1:0,0:0:0:0:
401,249,173049,2,0,L|449:247,3,29.7500005674362,0|0|0|0,1:0|1:0|1:0|1:0,0:0:0:0:
452,169,173417,2,0,L|481:162,3,29.7500005674362,0|0|0|0,1:0|1:0|1:0|1:0,0:0:0:0:
256,192,173785,12,0,175993,1:0:0:0:
439,261,176730,6,0,P|376:289|308:253,1,140,4|0,1:0|0:0,0:0:0:0:
205,123,177466,2,0,P|162:117|119:132,1,70,0|0,1:0|0:0,0:0:0:0:
59,156,177834,1,0,0:0:0:0:
36,236,178018,6,0,P|80:325|128:337,1,140,0|0,1:0|1:0,0:0:0:0:
269,274,178754,1,0,0:0:0:0:
344,310,178939,2,0,P|382:319|413:312,1,70,0|0,1:0|0:0,0:0:0:0:
477,261,179306,2,0,L|482:169,1,70,0|4,1:0|1:0,0:0:0:0:
431,123,179674,5,4,1:1:0:0:
352,152,179858,1,0,0:0:0:0:
271,125,180043,2,0,P|233:130|192:121,1,70
233,46,180411,2,0,B|262:45|336:37|336:37|397:50,1,140,0|0,1:0|0:0,0:0:0:0:
431,104,180963,1,0,1:0:0:0:
347,250,181330,6,0,B|311:258|311:258|245:247|245:247|203:258,1,140,0|0,1:0|0:0,0:0:0:0:
140,211,181883,1,0,1:0:0:0:
222,107,182067,1,0,1:0:0:0:
222,107,182252,2,0,L|214:185,1,70,0|0,1:0|0:0,0:0:0:0:
140,211,182619,5,4,1:0:0:0:
65,165,182804,2,0,P|84:82|155:60,1,140,0|0,1:0|0:0,0:0:0:0:
212,64,183356,2,0,L|291:69,1,70,0|0,1:0|0:0,0:0:0:0:
363,46,183724,1,0,0:0:0:0:
437,87,183908,6,0,B|451:191|451:191|438:240,1,140,0|0,1:0|1:0,0:0:0:0:
319,340,184645,1,0,0:0:0:0:
243,306,184829,2,0,P|209:300|172:305,1,70,0|0,1:0|0:0,0:0:0:0:
102,261,185196,2,0,P|88:228|94:184,1,70,0|4,1:0|1:0,0:0:0:0:
147,133,185564,5,4,1:1:0:0:
221,172,185749,1,0,0:0:0:0:
301,194,185933,2,0,P|342:200|382:190,1,70
441,151,186301,2,0,P|456:81|398:21,1,140,0|0,1:0|0:0,0:0:0:0:
375,101,186853,5,0,1:0:0:0:
280,239,187221,2,0,L|126:254,1,140,0|0,1:0|1:0,0:0:0:0:
59,229,187773,2,0,P|33:154|67:83,1,140,0|0,1:0|0:0,0:0:0:0:
213,53,188509,6,0,P|274:64|365:48,1,140,4|0,1:0|0:0,0:0:0:0:
429,164,189245,2,0,P|436:199|426:233,1,70,0|0,1:0|0:0,0:0:0:0:
370,294,189613,1,0,0:0:0:0:
293,262,189797,6,0,B|250:252|250:252|149:258,1,140,0|0,1:0|1:0,0:0:0:0:
15,352,190534,1,0,0:0:0:0:
24,268,190718,2,0,P|24:233|33:195,1,70,0|0,1:0|1:0,0:0:0:0:
94,143,191085,2,0,P|130:136|163:145,1,70,0|0,1:0|0:0,0:0:0:0:
223,201,191454,5,4,1:1:0:0:
284,257,191638,1,0,1:0:0:0:
303,175,191822,1,0,1:0:0:0:
366,230,192006,1,0,1:0:0:0:
385,148,192190,2,0,P|348:97|254:105,1,140,0|0,1:0|0:0,0:0:0:0:
203,135,192742,1,0,1:0:0:0:
141,291,193110,6,0,P|206:314|275:289,1,140,0|0,1:0|1:0,0:0:0:0:
346,255,193662,2,0,B|379:246|379:246|419:255,1,70
493,224,194030,2,0,B|491:144,1,70
438,88,194399,5,4,1:0:0:0:
357,60,194582,2,0,L|254:66,1,70
205,82,194950,1,0,0:0:0:0:
166,157,195135,2,0,L|165:238,1,70,0|0,1:0|0:0,0:0:0:0:
198,303,195503,1,0,0:0:0:0:
273,340,195687,6,0,L|425:335,1,140,0|0,1:0|1:0,0:0:0:0:
458,173,196424,1,0,0:0:0:0:
394,118,196608,2,0,P|350:111|320:124,1,70,0|0,1:0|0:0,0:0:0:0:
257,166,196976,2,0,P|197:183|111:163,1,140
53,119,197528,5,0,0:0:0:0:
27,198,197712,2,0,P|19:236|43:285,1,70
92,318,198079,2,0,B|127:323|127:323|200:304|200:304|233:309,1,140,0|0,1:0|0:0,0:0:0:0:
311,324,198632,1,0,1:0:0:0:
415,192,199000,6,0,P|376:135|279:119,1,140,0|0,1:0|1:0,0:0:0:0:
237,72,199552,1,0,1:0:0:0:
170,138,199736,1,0,1:0:0:0:
103,51,199920,1,0,1:0:0:0:
44,177,200104,1,0,1:0:0:0:
95,289,200288,5,4,1:0:0:0:
221,305,200656,1,0,0:0:0:0:
327,237,201024,2,0,B|336:157|336:157|327:132,1,105.000004005432
207,172,201760,1,0,0:0:0:0:
142,66,202128,1,0,0:0:0:0:
83,178,202496,2,0,B|96:259|96:259|109:284,1,105.000004005432
218,337,203233,5,0,1:0:0:0:
340,309,203601,1,0,0:0:0:0:
414,207,203969,2,0,B|416:129|416:129|410:102,1,105.000004005432
296,48,204705,1,0,0:0:0:0:
170,48,205073,1,0,0:0:0:0:
85,141,205441,2,0,B|100:232|100:232|124:253,1,105.000004005432,0|0,0:0|1:0,0:0:0:0:
149,288,205993,5,0,1:0:0:0:
149,288,206177,1,0,1:0:0:0:
191,169,206545,1,0,0:0:0:0:
236,55,206914,1,0,0:0:0:0:
337,129,207282,2,0,P|365:184|353:233,1,105.000004005432
272,317,208018,2,0,P|222:332|173:315,2,105.000004005432
223,200,209122,6,0,P|178:182|117:196,1,105.000004005432,0|0,1:0|0:0,0:0:0:0:
52,295,209858,1,0,0:0:0:0:
123,192,210226,1,0,0:0:0:0:
256,192,210595,12,0,217773,2:0:0:0:
