osu file format v14

[General]
AudioFilename: Pegboard Nerds - Emoji.mp3
AudioLeadIn: 0
PreviewTime: 46423
Countdown: 0
SampleSet: None
StackLeniency: 0.7
Mode: 0
LetterboxInBreaks: 0
WidescreenStoryboard: 0

[Editor]
DistanceSpacing: 1
BeatDivisor: 4
GridSize: 32
TimelineZoom: 1

[Metadata]
Title:Emoji
TitleUnicode:Emoji
Artist:Pegboard Nerds
ArtistUnicode:Pegboard Nerds
Creator:Marmowka
Version:Advanced
Source:
Tags:future bass glitch hop edm electronic bass pink cloud monstercat nerdnation hacksl
BeatmapID:877963
BeatmapSetID:391823

[Difficulty]
HPDrainRate:4
CircleSize:3.5
OverallDifficulty:4.5
ApproachRate:5.5
SliderMultiplier:1.2
SliderTickRate:1

[Events]
//Background and Video events
0,0,"oboi_3.jpg",0,0
//Break Periods
2,141592,151851
//Storyboard Layer 0 (Background)
//Storyboard Layer 1 (Fail)
//Storyboard Layer 2 (Pass)
//Storyboard Layer 3 (Foreground)
//Storyboard Sound Samples

[TimingPoints]
43,368.098159509202,4,3,1,20,1,0
43,-200,4,3,1,20,0,0
11822,-200,4,3,1,40,0,0
23601,-133.333333333333,4,3,1,65,0,0
35380,-117.647058823529,4,3,1,65,0,0
47159,-111.111111111111,4,3,1,65,0,1
70717,-133.333333333333,4,3,1,65,0,0
82496,-117.647058823529,4,3,1,65,0,0
94276,-111.111111111111,4,3,1,65,0,1
117834,-111.111111111111,4,3,1,65,0,0
135503,-117.647058823529,4,3,1,65,0,0
138447,-133.333333333333,4,3,1,65,0,0
141392,-200,4,3,1,65,0,0
153171,-133.333333333333,4,3,1,65,0,0
164950,-117.647058823529,4,3,1,65,0,0
176730,-111.111111111111,4,3,1,65,0,1
200288,-133.333333333333,4,3,1,65,0,0
217589,-133.333333333333,4,3,1,15,0,0

[Colours]
Combo1 : 123,9,63
Combo2 : 182,12,190
Combo3 : 34,125,238
Combo4 : 215,37,228

[HitObjects]
317,316,43,6,0,P|249:332|198:309,1,120,2|0,2:0|2:0,0:0:0:0:
151,285,1147,2,0,P|105:245|154:94,1,240,2|0,2:0|2:0,0:0:0:0:
204,67,2987,6,0,P|260:50|316:68,1,120,2|0,2:0|2:0,0:0:0:0:
371,93,4092,2,0,P|432:188|370:283,1,240,2|0,2:0|2:0,0:0:0:0:
309,279,5932,6,0,P|254:263|193:280,1,120,2|0,2:0|2:0,0:0:0:0:
135,283,7036,2,0,P|72:188|133:92,1,240,2|0,2:0|2:0,0:0:0:0:
192,104,8877,6,0,P|247:117|311:103,1,120,2|0,2:0|2:0,0:0:0:0:
359,72,9981,2,0,P|454:83|446:207,1,240,2|0,2:0|2:0,0:0:0:0:
397,235,11822,6,0,B|384:320|384:320|361:349,1,120,2|0,2:0|2:0,0:0:0:0:
304,334,12926,2,0,P|228:299|138:342,1,180,2|0,2:0|2:0,0:0:0:0:
85,345,14398,1,2,2:0:0:0:
56,292,14766,6,0,P|45:239|62:173,1,120,2|0,2:0|2:0,0:0:0:0:
118,159,15871,2,0,P|206:190|292:150,1,180,2|0,2:0|2:0,0:0:0:0:
335,130,17343,1,2,2:0:0:0:
390,152,17711,6,0,B|409:178|409:178|403:266,1,120,2|0,2:0|2:0,0:0:0:0:
355,302,18816,2,0,P|322:309|289:298,1,60,2|0,2:0|0:0,0:0:0:0:
250,264,19552,2,0,L|247:198,2,60,2|2|2,2:0|2:0|2:0,0:0:0:0:
196,291,20656,6,0,P|135:267|114:214,1,120,2|0,2:0|2:0,0:0:0:0:
111,160,21760,2,0,P|206:90|286:165,1,240,2|0,2:0|2:0,0:0:0:0:
247,240,23601,6,0,P|236:283|249:333,2,90.0000034332277,4|0|0,1:0|0:0|0:0,0:0:0:0:
332,211,24705,2,0,L|437:215,1,90.0000034332277
493,159,25441,1,0,0:0:0:0:
427,97,25809,2,0,B|335:92,1,90.0000034332277
249,115,26546,6,0,P|228:144|226:205,2,90.0000034332277,0|0|0,1:0|0:0|0:0,0:0:0:0:
337,92,27650,1,0,0:0:0:0:
310,177,28018,2,0,P|308:226|282:263,1,90.0000034332277
210,307,28754,1,0,0:0:0:0:
134,258,29122,6,0,P|111:218|127:159,1,90.0000034332277,0|0,1:0|1:0,0:0:0:0:
170,104,29858,2,0,P|211:93|267:111,1,90.0000034332277
309,176,30595,2,0,P|358:189|400:176,1,90.0000034332277
468,127,31331,2,0,L|482:31,2,90.0000034332277
454,215,32435,6,0,L|440:313,2,90.0000034332277,0|0|0,1:0|0:0|0:0,0:0:0:0:
394,147,33539,1,0,0:0:0:0:
309,115,33908,2,0,B|247:106|247:106|212:121,1,90.0000034332277
209,205,34644,2,0,B|216:273|216:273|202:302,1,90.0000034332277,0|0,0:0|1:0,0:0:0:0:
115,338,35380,6,0,P|61:326|10:341,2,102.000001945496,4|0|0,1:1|1:0|1:0,0:0:0:0:
214,316,36484,2,0,P|261:329|313:314,1,102.000001945496,0|0,1:0|1:0,0:0:0:0:
394,255,37220,2,0,P|409:201|383:141,1,102.000001945496,0|0,1:0|1:0,0:0:0:0:
344,69,37957,1,0,1:0:0:0:
244,44,38325,6,0,L|137:38,2,102.000001945496,0|0|0,1:0|1:0|1:0,0:0:0:0:
292,133,39429,1,0,1:0:0:0:
200,178,39797,2,0,P|184:225|202:272,1,102.000001945496,0|0,1:0|1:0,0:0:0:0:
290,227,40533,2,0,P|307:180|291:132,1,102.000001945496,0|0,1:0|1:0,0:0:0:0:
345,53,41269,6,0,B|417:69|417:69|443:96,1,102.000001945496,0|0,1:0|1:0,0:0:0:0:
455,189,42006,2,0,B|451:269|451:269|435:301,1,102.000001945496,0|0,1:0|1:0,0:0:0:0:
348,329,42742,2,0,P|210:252|364:221,1,408.000007781983,0|0,1:0|0:0,0:0:0:0:
256,192,44398,12,0,45687,0:0:0:0:
445,244,47159,6,0,P|388:229|335:246,1,107.999996704102,4|0,0:1|0:0,0:0:0:0:
242,284,47895,1,0,1:0:0:0:
154,220,48263,2,0,B|149:188|149:188|154:155,1,53.9999983520508,0|0,0:0|1:0,0:0:0:0:
205,72,48816,1,0,1:0:0:0:
310,49,49184,2,0,P|340:45|380:57,1,53.9999983520508,0|0,0:0|1:0,0:0:0:0:
402,86,49552,2,0,P|413:115|406:150,1,53.9999983520508
386,242,50104,6,0,L|392:362,2,107.999996704102,4|0|0,1:1|0:0|1:0,0:0:0:0:
293,186,51208,2,0,L|239:184,1,53.9999983520508,0|0,0:0|1:0,0:0:0:0:
146,239,51760,1,0,1:0:0:0:
52,185,52128,2,0,P|46:151|62:119,1,53.9999983520508,0|0,0:0|1:0,0:0:0:0:
80,87,52496,2,0,L|133:84,1,53.9999983520508,0|0,1:0|1:0,0:0:0:0:
222,145,53049,6,0,P|235:200|220:255,1,107.999996704102,4|0,1:1|0:0,0:0:0:0:
157,334,53785,1,0,1:0:0:0:
264,335,54153,2,0,P|290:329|319:336,1,53.9999983520508,0|0,0:0|1:0,0:0:0:0:
424,338,54705,1,0,1:0:0:0:
417,230,55073,2,0,P|425:202|414:174,1,53.9999983520508,0|0,0:0|1:0,0:0:0:0:
385,135,55441,2,0,P|358:129|331:135,1,53.9999983520508,0|0,1:0|0:0,0:0:0:0:
234,179,55993,6,0,P|183:194|114:166,2,107.999996704102,4|0|0,1:1|0:0|1:0,0:0:0:0:
328,126,57098,2,0,P|353:111|370:83,1,53.9999983520508,0|0,0:0|1:0,0:0:0:0:
473,75,57650,2,0,P|459:130|471:188,1,107.999996704102
477,233,58202,2,0,P|470:299|426:340,1,107.999996704102,0|0,1:0|0:0,0:0:0:0:
336,335,58938,6,0,L|229:333,1,107.999996704102,4|0,1:1|0:0,0:0:0:0:
129,289,59674,1,0,1:0:0:0:
66,200,60042,2,0,L|68:142,1,53.9999983520508,0|0,0:0|1:0,0:0:0:0:
110,46,60595,1,0,1:0:0:0:
142,149,60963,2,0,L|141:216,1,53.9999983520508,0|0,0:0|1:0,0:0:0:0:
182,237,61331,2,0,P|215:243|254:229,1,53.9999983520508,0|0,1:0|1:0,0:0:0:0:
341,234,61883,6,0,P|398:245|465:221,1,107.999996704102,4|0,1:1|0:0,0:0:0:0:
495,136,62619,2,0,P|499:104|483:72,1,53.9999983520508,0|0,1:0|0:0,0:0:0:0:
450,49,62987,2,0,L|389:46,1,53.9999983520508,0|0,0:0|1:0,0:0:0:0:
295,86,63539,1,0,1:0:0:0:
230,172,63908,2,0,P|236:205|223:242,1,53.9999983520508,0|0,0:0|1:0,0:0:0:0:
207,272,64276,2,0,P|204:306|210:333,1,53.9999983520508,0|0,1:0|1:0,0:0:0:0:
311,297,64828,5,4,1:1:0:0:
468,335,65380,1,0,1:0:0:0:
480,282,65564,2,0,L|478:221,1,53.9999983520508
454,179,65932,2,0,L|453:120,1,53.9999983520508,0|0,0:0|1:0,0:0:0:0:
361,68,66484,1,0,1:0:0:0:
268,119,66852,2,0,L|269:190,1,53.9999983520508,0|0,0:0|1:0,0:0:0:0:
245,221,67220,2,0,P|212:227|186:221,1,53.9999983520508,0|0,1:0|1:0,0:0:0:0:
85,242,67773,6,0,L|75:353,2,107.999996704102,4|0|0,1:1|0:0|1:0,0:0:0:0:
171,177,68877,2,0,L|238:181,1,53.9999983520508,0|0,0:0|1:0,0:0:0:0:
318,234,69429,1,0,1:0:0:0:
272,331,69797,2,0,L|218:329,1,53.9999983520508,0|0,1:0|1:0,0:0:0:0:
177,295,70165,2,0,L|101:303,2,53.9999983520508,0|0|0,1:0|1:0|1:0,0:0:0:0:
213,269,70717,6,0,L|226:166,1,90.0000034332277,4|0,1:1|0:0,0:0:0:0:
272,103,71454,1,0,0:0:0:0:
182,96,71822,2,0,L|77:92,1,90.0000034332277
53,173,72558,1,0,0:0:0:0:
121,231,72926,2,0,B|213:234,1,90.0000034332277
292,197,73662,6,0,P|312:158|304:102,2,90.0000034332277,0|0|0,1:0|0:0|0:0,0:0:0:0:
227,259,74766,1,0,0:0:0:0:
200,177,75135,2,0,P|202:127|229:89,1,90.0000034332277
307,63,75871,1,0,0:0:0:0:
385,106,76239,6,0,B|481:107,2,90.0000034332277,0|0|0,0:0|1:0|0:0,0:0:0:0:
333,179,77343,1,0,0:0:0:0:
257,228,77711,2,0,L|160:228,1,90.0000034332277
86,271,78447,2,0,P|66:317|72:367,2,90.0000034332277
124,189,79552,6,0,P|145:149|138:91,2,90.0000034332277,0|0|0,1:0|0:0|0:0,0:0:0:0:
86,271,80656,1,0,0:0:0:0:
176,264,81024,2,0,B|238:273|238:273|277:269,1,90.0000034332277,0|0,0:0|0:0,0:0:0:0:
310,192,81760,2,0,B|303:124|303:124|310:96,1,90.0000034332277,0|0,1:0|1:0,0:0:0:0:
394,47,82496,6,0,L|509:38,2,102.000001945496,4|0|0,1:0|1:0|1:0,0:0:0:0:
308,103,83601,2,0,P|261:118|211:99,1,102.000001945496,0|0,1:0|1:0,0:0:0:0:
123,51,84337,2,0,P|107:96|126:153,1,102.000001945496,0|0,1:0|1:0,0:0:0:0:
197,214,85073,1,0,1:0:0:0:
291,251,85441,6,0,P|308:298|288:360,2,102.000001945496,0|0|0,1:0|1:0|1:0,0:0:0:0:
293,149,86546,2,0,P|338:135|398:158,1,102.000001945496,0|0,1:0|1:0,0:0:0:0:
387,251,87282,2,0,P|327:264|278:242,1,102.000001945496,0|0,1:0|1:0,0:0:0:0:
206,200,88018,1,0,1:0:0:0:
293,149,88386,6,0,P|308:97|276:40,1,102.000001945496,0|0,1:0|1:0,0:0:0:0:
202,107,89122,2,0,L|92:114,1,102.000001945496,0|0,1:0|1:0,0:0:0:0:
71,207,89858,2,0,P|145:341|271:192,1,408.000007781983,0|0,1:0|0:0,0:0:0:0:
256,192,91515,12,0,92803,1:0:0:0:
402,237,94276,6,0,P|358:224|290:246,1,107.999996704102,4|0,1:1|0:0,0:0:0:0:
227,319,95012,1,0,1:0:0:0:
163,231,95380,2,0,B|158:199|158:199|163:166,1,53.9999983520508,0|0,1:0|1:0,0:0:0:0:
212,82,95932,1,0,1:0:0:0:
316,110,96300,1,2,0:0:0:0:
316,110,96484,2,0,P|344:114|377:110,1,53.9999983520508,2|0,0:0|0:0,0:0:0:0:
413,143,96852,2,0,L|418:207,1,53.9999983520508,0|0,1:0|1:0,0:0:0:0:
395,246,97220,6,0,B|328:235|328:235|280:244,1,107.999996704102,4|0,1:1|0:0,0:0:0:0:
206,312,97957,2,0,P|177:306|152:312,1,53.9999983520508,0|0,1:0|0:0,0:0:0:0:
100,317,98325,2,0,P|73:321|46:315,1,53.9999983520508,0|0,0:0|1:0,0:0:0:0:
2,216,98877,1,0,1:0:0:0:
45,109,99245,1,0,0:0:0:0:
45,109,99429,2,0,P|76:113|114:102,1,53.9999983520508,0|0,1:0|1:0,0:0:0:0:
144,83,99797,2,0,P|177:80|210:85,1,53.9999983520508,0|0,1:0|1:0,0:0:0:0:
246,106,100165,6,0,B|273:160|240:214,1,107.999996704102,4|0,1:0|0:0,0:0:0:0:
170,289,100902,1,0,1:0:0:0:
266,337,101269,2,0,L|325:336,1,53.9999983520508,0|0,0:0|1:0,0:0:0:0:
418,291,101822,1,0,1:0:0:0:
465,196,102190,1,0,0:0:0:0:
465,196,102374,2,0,P|461:167|467:139,1,53.9999983520508,0|0,1:0|0:0,0:0:0:0:
435,98,102742,2,0,L|376:98,1,53.9999983520508,0|0,1:0|1:0,0:0:0:0:
331,120,103110,6,0,P|276:133|211:113,1,107.999996704102,4|0,1:1|0:0,0:0:0:0:
132,67,103847,2,0,P|97:62|60:75,1,53.9999983520508,0|0,1:0|0:0,0:0:0:0:
35,97,104215,2,0,L|35:158,1,53.9999983520508,0|0,0:0|0:0,0:0:0:0:
86,245,104767,1,0,1:0:0:0:
182,293,105135,1,0,1:0:0:0:
182,293,105319,2,0,B|268:304|268:304|303:293,1,107.999996704102,0|0,1:0|0:0,0:0:0:0:
394,281,106055,6,0,B|424:268|424:268|501:276,1,107.999996704102,4|0,1:1|0:0,0:0:0:0:
460,174,106791,1,0,1:0:0:0:
386,95,107159,2,0,L|325:91,1,53.9999983520508,0|0,0:0|1:0,0:0:0:0:
236,41,107712,1,0,1:0:0:0:
147,103,108079,2,0,L|148:170,1,53.9999983520508,0|0,0:0|1:0,0:0:0:0:
184,197,108448,2,0,L|263:198,1,53.9999983520508,0|0,1:0|0:0,0:0:0:0:
341,238,109000,6,0,P|398:249|465:225,1,107.999996704102,4|0,1:0|0:0,0:0:0:0:
487,137,109736,2,0,P|489:106|473:66,1,53.9999983520508,0|0,1:0|0:0,0:0:0:0:
443,47,110104,2,0,P|415:49|383:42,1,53.9999983520508,0|0,0:0|1:0,0:0:0:0:
293,94,110656,1,0,1:0:0:0:
228,180,111024,1,0,0:0:0:0:
228,180,111208,2,0,P|237:211|231:250,1,53.9999983520508,0|0,1:0|1:0,0:0:0:0:
204,280,111576,2,0,P|201:314|207:341,1,53.9999983520508,0|0,1:0|1:0,0:0:0:0:
255,352,111945,6,0,L|367:339,1,107.999996704102,4|0,1:0|0:0,0:0:0:0:
441,266,112681,1,0,1:0:0:0:
410,162,113049,2,0,L|344:155,1,53.9999983520508,0|0,0:0|1:0,0:0:0:0:
259,109,113601,1,0,1:0:0:0:
171,50,113969,1,0,0:0:0:0:
171,50,114153,2,0,P|142:45|116:53,1,53.9999983520508,0|0,1:0|0:0,0:0:0:0:
95,100,114521,2,0,L|101:178,1,53.9999983520508,0|0,1:0|1:0,0:0:0:0:
122,202,114890,6,0,P|177:218|234:195,1,107.999996704102,4|0,1:0|0:0,0:0:0:0:
291,121,115625,2,0,P|318:117|355:126,1,53.9999983520508,0|0,1:0|0:0,0:0:0:0:
368,169,115993,2,0,L|374:236,1,53.9999983520508,0|0,0:0|1:0,0:0:0:0:
380,330,116546,1,0,0:0:0:0:
272,318,116914,1,0,0:0:0:0:
272,318,117097,2,0,B|196:305|196:305|162:315,1,107.999996704102,0|0,1:0|0:0,0:0:0:0:
60,336,117834,5,4,1:0:0:0:
55,227,118202,2,0,L|66:117,1,107.999996704102,0|0,0:0|1:0,0:0:0:0:
90,72,118754,2,0,P|141:57|197:77,1,107.999996704102
280,134,119490,2,0,P|331:149|398:130,1,107.999996704102
437,130,120042,2,0,L|428:291,1,161.999995056153,0|0,1:0|1:0,0:0:0:0:
383,322,120779,6,0,P|326:307|263:329,1,107.999996704102,4|0,0:0|0:0,0:0:0:0:
171,317,121515,2,0,P|122:329|55:308,2,107.999996704102
227,108,122987,2,0,L|348:106,1,107.999996704102,0|0,1:0|0:0,0:0:0:0:
434,63,123723,5,4,1:1:0:0:
489,155,124091,2,0,P|503:209|482:259,1,107.999996704102,0|0,0:0|1:0,0:0:0:0:
434,276,124643,2,0,P|382:262|330:277,1,107.999996704102
230,315,125380,2,0,L|120:309,1,107.999996704102
70,293,125931,2,0,P|30:223|71:146,1,161.999995056153
113,164,126668,6,0,P|162:181|226:160,1,107.999996704102,4|0,0:0|0:0,0:0:0:0:
306,110,127404,1,0,1:0:0:0:
342,150,127589,2,0,L|338:257,1,107.999996704102
424,322,128325,2,0,L|428:200,1,107.999996704102
449,165,128876,2,0,P|446:111|398:77,1,107.999996704102,0|0,1:0|0:0,0:0:0:0:
310,54,129613,5,4,1:1:0:0:
235,132,129981,2,0,L|228:246,1,107.999996704102,0|0,0:0|1:0,0:0:0:0:
199,285,130533,2,0,P|147:301|90:280,1,107.999996704102,0|0,0:0|0:0,0:0:0:0:
42,192,131269,1,0,0:0:0:0:
42,192,131453,2,0,L|45:128,1,53.9999983520508,0|0,0:0|0:0,0:0:0:0:
61,86,131821,2,0,P|108:45|223:64,1,161.999995056153,0|0,1:0|1:0,0:0:0:0:
249,77,132558,6,0,P|307:89|361:71,1,107.999996704102,4|0,0:0|0:0,0:0:0:0:
450,29,133294,1,0,1:0:0:0:
468,79,133478,2,0,L|464:186,1,107.999996704102,0|0,0:0|0:0,0:0:0:0:
443,292,134214,1,0,0:0:0:0:
393,270,134398,2,0,P|337:255|285:271,1,107.999996704102,0|0,0:0|1:0,0:0:0:0:
206,337,135135,1,0,0:0:0:0:
158,246,135503,6,0,L|163:144,1,102.000001945496,4|0,1:0|0:0,0:0:0:0:
240,77,136239,2,0,P|290:64|346:87,1,102.000001945496,0|0,0:0|0:0,0:0:0:0:
397,161,136975,2,0,L|392:282,1,102.000001945496,0|0,0:0|0:0,0:0:0:0:
325,339,137711,2,0,P|272:349|217:331,1,102.000001945496,0|0,0:0|0:0,0:0:0:0:
256,192,138447,12,4,141392,0:1:0:0:
324,88,153171,6,0,L|313:177,1,90.0000034332277,4|0,1:0|0:0,0:0:0:0:
254,246,153908,1,0,0:0:0:0:
328,296,154276,2,0,L|417:299,1,90.0000034332277
472,227,155012,1,0,0:0:0:0:
403,168,155380,2,0,B|313:163,1,90.0000034332277
239,214,156116,6,0,L|225:312,2,90.0000034332277,0|0|0,1:0|0:0|0:0,0:0:0:0:
230,121,157220,1,0,0:0:0:0:
310,161,157589,2,0,P|326:208|316:252,1,90.0000034332277
248,303,158325,1,0,0:0:0:0:
161,278,158693,6,0,B|71:272,2,90.0000034332277,0|0|0,1:0|1:0|0:0,0:0:0:0:
229,219,159797,1,0,0:0:0:0:
288,151,160165,2,0,L|385:156,1,90.0000034332277
449,209,160901,2,0,B|419:250|361:244,2,90.0000034332277
449,118,162006,6,0,P|417:83|361:77,1,90.0000034332277,0|0,1:0|0:0,0:0:0:0:
287,67,162742,2,0,P|244:75|194:63,1,90.0000034332277
130,123,163478,2,0,P|119:166|140:225,1,90.0000034332277
203,261,164214,2,0,P|247:251|296:264,1,90.0000034332277,0|0,1:0|1:0,0:0:0:0:
373,319,164950,6,0,P|390:281|381:219,2,102.000001945496,4|0|0,1:0|1:0|1:0,0:0:0:0:
272,337,166055,2,0,L|163:335,1,102.000001945496,0|0,1:0|1:0,0:0:0:0:
95,265,166791,2,0,P|80:212|98:166,1,102.000001945496,0|0,1:0|1:0,0:0:0:0:
160,90,167527,1,0,1:0:0:0:
255,53,167895,6,0,L|376:53,2,102.000001945496,0|0|0,1:0|1:0|1:0,0:0:0:0:
160,90,169000,1,0,1:0:0:0:
223,169,169368,2,0,L|332:170,1,102.000001945496,0|0,1:0|1:0,0:0:0:0:
417,213,170104,2,0,P|433:262|412:313,1,102.000001945496,0|0,1:0|1:0,0:0:0:0:
318,337,170840,6,0,L|194:337,1,102.000001945496,0|0,1:0|1:0,0:0:0:0:
176,242,171576,2,0,L|292:242,1,102.000001945496,0|0,1:0|1:0,0:0:0:0:
379,236,172312,2,0,P|466:89|307:118,1,408.000007781983,0|0,1:0|0:0,0:0:0:0:
256,192,173969,12,0,175257,0:0:0:0:
90,184,176730,6,0,P|141:198|194:183,1,107.999996704102,4|0,1:0|0:0,0:0:0:0:
271,109,177466,1,0,1:0:0:0:
352,179,177834,2,0,L|347:240,1,53.9999983520508,0|0,0:0|1:0,0:0:0:0:
294,326,178386,1,0,1:0:0:0:
214,253,178754,2,0,P|184:257|144:245,1,53.9999983520508,0|0,0:0|1:0,0:0:0:0:
107,249,179122,2,0,P|77:243|44:253,1,53.9999983520508
50,139,179674,6,0,P|66:107|152:83,1,107.999996704102,4|0,1:0|0:0,0:0:0:0:
235,98,180411,2,0,P|264:104|289:98,1,53.9999983520508,0|0,1:0|0:0,0:0:0:0:
336,76,180779,2,0,P|363:72|390:78,1,53.9999983520508,0|0,0:0|1:0,0:0:0:0:
467,151,181331,1,0,1:0:0:0:
447,257,181699,2,0,P|453:291|437:323,1,53.9999983520508,0|0,0:0|1:0,0:0:0:0:
400,335,182067,2,0,L|347:338,1,53.9999983520508,0|0,1:0|1:0,0:0:0:0:
270,260,182619,6,0,B|279:232|263:194|263:194|272:150,2,107.999996704102,4|0|0,1:0|0:0|0:0,1:0:0:0:
180,320,183723,2,0,P|152:328|119:314,1,53.9999983520508,0|0,0:0|1:0,0:0:0:0:
48,248,184276,1,0,1:0:0:0:
92,149,184644,2,0,P|124:144|162:158,1,53.9999983520508,0|0,0:0|1:0,0:0:0:0:
196,163,185012,2,0,P|224:170|256:157,1,53.9999983520508
337,102,185564,6,0,P|391:87|456:114,1,107.999996704102,4|0,1:0|0:0,0:0:0:0:
416,206,186300,2,0,P|392:211|353:199,1,53.9999983520508,0|0,1:0|0:0,0:0:0:0:
314,183,186668,2,0,P|282:177|255:183,1,53.9999983520508,0|0,0:0|1:0,0:0:0:0:
164,227,187220,2,0,P|107:241|57:226,1,107.999996704102
24,187,187773,2,0,P|5:144|26:77,1,107.999996704102,0|0,1:0|0:0,0:0:0:0:
123,61,188509,6,0,L|235:50,1,107.999996704102,4|0,1:0|0:0,0:0:0:0:
336,68,189245,1,0,1:0:0:0:
410,146,189613,2,0,L|407:207,1,53.9999983520508,0|0,0:0|1:0,0:0:0:0:
346,288,190165,1,0,1:0:0:0:
279,204,190533,2,0,L|274:135,1,53.9999983520508,0|0,0:0|1:0,0:0:0:0:
230,119,190901,2,0,P|201:112|163:123,1,53.9999983520508,0|0,0:0|1:0,0:0:0:0:
120,208,191454,6,0,L|105:326,2,107.999996704102,4|0|0,1:0|0:0|1:0,0:0:0:0:
227,204,192558,2,0,P|258:210|289:200,1,53.9999983520508,0|0,0:0|1:0,0:0:0:0:
355,128,193110,1,0,1:0:0:0:
443,190,193478,2,0,P|448:221|440:246,1,53.9999983520508,0|0,1:0|0:0,0:0:0:0:
400,277,193846,2,0,L|332:277,1,53.9999983520508
238,277,194398,6,0,P|192:279|144:318,2,107.999996704102,4|0|0,1:0|0:0|1:0,0:0:0:0:
323,213,195503,2,0,L|325:160,1,53.9999983520508,0|0,0:0|1:0,0:0:0:0:
279,60,196055,1,0,1:0:0:0:
176,92,196423,2,0,P|150:98|123:93,1,53.9999983520508,0|0,0:0|1:0,0:0:0:0:
74,115,196791,2,0,P|64:150|73:174,1,53.9999983520508
110,265,197343,6,0,L|229:267,1,107.999996704102,4|0,1:0|0:0,0:0:0:0:
316,310,198079,2,0,L|369:310,1,53.9999983520508,0|0,1:0|0:0,0:0:0:0:
405,269,198447,2,0,L|399:202,1,53.9999983520508,0|0,0:0|1:0,0:0:0:0:
376,109,199000,1,0,1:0:0:0:
276,67,199368,2,0,L|222:65,1,53.9999983520508,0|0,1:0|1:0,0:0:0:0:
187,106,199736,2,0,L|133:116,2,53.9999983520508,0|0|0,1:0|1:0|1:0,0:0:0:0:
212,143,200288,6,0,L|214:240,1,90.0000034332277,4|0,1:0|0:0,0:0:0:0:
165,309,201024,2,0,P|118:321|75:302,1,90.0000034332277
34,229,201760,1,0,0:0:0:0:
48,140,202128,1,0,0:0:0:0:
112,77,202496,2,0,B|222:82,1,90.0000034332277
275,133,203233,5,0,1:0:0:0:
357,98,203601,1,0,0:0:0:0:
427,154,203969,2,0,B|422:220|422:220|434:256,1,90.0000034332277
470,322,204705,1,0,0:0:0:0:
382,344,205073,1,0,0:0:0:0:
297,312,205441,2,0,P|252:300|206:311,1,90.0000034332277
125,338,206177,5,0,1:0:0:0:
59,275,206546,1,0,0:0:0:0:
60,185,206914,1,0,0:0:0:0:
120,118,207282,2,0,P|164:105|210:120,1,90.0000034332277
276,172,208018,2,0,P|322:184|374:169,2,90.0000034332277
195,212,209122,6,0,P|151:222|108:212,1,90.0000034332277,0|0,1:0|0:0,0:0:0:0:
41,152,209858,1,0,0:0:0:0:
42,61,210227,1,0,0:0:0:0:
256,192,210595,12,0,217773,2:0:0:0:
