osu file format v14

[General]
AudioFilename: pegboard_nerds_-_downhearted_ft_jonn-ssZZ6xp4QN0_fmt43.mp3
AudioLeadIn: 0
PreviewTime: -1
Countdown: 1
SampleSet: None
StackLeniency: 0.7
Mode: 0
LetterboxInBreaks: 0
WidescreenStoryboard: 0

[Editor]
DistanceSpacing: 1.2
BeatDivisor: 4
GridSize: 4
TimelineZoom: 1

[Metadata]
Title:Downhearted Ft. Jonny Rose
TitleUnicode:Downhearted Ft. Jonny Rose
Artist:Pegboard Nerds
ArtistUnicode:Pegboard Nerds
Creator:mirmis
Version:Hard
Source:
Tags:perboard nerds, edm, downhearted, indie dance
BeatmapID:1110644
BeatmapSetID:523068

[Difficulty]
HPDrainRate:7
CircleSize:5
OverallDifficulty:8
ApproachRate:9
SliderMultiplier:2.2
SliderTickRate:1

[Events]
//Background and Video events
0,0,"downhearted.jpg",0,0
//Break Periods
//Storyboard Layer 0 (Background)
//Storyboard Layer 1 (Fail)
//Storyboard Layer 2 (Pass)
//Storyboard Layer 3 (Foreground)
//Storyboard Sound Samples

[TimingPoints]
640.939879898627,499.863072194068,4,1,0,100,1,0

[Colours]
Combo1 : 206,108,206
Combo2 : 255,91,91
Combo3 : 255,128,68
Combo4 : 241,249,108
Combo5 : 255,85,174
Combo6 : 111,208,255

[HitObjects]
128,124,17,5,0,2:2:0:0:
212,72,267,1,0,2:2:0:0:
312,84,516,2,0,B|360:116|360:116|356:184,1,110,0|0,2:2|2:2,2:2:0:0:
244,168,1015,5,0,2:2:0:0:
284,248,1265,1,0,2:2:0:0:
200,300,1515,2,0,B|152:268|152:268|156:200,1,110,0|0,2:2|2:2,2:2:0:0:
116,100,2015,5,0,2:2:0:0:
376,284,2265,1,0,2:2:0:0:
104,176,2515,1,0,2:2:0:0:
376,200,2765,1,0,2:2:0:0:
200,320,3015,2,0,B|155:294|155:294|151:261|151:261|123:242|123:242|124:246,1,110,0|0,2:2|2:2,2:2:0:0:
312,64,3515,2,0,B|356:89|356:89|360:122|360:122|388:141|388:141|387:137,1,110,0|0,2:2|2:2,2:2:0:0:
156,116,4015,5,0,2:2:0:0:
156,116,4139,1,0,2:2:0:0:
156,116,4264,2,0,B|212:108|212:108|252:176|252:176,1,110,0|0,2:2|2:2,2:2:0:0:
240,248,4764,2,0,B|266:298|266:298|344:290|344:290,1,110,0|0,2:2|2:2,2:2:0:0:
392,224,5264,1,0,2:2:0:0:
96,228,5514,6,0,B|92:288|92:288|148:320|148:320,1,110,0|0,2:2|2:2,2:2:0:0:
412,152,6014,5,0,2:2:0:0:
416,156,6139,1,0,2:2:0:0:
416,156,6264,2,0,B|420:100|420:100|368:76,1,110,0|0,2:2|2:2,2:2:0:0:
276,84,6764,1,0,2:2:0:0:
144,132,7014,5,0,2:2:0:0:
144,132,7139,1,0,2:2:0:0:
144,132,7264,1,0,2:2:0:0:
144,288,7514,5,0,2:2:0:0:
144,288,7639,1,0,2:2:0:0:
144,288,7763,1,0,2:2:0:0:
368,76,8013,6,0,B|424:76|424:76|424:136,1,110,0|0,2:2|2:2,2:2:0:0:
144,308,8513,6,0,B|88:308|88:308|88:248,1,110,0|0,2:2|2:2,2:2:0:0:
176,228,9013,5,0,2:2:0:0:
332,152,9263,1,0,2:2:0:0:
168,189,9513,5,0,2:2:0:0:
341,189,9763,1,0,2:2:0:0:
376,248,10013,6,0,B|356:300|356:300|280:304,1,110,0|0,2:2|2:2,2:2:0:0:
136,248,10513,6,0,B|156:300|156:300|232:304,1,110,0|0,2:2|2:2,2:2:0:0:
288,276,11013,6,0,B|316:236|316:236|316:164,1,110,0|0,2:2|2:2,2:2:0:0:
224,276,11512,6,0,B|196:236|196:236|196:164,1,110,0|0,2:2|2:2,2:2:0:0:
256,88,12012,5,0,2:2:0:0:
256,88,12137,1,0,2:2:0:0:
256,88,12262,2,0,L|256:208,1,110,0|0,2:2|2:2,2:2:0:0:
256,296,12762,5,0,2:2:0:0:
256,296,12887,1,0,2:2:0:0:
256,296,13012,2,0,B|196:296|196:296|156:256,1,110,0|0,2:2|2:2,2:2:0:0:
128,112,13512,5,0,2:2:0:0:
232,112,13762,1,0,2:2:0:0:
288,200,14012,5,0,2:2:0:0:
368,200,14262,2,0,B|424:200|424:200|456:140,1,110,0|0,2:2|2:2,2:2:0:0:
452,76,14762,1,0,2:2:0:0:
312,132,15012,5,0,2:2:0:0:
312,132,15136,1,0,2:2:0:0:
312,132,15261,1,0,2:2:0:0:
200,252,15511,5,0,2:2:0:0:
200,252,15636,1,0,2:2:0:0:
200,252,15761,1,0,2:2:0:0:
112,140,16011,6,0,P|152:280|344:288,1,330,0|0,2:2|2:2,2:2:0:0:
228,204,17011,5,0,2:2:0:0:
336,112,17261,2,0,P|419:183|428:220,1,110,0|0,2:2|2:2,2:2:0:0:
392,280,17761,6,0,P|224:316|168:92,1,440,0|0,2:2|2:2,2:2:0:0:
280,192,19010,5,0,2:2:0:0:
300,116,19260,2,0,B|356:132|356:132|356:200,1,110,0|0,2:2|2:2,2:2:0:0:
420,248,19760,5,0,2:2:0:0:
336,300,20010,2,0,B|280:300|280:300|240:236,1,110,0|0,2:2|2:2,2:2:0:0:
212,180,20510,1,0,2:2:0:0:
312,120,20760,1,0,2:2:0:0:
396,188,21010,6,0,P|392:256|336:304,1,110,0|0,2:2|2:2,2:2:0:0:
284,312,21510,1,0,2:2:0:0:
284,312,21760,2,0,P|192:288|144:160,1,220,0|0,2:2|2:2,2:2:0:0:
141,181,22509,1,0,2:2:0:0:
116,92,22759,6,0,P|220:52|336:120,1,220,0|0,2:2|2:2,2:2:0:0:
316,96,23509,1,0,2:2:0:0:
428,76,24009,5,0,2:2:0:0:
428,76,24259,1,0,2:2:0:0:
404,164,24509,2,0,B|348:152|348:152|344:88,1,110,0|0,2:2|2:2,2:2:0:0:
292,204,25009,1,0,2:2:0:0:
128,244,25259,6,0,P|144:296|224:288,1,110,0|0,2:2|2:2,2:2:0:0:
292,328,25759,6,0,P|388:296|400:164,1,220,0|0,2:2|2:2,2:2:0:0:
364,124,26508,1,0,2:2:0:0:
340,200,26758,2,0,P|324:252|260:232,1,110,0|0,2:2|2:2,2:2:0:0:
264,160,27258,2,0,P|212:164|180:120,1,110,0|0,2:2|2:2,2:2:0:0:
248,76,27758,1,0,2:2:0:0:
112,256,28008,5,0,2:2:0:0:
168,312,28258,1,0,2:2:0:0:
220,256,28508,2,0,B|220:200|220:200|148:200,1,110,0|0,2:2|2:2,2:2:0:0:
200,120,29008,1,0,2:2:0:0:
296,212,29258,1,0,2:2:0:0:
296,120,29508,1,0,2:2:0:0:
392,120,29757,1,0,2:2:0:0:
392,248,30007,6,0,B|380:304|380:304|296:320,3,110,0|0|0|0,2:2|2:2|2:2|2:2,2:2:0:0:
228,316,31007,5,0,2:2:0:0:
168,264,31257,1,0,2:2:0:0:
220,204,31507,5,0,2:2:0:0:
160,152,31757,1,0,2:2:0:0:
216,276,32007,6,0,P|328:272|400:192,1,220,0|0,2:2|2:2,2:2:0:0:
296,108,32757,6,0,P|184:112|112:192,1,220,0|0,2:2|2:2,2:2:0:0:
116,272,33506,1,0,2:2:0:0:
220,296,33756,6,0,L|340:296,1,110,0|0,2:2|2:2,2:2:0:0:
272,224,34256,2,0,L|396:164,1,110,0|0,2:2|2:2,2:2:0:0:
296,136,34756,2,0,L|360:32,1,110,0|0,2:2|2:2,2:2:0:0:
188,92,35256,5,0,2:2:0:0:
136,164,35506,1,0,2:2:0:0:
148,256,35756,1,0,2:2:0:0:
308,304,36006,6,0,B|364:304|364:304|384:228,3,110,0|0|0|0,2:2|2:2|2:2|2:2,2:2:0:0:
204,80,37005,6,0,B|148:80|148:80|128:156,3,110,0|0|0|0,2:2|2:2|2:2|2:2,2:2:0:0:
116,196,38005,1,0,2:2:0:0:
116,196,38255,1,0,2:2:0:0:
360,248,38755,1,0,2:2:0:0:
360,140,39255,1,0,2:2:0:0:
116,192,40005,6,0,B|144:244|144:244|208:216,1,110,0|0,2:2|2:2,2:2:0:0:
180,148,40505,1,0,2:2:0:0:
256,264,40754,1,0,2:2:0:0:
344,268,41004,6,0,B|396:288|396:288|424:208,1,110,0|0,2:2|2:2,2:2:0:0:
304,180,41504,6,0,B|356:200|356:200|384:120,1,110,0|0,2:2|2:2,2:2:0:0:
80,72,42004,5,0,2:2:0:0:
204,144,42254,1,0,2:2:0:0:
120,160,42504,5,0,2:2:0:0:
244,232,42754,1,0,2:2:0:0:
160,244,43004,5,0,2:2:0:0:
284,316,43254,1,0,2:2:0:0:
368,228,43504,6,0,B|388:172|388:172|328:120,1,110,0|0,2:2|2:2,2:2:0:0:
260,88,44004,1,0,2:2:0:0:
144,88,44253,1,0,2:2:0:0:
144,88,44503,2,0,P|124:156|156:224,1,110,0|0,2:2|2:2,2:2:0:0:
176,260,45003,1,0,2:2:0:0:
292,316,45503,1,0,2:2:0:0:
408,236,46003,5,0,2:2:0:0:
408,236,46128,1,0,2:2:0:0:
408,236,46253,1,0,2:2:0:0:
344,120,46753,5,0,2:2:0:0:
344,120,46878,1,0,2:2:0:0:
344,120,47003,1,0,2:2:0:0:
208,96,47503,5,0,2:2:0:0:
208,96,48002,1,0,2:2:0:0:
164,284,48252,1,0,2:2:0:0:
316,160,48502,1,0,2:2:0:0:
120,172,48752,1,0,2:2:0:0:
300,276,49002,1,0,2:2:0:0:
120,172,49252,5,0,2:2:0:0:
320,160,49502,1,0,2:2:0:0:
168,284,49752,1,0,2:2:0:0:
220,96,50002,2,0,P|296:52|424:88,1,220,0|0,2:2|2:2,2:2:0:0:
412,216,50752,6,0,L|344:312,1,110,0|0,2:2|2:2,2:2:0:0:
316,220,51252,2,0,L|256:312,1,110,0|0,2:2|2:2,2:2:0:0:
152,296,51751,5,0,2:2:0:0:
108,236,52001,1,0,2:2:0:0:
92,164,52251,1,0,2:2:0:0:
124,96,52501,1,0,2:2:0:0:
124,96,52751,6,0,P|176:72|260:96,1,110,0|0,2:2|2:2,2:2:0:0:
192,152,53251,2,0,P|248:152|316:88,1,110,0|0,2:2|2:2,2:2:0:0:
440,216,53751,5,0,2:2:0:0:
272,200,54001,1,0,2:2:0:0:
356,208,54251,1,0,2:2:0:0:
188,188,54501,1,0,2:2:0:0:
188,280,55001,6,0,B|104:248|104:248|112:116,1,220,0|0,2:2|2:2,2:2:0:0:
340,104,56500,6,0,B|396:100|396:100|412:184,1,110,0|0,2:2|2:2,2:2:0:0:
172,280,57000,6,0,B|116:284|116:284|100:200,1,110,0|0,2:2|2:2,2:2:0:0:
172,104,57500,6,0,B|116:100|116:100|100:184,1,110,0|0,2:2|2:2,2:2:0:0:
340,280,58000,6,0,B|396:284|396:284|412:200,2,110,0|0|0,2:2|2:2|2:2,2:2:0:0:
184,192,58999,5,0,2:2:0:0:
256,120,59249,1,0,2:2:0:0:
364,224,59499,2,0,P|340:280|268:276,1,110,0|0,2:2|2:2,2:2:0:0:
188,228,60249,5,0,2:2:0:0:
96,184,60499,1,0,2:2:0:0:
96,184,60624,1,0,2:2:0:0:
96,184,60749,2,0,P|148:136|236:136,1,110,0|0,2:2|2:2,2:2:0:0:
324,156,61499,5,0,2:2:0:0:
416,200,61749,1,0,2:2:0:0:
416,200,61874,1,0,2:2:0:0:
416,200,61999,2,0,P|364:248|276:248,1,110,0|0,2:2|2:2,2:2:0:0:
144,288,62748,6,0,P|104:200|152:80,1,220,0|0,2:2|2:2,2:2:0:0:
256,72,63498,1,0,2:2:0:0:
368,288,63748,6,0,P|408:200|360:80,1,220,0|0,2:2|2:2,2:2:0:0:
220,304,64498,5,0,2:2:0:0:
144,224,64748,1,0,2:2:0:0:
292,80,64998,5,0,2:2:0:0:
368,160,65248,1,0,2:2:0:0:
148,160,65498,6,0,L|228:80,1,110,0|0,2:2|2:2,2:2:0:0:
364,224,65998,6,0,L|284:304,1,110,0|0,2:2|2:2,2:2:0:0:
136,288,66747,5,0,2:2:0:0:
136,288,66997,2,0,L|244:204,1,110,0|0,2:2|2:2,2:2:0:0:
136,96,67497,5,0,2:2:0:0:
136,96,67747,2,0,L|244:180,1,110,0|0,2:2|2:2,2:2:0:0:
376,96,68247,5,0,2:2:0:0:
376,96,68497,2,0,L|268:180,1,110,0|0,2:2|2:2,2:2:0:0:
376,288,68997,5,0,2:2:0:0:
376,288,69247,2,0,L|268:204,1,110,0|0,2:2|2:2,2:2:0:0:
256,196,69747,1,0,2:2:0:0:
256,196,69871,1,0,2:2:0:0:
256,196,69996,1,0,2:2:0:0:
336,336,70996,6,0,L|420:252,1,110,0|0,2:2|2:2,2:2:0:0:
176,48,71496,6,0,L|92:132,1,110,0|0,2:2|2:2,2:2:0:0:
312,136,71996,5,0,2:2:0:0:
200,252,72246,1,0,2:2:0:0:
324,60,72496,6,0,L|416:156,1,110,0|0,2:2|2:2,2:2:0:0:
188,324,72996,6,0,L|96:228,1,110,0|0,2:2|2:2,2:2:0:0:
200,136,73495,5,0,2:2:0:0:
312,252,73745,1,0,2:2:0:0:
124,296,73995,5,0,2:2:0:0:
204,296,74245,1,0,2:2:0:0:
388,296,74495,5,0,2:2:0:0:
308,296,74745,1,0,2:2:0:0:
136,136,74995,6,0,L|136:248,1,110,0|0,2:2|2:2,2:2:0:0:
216,136,75495,6,0,L|216:248,1,110,0|0,2:2|2:2,2:2:0:0:
296,244,75995,6,0,L|296:132,1,110,0|0,2:2|2:2,2:2:0:0:
376,244,76495,6,0,L|376:132,1,110,0|0,2:2|2:2,2:2:0:0:
168,96,76995,5,0,2:2:0:0:
336,96,77244,1,0,2:2:0:0:
344,288,77494,5,0,2:2:0:0:
176,288,77743,1,0,2:2:0:0:
216,72,77994,6,0,L|136:72,1,55,0|0,2:2|2:2,2:2:0:0:
188,152,78244,2,0,L|120:152,1,55,0|0,2:2|2:2,2:2:0:0:
188,232,78494,2,0,L|116:232,1,55,0|0,2:2|2:2,2:2:0:0:
220,308,78744,2,0,L|140:308,1,55,0|0,2:2|2:2,2:2:0:0:
308,288,78994,5,0,2:2:0:0:
328,260,79119,1,0,2:2:0:0:
344,232,79244,1,0,2:2:0:0:
356,208,79369,1,0,2:2:0:0:
368,172,79494,1,0,2:2:0:0:
164,104,79994,5,0,2:2:0:0:
164,104,80119,1,0,2:2:0:0:
164,104,80244,2,0,L|284:104,1,110,0|0,2:2|2:2,2:2:0:0:
348,280,80743,5,0,2:2:0:0:
348,280,80868,1,0,2:2:0:0:
348,280,80993,2,0,L|228:280,1,110,0|0,2:2|2:2,2:2:0:0:
256,196,81493,5,0,2:2:0:0:
256,196,81618,1,0,2:2:0:0:
256,196,81743,1,0,2:2:0:0:
352,92,81993,6,0,L|416:92,2,55,0|0|0,2:2|2:2|2:2,2:2:0:0:
280,92,82493,2,0,L|156:92,1,110,0|0,2:2|2:2,2:2:0:0:
140,200,82993,6,0,L|216:200,2,55,0|0|0,2:2|2:2|2:2,2:2:0:0:
196,300,83493,6,0,L|124:300,2,55,0|0|0,2:2|2:2|2:2,2:2:0:0:
320,312,83993,5,0,2:2:0:0:
340,288,84118,1,0,2:2:0:0:
360,260,84243,1,0,2:2:0:0:
372,232,84368,1,0,2:2:0:0:
380,196,84492,1,0,2:2:0:0:
380,168,84617,1,0,2:2:0:0:
380,132,84742,2,0,L|380:76,4,55,0|0|0|0|0,2:2|2:2|2:2|2:2|2:2,2:2:0:0:
132,132,85492,2,0,L|132:76,2,55,0|0|0,2:2|2:2|2:2,2:2:0:0:
132,260,85992,5,0,2:2:0:0:
132,260,86117,1,0,2:2:0:0:
132,260,86242,1,0,2:2:0:0:
208,312,86492,2,0,P|308:304|336:268,1,110,0|0,2:2|2:2,2:2:0:0:
360,208,86992,6,0,L|416:208,2,55,0|0|0,2:2|2:2|2:2,2:2:0:0:
360,120,87492,6,0,L|304:120,2,55,0|0|0,2:2|2:2|2:2,2:2:0:0:
228,88,87992,5,0,2:2:0:0:
228,88,88116,1,0,2:2:0:0:
228,88,88241,2,0,P|160:132|136:184,1,110
152,288,88741,5,0,2:2:0:0:
152,288,88866,1,0,2:2:0:0:
152,288,88991,1,0,2:2:0:0:
256,316,89241,6,0,L|328:316,2,55,0|0|0,2:2|2:2|2:2,2:2:0:0:
256,316,89741,1,0,2:2:0:0:
388,252,89991,5,0,2:2:0:0:
388,252,90116,1,0,2:2:0:0:
388,252,90241,2,0,B|388:184|388:184|348:152,1,110,0|0,2:2|2:2,2:2:0:0:
276,92,90741,5,0,2:2:0:0:
240,96,90866,1,0,2:2:0:0:
212,104,90991,1,0,2:2:0:0:
184,120,91116,1,0,2:2:0:0:
160,140,91241,1,0,2:2:0:0:
140,164,91366,2,0,L|104:212,3,55,0|0|0|0,2:2|2:2|2:2|2:2,2:2:0:0:
188,288,91990,6,0,P|248:316|328:316,2,110,0|0|0,2:2|2:2|2:2,2:2:0:0:
380,288,92740,1,0,2:2:0:0:
380,288,92865,1,0,2:2:0:0:
380,288,92990,1,0,2:2:0:0:
436,204,93240,2,0,B|436:164|436:164|408:136|408:136|408:96|408:96,2,110,0|0|0,2:2|2:2|2:2,2:2:0:0:
312,72,93990,5,0,2:2:0:0:
312,72,94115,1,0,2:2:0:0:
312,72,94240,1,0,2:2:0:0:
196,88,94490,5,0,2:2:0:0:
196,88,94615,1,0,2:2:0:0:
196,88,94740,1,0,2:2:0:0:
124,172,94990,5,0,2:2:0:0:
124,172,95115,1,0,2:2:0:0:
124,172,95240,2,0,B|124:236|124:236|176:284,2,110,0|0|0,2:2|2:2|2:2,2:2:0:0:
180,96,95989,6,0,P|296:88|408:176,1,220,0|0,2:2|2:2,2:2:0:0:
404,212,96739,1,0,2:2:0:0:
376,288,96989,1,0,2:2:0:0:
308,320,97239,2,0,L|232:320,2,55,0|0|0,2:2|2:2|2:2,2:2:0:0:
308,320,97739,1,0,2:2:0:0:
128,320,97989,6,0,B|128:256|128:256|164:228|164:228|164:180|164:180,1,110,0|0,2:2|2:2,2:2:0:0:
240,172,98489,6,0,B|240:108|240:108|276:80|276:80|276:32|276:32,1,110,0|0,2:2|2:2,2:2:0:0:
368,80,98988,1,0,2:2:0:0:
368,172,99238,6,0,L|368:244,2,55,0|0|0,2:2|2:2|2:2,2:2:0:0:
368,172,99738,1,0,2:2:0:0:
304,296,99988,1,0,2:2:0:0:
156,320,100238,1,0,2:2:0:0:
144,212,100738,5,0,2:2:0:0:
208,88,100988,1,0,2:2:0:0:
356,64,101238,1,0,2:2:0:0:
144,92,101738,6,0,L|80:92,2,55,0|0|0,2:2|2:2|2:2,2:2:0:0:
88,228,102238,6,0,L|160:228,2,55,0|0|0,2:2|2:2|2:2,2:2:0:0:
172,328,102737,5,0,2:2:0:0:
204,316,102862,1,0,2:2:0:0:
232,300,102987,1,0,2:2:0:0:
260,284,103112,1,0,2:2:0:0:
284,260,103237,1,0,2:2:0:0:
304,236,103362,1,0,2:2:0:0:
324,208,103487,1,0,2:2:0:0:
356,104,103737,6,0,L|432:104,2,55,0|0|0,2:2|2:2|2:2,2:2:0:0:
156,280,104237,6,0,L|80:280,2,55,0|0|0,2:2|2:2|2:2,2:2:0:0:
156,104,104737,6,0,L|80:104,6,55,0|0|0|0|0|0|0,2:2|2:2|2:2|2:2|2:2|2:2|2:2,2:2:0:0:
320,300,105737,5,0,2:2:0:0:
320,300,105862,1,0,2:2:0:0:
320,300,105987,1,0,2:2:0:0:
388,196,106237,5,0,2:2:0:0:
388,196,106361,1,0,2:2:0:0:
388,196,106486,2,0,L|388:80,1,110,0|0,2:2|2:2,2:2:0:0:
308,48,106986,6,0,P|192:88|140:204,1,220,0|0,2:2|2:2,2:2:0:0:
204,212,107736,2,0,P|351:296|276:124,1,440,0|0,2:2|2:2,2:2:0:0:
152,72,109236,5,0,2:2:0:0:
84,144,109486,1,0,2:2:0:0:
88,248,109736,2,0,P|132:324|196:336,1,110,0|0,2:2|2:2,2:2:0:0:
424,248,110235,2,0,P|380:324|316:336,1,110,0|0,2:2|2:2,2:2:0:0:
256,236,110735,2,0,L|256:176,2,55,0|0|0,2:2|2:2|2:2,2:2:0:0:
96,152,111235,5,0,2:2:0:0:
160,88,111485,1,0,2:2:0:0:
248,72,111735,2,0,P|336:76|412:180,1,220,0|0,2:2|2:2,2:2:0:0:
340,256,112485,5,0,2:2:0:0:
208,288,112735,1,0,2:2:0:0:
256,208,112985,5,0,2:2:0:0:
128,232,113235,1,0,2:2:0:0:
84,144,113485,2,0,P|128:100|200:100,2,110,0|0|0,2:2|2:2|2:2,2:2:0:0:
300,80,114234,5,0,2:2:0:0:
300,80,114359,1,0,2:2:0:0:
300,80,114484,1,0,2:2:0:0:
392,144,114734,5,0,2:2:0:0:
392,144,114859,1,0,2:2:0:0:
392,144,114984,1,0,2:2:0:0:
416,236,115234,5,0,2:2:0:0:
416,236,115359,1,0,2:2:0:0:
416,236,115484,2,0,P|404:292|348:336,1,110,0|0,2:2|2:2,2:2:0:0:
368,328,115984,1,0,2:2:0:0:
196,304,116234,6,0,L|68:304,2,110,0|0|0,2:2|2:2|2:2,2:2:0:0:
144,212,116984,1,0,2:2:0:0:
144,212,117109,1,0,2:2:0:0:
144,212,117234,1,0,2:2:0:0:
144,104,117483,1,0,2:2:0:0:
236,96,117733,6,0,P|336:116|408:232,1,220,0|0,2:2|2:2,2:2:0:0:
360,288,118483,2,0,L|304:288,2,55,0|0|0,2:2|2:2|2:2,2:2:0:0:
200,288,118983,1,0,2:2:0:0:
200,288,119108,1,0,2:2:0:0:
200,288,119233,2,0,P|160:236|172:168,1,110,0|0,2:2|2:2,2:2:0:0:
160,96,119733,5,0,2:2:0:0:
160,96,119858,1,0,2:2:0:0:
160,96,119983,1,0,2:2:0:0:
272,56,120233,5,0,2:2:0:0:
348,80,120483,2,0,B|408:104|408:104|408:176,1,110,0|0,2:2|2:2,2:2:0:0:
164,304,121232,2,0,B|104:280|104:280|104:208,1,110,0|0,2:2|2:2,2:2:0:0:
272,332,121732,5,0,2:2:0:0:
272,332,121857,1,0,2:2:0:0:
272,332,121982,2,0,B|332:332|332:332|368:284,1,110,0|0,2:2|2:2,2:2:0:0:
240,52,122732,5,0,2:2:0:0:
240,52,122857,1,0,2:2:0:0:
240,52,122982,2,0,B|180:52|180:52|144:100,1,110,0|0,2:2|2:2,2:2:0:0:
148,228,123482,6,0,L|148:304,3,55,0|0|0|0,2:2|2:2|2:2|2:2,2:2:0:0:
148,283,123982,1,0,2:2:0:0:
256,316,124232,5,0,2:2:0:0:
332,316,124482,1,0,2:2:0:0:
396,268,124731,2,0,B|440:236|440:236|440:144,1,110,0|0,2:2|2:2,2:2:0:0:
324,112,125231,5,0,2:2:0:0:
188,252,125481,1,0,2:2:0:0:
100,168,125731,1,0,2:2:0:0:
244,40,125981,1,0,2:2:0:0:
244,40,126106,1,0,2:2:0:0:
244,40,126231,2,0,B|304:40|304:40|336:104,1,110,0|0,2:2|2:2,2:2:0:0:
340,172,126731,2,0,L|408:172,4,55,0|0|0|0|0,2:2|2:2|2:2|2:2|2:2,2:2:0:0:
392,172,127481,1,0,2:2:0:0:
128,92,127981,5,0,2:2:0:0:
92,192,128480,5,0,2:2:0:0:
104,224,128605,1,0,2:2:0:0:
132,248,128730,1,0,2:2:0:0:
208,288,128980,2,0,P|272:308|352:276,1,110,0|0,2:2|2:2,2:2:0:0:
392,272,129480,2,0,L|452:272,2,55,0|0|0,2:2|2:2|2:2,2:2:0:0:
392,156,129980,5,0,2:2:0:0:
376,120,130105,1,0,2:2:0:0:
352,92,130230,1,0,2:2:0:0:
316,164,130480,1,0,2:2:0:0:
120,156,130980,5,0,2:2:0:0:
136,120,131105,1,0,2:2:0:0:
160,92,131230,1,0,2:2:0:0:
160,244,131480,5,0,2:2:0:0:
176,208,131605,1,0,2:2:0:0:
200,180,131730,1,0,2:2:0:0:
312,116,131979,6,0,L|372:116,4,55,0|0|0|0|0,2:2|2:2|2:2|2:2|2:2,2:2:0:0:
400,248,132729,5,0,2:2:0:0:
400,248,132854,1,0,2:2:0:0:
400,248,132979,1,0,2:2:0:0:
300,308,133229,5,0,2:2:0:0:
300,308,133354,1,0,2:2:0:0:
300,308,133479,2,0,B|236:308|236:308|200:264,1,110,0|0,2:2|2:2,2:2:0:0:
212,76,134229,5,0,2:2:0:0:
212,76,134354,1,0,2:2:0:0:
212,76,134479,2,0,B|276:76|276:76|312:120,1,110,0|0,2:2|2:2,2:2:0:0:
416,232,134979,6,0,L|416:296,2,55,0|0|0,2:2|2:2|2:2,2:2:0:0:
416,156,135479,2,0,L|416:96,4,55,0|0|0|0|0,2:2|2:2|2:2|2:2|2:2,2:2:0:0:
136,64,136478,6,0,B|80:104|80:104|80:196,1,110,0|0,2:2|2:2,2:2:0:0:
96,232,136978,1,0,2:2:0:0:
116,268,137103,1,0,2:2:0:0:
144,296,137228,1,0,2:2:0:0:
256,320,137478,1,0,2:2:0:0:
340,280,137728,6,0,L|404:280,2,55,0|0|0,2:2|2:2|2:2,2:2:0:0:
392,200,138228,6,0,L|328:200,2,55,0|0|0,2:2|2:2|2:2,2:2:0:0:
384,104,138728,5,0,2:2:0:0:
348,92,138853,1,0,2:2:0:0:
312,88,138978,1,0,2:2:0:0:
280,92,139103,1,0,2:2:0:0:
248,104,139227,1,0,2:2:0:0:
220,120,139352,1,0,2:2:0:0:
200,136,139477,1,0,2:2:0:0:
152,192,139727,2,0,B|124:232|124:232|124:328,1,110,0|0,2:2|2:2,2:2:0:0:
220,332,140227,5,0,2:2:0:0:
288,280,140477,2,0,L|344:280,2,55,0|0|0,2:2|2:2|2:2,2:2:0:0:
416,220,140977,2,0,P|408:116|304:64,1,220,0|0,2:2|2:2,2:2:0:0:
244,68,141727,2,0,L|188:68,2,55,0|0|0,2:2|2:2|2:2,2:2:0:0:
189,68,142227,1,0,2:2:0:0:
120,140,142727,5,0,2:2:0:0:
120,228,142976,1,0,2:2:0:0:
120,316,143226,2,0,P|192:332|232:304,1,110,0|0,2:2|2:2,2:2:0:0:
280,268,143726,2,0,P|336:248|404:272,1,110,0|0,2:2|2:2,2:2:0:0:
436,172,144226,5,0,2:2:0:0:
436,172,144351,1,0,2:2:0:0:
436,172,144476,1,0,2:2:0:0:
340,92,144726,5,0,2:2:0:0:
340,92,144851,1,0,2:2:0:0:
340,92,144976,1,0,2:2:0:0:
200,88,145226,2,0,L|136:88,4,55,0|0|0|0|0,2:2|2:2|2:2|2:2|2:2,2:2:0:0:
84,228,146725,5,0,2:2:0:0:
144,304,146975,5,0,2:2:0:0:
144,304,147100,1,0,2:2:0:0:
144,304,147225,1,0,2:2:0:0:
240,304,147475,2,0,P|336:280|360:228,1,110,0|0,2:2|2:2,2:2:0:0:
256,192,147975,12,0,149975,2:2:0:0:
128,128,150974,5,0,2:2:0:0:
168,220,151224,1,0,2:2:0:0:
220,304,151474,2,0,L|276:304,2,55,0|0|0,2:2|2:2|2:2,2:2:0:0:
352,232,151974,2,0,L|408:232,2,55,0|0|0,2:2|2:2|2:2,2:2:0:0:
376,132,152474,6,0,P|300:84|236:88,1,110,0|0,2:2|2:2,2:2:0:0:
184,80,152974,2,0,L|120:80,2,55,0|0|0,2:2|2:2|2:2,2:2:0:0:
156,172,153474,2,0,P|164:264|272:328,1,220,0|0,2:2|2:2,2:2:0:0:
316,320,154223,5,0,2:2:0:0:
368,280,154473,1,0,2:2:0:0:
400,224,154723,1,0,2:2:0:0:
400,140,154973,6,0,L|344:140,2,55,0|0|0,2:2|2:2|2:2,2:2:0:0:
256,140,155473,1,0,2:2:0:0:
256,140,155598,1,0,2:2:0:0:
256,140,155723,1,0,2:2:0:0:
124,192,155973,6,0,L|84:252,1,55,0|0,2:2|2:2,2:2:0:0:
168,252,156223,2,0,L|160:312,1,55,0|0,2:2|2:2,2:2:0:0:
240,296,156473,2,0,L|240:352,1,55,0|0,2:2|2:2,2:2:0:0:
312,256,156723,2,0,L|324:316,1,55,0|0,2:2|2:2,2:2:0:0:
360,196,156973,2,0,L|408:264,1,55,0|0,2:2|2:2,2:2:0:0:
372,120,157223,5,0,2:2:0:0:
332,120,157348,1,0,2:2:0:0:
296,120,157472,1,0,2:2:0:0:
264,120,157597,1,0,2:2:0:0:
228,120,157722,1,0,2:2:0:0:
196,120,157847,1,0,2:2:0:0:
160,120,157972,1,0,2:2:0:0:
128,120,158097,1,0,2:2:0:0:
96,120,158222,2,0,L|24:120,2,55,0|0|0,2:2|2:2|2:2,2:2:0:0:
84,216,158722,1,0,2:2:0:0:
164,216,158972,6,0,L|236:216,4,55,0|0|0|0|0,2:2|2:2|2:2|2:2|2:2,2:2:0:0:
76,256,159972,5,0,2:2:0:0:
128,300,160222,1,0,2:2:0:0:
196,320,160472,2,0,P|276:320|320:288,1,110,0|0,2:2|2:2,2:2:0:0:
400,308,160972,1,0,2:2:0:0:
400,228,161221,5,0,2:2:0:0:
400,196,161346,1,0,2:2:0:0:
400,160,161471,1,0,2:2:0:0:
400,64,161721,1,0,2:2:0:0:
160,64,161971,6,0,L|96:64,2,55,0|0|0,2:2|2:2|2:2,2:2:0:0:
104,148,162471,6,0,L|176:148,2,55,0|0|0,2:2|2:2|2:2,2:2:0:0:
128,236,162971,5,0,2:2:0:0:
152,260,163096,1,0,2:2:0:0:
176,280,163221,1,0,2:2:0:0:
204,292,163346,1,0,2:2:0:0:
236,304,163471,1,0,2:2:0:0:
264,312,163596,1,0,2:2:0:0:
296,312,163721,1,0,2:2:0:0:
328,308,163846,1,0,2:2:0:0:
356,300,163971,1,0,2:2:0:0:
400,224,164221,6,0,L|400:144,1,55,0|0,2:2|2:2,2:2:0:0:
400,169,164471,1,0,2:2:0:0:
112,224,164720,6,0,L|112:144,1,55,0|0,2:2|2:2,2:2:0:0:
112,169,164970,1,0,2:2:0:0:
256,96,165220,6,0,L|256:152,5,55,0|0|0|0|0|0,2:2|2:2|2:2|2:2|2:2|2:2,2:2:0:0:
256,96,165970,1,0,2:2:0:0:
104,268,166220,6,0,P|116:304|212:332,1,110,0|0,2:2|2:2,2:2:0:0:
260,340,166720,1,0,2:2:0:0:
340,304,166970,1,0,2:2:0:0:
388,224,167220,5,0,2:2:0:0:
388,224,167345,1,0,2:2:0:0:
388,224,167470,2,0,B|388:156|388:156|348:116,1,110,0|0,2:2|2:2,2:2:0:0:
276,124,167970,1,0,2:2:0:0:
244,124,168095,1,0,2:2:0:0:
216,124,168220,1,0,2:2:0:0:
128,152,168469,2,0,P|96:220|104:296,1,110,0|0,2:2|2:2,2:2:0:0:
180,288,168969,6,0,P|240:316|308:304,1,110,0|0,2:2|2:2,2:2:0:0:
360,320,169469,6,0,P|384:276|372:184,1,110,0|0,2:2|2:2,2:2:0:0:
132,76,169969,6,0,L|56:76,2,55,0|0|0,2:2|2:2|2:2,2:2:0:0:
112,168,170469,2,0,P|112:240|144:292,1,110,0|0,2:2|2:2,2:2:0:0:
400,168,170969,2,0,P|400:240|368:292,1,110,0|0,2:2|2:2,2:2:0:0:
256,308,171469,6,0,L|256:228,5,55,0|0|0|0|0|0,2:2|2:2|2:2|2:2|2:2|2:2,2:2:0:0:
256,308,172218,1,0,2:2:0:0:
136,88,172468,6,0,P|96:180|96:228,1,110,0|0,2:2|2:2,2:2:0:0:
376,88,172968,6,0,P|416:180|416:228,1,110,0|0,2:2|2:2,2:2:0:0:
256,168,173468,5,0,2:2:0:0:
256,200,173593,1,0,2:2:0:0:
256,232,173718,1,0,2:2:0:0:
256,264,173843,2,0,L|256:324,3,55,0|0|0|0,2:2|2:2|2:2|2:2,2:2:0:0:
128,80,174718,6,0,L|128:148,4,55,0|0|0|0|0,2:2|2:2|2:2|2:2|2:2,2:2:0:0:
128,232,175468,2,0,L|128:312,2,55,0|0|0,2:2|2:2|2:2,2:2:0:0:
212,316,175967,6,0,P|308:328|408:244,1,220,0|0,2:2|2:2,2:2:0:0:
300,316,176967,6,0,P|204:328|104:244,1,220,0|0,2:2|2:2,2:2:0:0:
172,116,177967,6,0,L|92:116,2,55,0|0|0,2:2|2:2|2:2,2:2:0:0:
340,116,178467,6,0,L|420:116,2,55,0|0|0,2:2|2:2|2:2,2:2:0:0:
256,120,178967,5,0,2:2:0:0:
256,152,179092,1,0,2:2:0:0:
256,184,179217,1,0,2:2:0:0:
256,216,179341,1,0,2:2:0:0:
256,248,179466,1,0,2:2:0:0:
256,276,179591,1,0,2:2:0:0:
256,304,179716,1,0,2:2:0:0:
368,304,179966,6,0,B|400:256|400:256|400:172,1,110,0|0,2:2|2:2,2:2:0:0:
144,304,180466,6,0,B|112:256|112:256|112:216,1,55,0|0,2:2|2:2,2:2:0:0:
108,188,180716,1,0,2:2:0:0:
156,96,180966,6,0,P|252:64|304:68,1,110,0|0,2:2|2:2,2:2:0:0:
348,76,181466,1,0,2:2:0:0:
396,200,181716,6,0,B|396:264|396:264|348:316,1,110,0|0,2:2|2:2,2:2:0:0:
324,168,182216,6,0,B|324:232|324:232|276:284,1,110,0|0,2:2|2:2,2:2:0:0:
248,132,182716,6,0,B|248:196|248:196|200:248,1,110,0|0,2:2|2:2,2:2:0:0:
120,116,183215,5,0,2:2:0:0:
120,116,183340,1,0,2:2:0:0:
120,116,183465,2,0,B|120:180|120:180|164:248,1,110,0|0,2:2|2:2,2:2:0:0:
112,304,183965,6,0,B|228:308|228:308|304:232,1,220,0|0,2:2|2:2,2:2:0:0:
400,304,184715,6,0,B|284:308|284:308|208:232,1,220,0|0,2:2|2:2,2:2:0:0:
152,160,185465,1,0,2:2:0:0:
152,160,185715,6,0,L|152:40,1,110,0|0,2:2|2:2,2:2:0:0:
256,160,186215,2,0,L|256:40,1,110,0|0,2:2|2:2,2:2:0:0:
368,160,186714,2,0,L|368:40,1,110,0|0,2:2|2:2,2:2:0:0:
448,216,187214,5,0,2:2:0:0:
448,216,187339,1,0,2:2:0:0:
448,216,187464,2,0,B|448:280|448:280|396:320,1,110,0|0,2:2|2:2,2:2:0:0:
304,308,187964,2,0,B|160:308|160:308|84:228,1,220,0|0,2:2|2:2,2:2:0:0:
104,160,188714,5,0,2:2:0:0:
104,160,188964,1,0,2:2:0:0:
152,92,189214,2,0,L|272:92,1,110,0|0,2:2|2:2,2:2:0:0:
368,96,189714,5,0,2:2:0:0:
368,96,189839,1,0,2:2:0:0:
368,96,189964,1,0,2:2:0:0:
368,200,190214,5,0,2:2:0:0:
368,200,190338,1,0,2:2:0:0:
368,200,190463,1,0,2:2:0:0:
368,288,190713,6,0,L|368:352,1,55,0|0,2:2|2:2,2:2:0:0:
292,316,190963,6,0,P|224:316|168:256,1,110,0|0,2:2|2:2,2:2:0:0:
136,228,191463,2,0,P|124:148|152:92,1,110,0|0,2:2|2:2,2:2:0:0:
200,68,191963,5,0,2:2:0:0:
200,68,192088,1,0,2:2:0:0:
200,68,192213,1,0,2:2:0:0:
292,72,192463,2,0,B|352:72|352:72|388:120,1,110,0|0,2:2|2:2,2:2:0:0:
384,200,192963,1,0,2:2:0:0:
336,276,193213,1,0,2:2:0:0:
256,312,193463,2,0,B|200:312|200:312|144:248,1,110,0|0,2:2|2:2,2:2:0:0:
100,192,193962,6,0,L|100:132,2,55,0|0|0,2:2|2:2|2:2,2:2:0:0:
180,132,194462,6,0,L|180:72,2,55,0|0|0,2:2|2:2|2:2,2:2:0:0:
280,112,194962,6,0,P|340:112|416:176,1,110,0|0,2:2|2:2,2:2:0:0:
320,192,195462,2,0,P|376:212|416:280,1,110,0|0,2:2|2:2,2:2:0:0:
304,308,195962,5,0,2:2:0:0:
268,308,196087,1,0,2:2:0:0:
232,308,196212,1,0,2:2:0:0:
200,308,196337,2,0,B|164:264|164:264|164:216,6,55,0|0|0|0|0|0|0,2:2|2:2|2:2|2:2|2:2|2:2|2:2,2:2:0:0:
136,212,197462,2,0,P|168:124|380:144,1,330,0|0,2:2|2:2,2:2:0:0:
256,268,198961,5,0,2:2:0:0:
256,192,199211,1,0,2:2:0:0:
264,284,199711,6,0,P|360:328|384:208,1,220,0|0,2:2|2:2,2:2:0:0:
376,160,200461,2,0,B|256:48|256:48|116:184,1,330,0|0,2:2|2:2,2:2:0:0:
112,232,201460,2,0,P|144:332|240:264,1,220,0|0,2:2|2:2,2:2:0:0:
