osu file format v14

[General]
AudioFilename: audio.mp3
AudioLeadIn: 0
PreviewTime: -1
Countdown: 1
SampleSet: Normal
StackLeniency: 0.5
Mode: 0
LetterboxInBreaks: 0
WidescreenStoryboard: 0

[Editor]
Bookmarks: 67018
DistanceSpacing: 0.4
BeatDivisor: 4
GridSize: 8
TimelineZoom: 3.800004

[Metadata]
Title:Disconnected (VIP)
TitleUnicode:Disconnected (VIP)
Artist:Pegboard Nerds
ArtistUnicode:Pegboard Nerds
Creator:Abbe
Version:VIP
Source:
Tags:
BeatmapID:1499385
BeatmapSetID:709294

[Difficulty]
HPDrainRate:5
CircleSize:4
OverallDifficulty:8.6
ApproachRate:9.4
SliderMultiplier:1.4
SliderTickRate:1

[Events]
//Background and Video events
0,0,"befriending_the_shadows_by_chaosfissure-dbwzj61.jpg",0,0
//Break Periods
2,118419,130878
//Storyboard Layer 0 (Background)
//Storyboard Layer 1 (Fail)
//Storyboard Layer 2 (Pass)
//Storyboard Layer 3 (Foreground)
//Storyboard Sound Samples

[TimingPoints]
218,400,4,1,0,100,1,0
318,-200,4,1,0,100,0,0
15818,-80,4,1,0,100,0,0
47418,-50,4,1,0,100,0,0
59418,-200,4,1,0,100,0,0
59518,-133.333333333333,4,1,0,100,0,0
59618,-100,4,1,0,100,0,0
59718,-80,4,1,0,100,0,0
59818,-66.6666666666667,4,1,0,100,0,0
59918,-57.1428571428571,4,1,0,100,0,0
60009,-50,4,1,0,100,0,0
63818,-40,4,1,0,100,0,0
64218,-50,4,1,0,100,0,0
73818,-100,4,1,0,100,0,0
85218,-66.6666666666667,4,1,0,100,0,0
93018,-50,4,1,0,100,0,0
104191,-200,4,1,0,100,0,0
104318,-133.333333333333,4,1,0,100,0,0
104418,-100,4,1,0,100,0,0
104518,-80,4,1,0,100,0,0
104618,-66.6666666666667,4,1,0,100,0,0
104818,-57.1428571428571,4,1,0,100,0,0
105818,-50,4,1,0,100,0,0
108618,-40,4,1,0,100,0,0
109018,-50,4,1,0,100,0,0
114618,-133.333333333333,4,1,0,100,0,0
115457,-100,4,1,0,100,0,0
131418,-200,4,1,0,100,0,0
144218,-80,4,1,0,100,0,0
171009,-50,4,1,0,100,0,0
181018,-200,4,1,0,100,0,0
181118,-133.333333333333,4,1,0,100,0,0
181218,-100,4,1,0,100,0,0
181318,-80,4,1,0,100,0,0
181418,-66.6666666666667,4,1,0,100,0,0
181515,-57.1428571428571,4,1,0,100,0,0
181618,-50,4,1,0,100,0,0
185118,-40,4,1,0,100,0,0
185818,-50,4,1,0,100,0,0
191618,-40,4,1,0,100,0,0
192218,-50,4,1,0,100,0,0
197818,-40,4,1,0,100,0,0
198618,-50,4,1,0,100,0,0
202218,-100,4,1,0,100,0,0
203018,-133.333333333333,4,1,0,100,0,0
203818,-200,4,1,0,100,0,0
204618,-50,4,1,0,100,0,0

[HitObjects]
136,88,3418,5,0,0:0:0:0:
208,152,3618,2,0,L|208:192,1,35
256,232,4018,1,0,0:0:0:0:
304,184,4218,2,0,P|320:152|312:112,1,70
248,80,4818,1,0,0:0:0:0:
320,88,5018,2,0,B|336:136|360:176|376:208|376:208|344:192|288:184,1,210
200,48,6618,2,0,L|160:80,1,35
152,128,7018,5,0,0:0:0:0:
176,160,7218,1,0,0:0:0:0:
224,216,7418,2,0,L|248:248,1,35
320,240,7818,1,0,0:0:0:0:
280,176,8018,1,0,0:0:0:0:
280,176,8218,2,0,P|224:144|162:194,1,140
368,72,10018,5,0,0:0:0:0:
288,96,10218,2,0,P|256:112|232:136,1,70
160,120,10818,1,0,0:0:0:0:
232,135,11018,2,0,B|248:144|256:152|264:168,1,35
184,192,11418,2,0,P|208:232|144:224,1,140
160,80,13018,5,0,0:0:0:0:
232,64,13218,1,0,0:0:0:0:
304,72,13418,1,0,0:0:0:0:
370,104,13618,1,0,0:0:0:0:
430,145,13818,2,0,L|464:168,1,35
384,192,14218,2,0,P|366:177|344:160,1,35
256,192,14618,12,0,15818,0:0:0:0:
128,64,16018,5,0,0:0:0:0:
216,112,16218,2,0,L|152:184,1,87.5,8|0,0:0|0:0,0:0:0:0:
184,280,16618,1,8,0:0:0:0:
60,283,16818,1,0,0:0:0:0:
208,264,17018,2,0,L|152:152,1,87.5,8|0,0:0|0:0,0:0:0:0:
88,160,17418,1,8,0:0:0:0:
172,100,17618,1,0,0:0:0:0:
68,76,17818,6,0,L|40:176,1,87.5,8|0,0:0|0:0,0:0:0:0:
136,264,18218,2,0,L|112:179,1,87.5,8|0,0:0|0:0,0:0:0:0:
168,96,18618,1,8,0:0:0:0:
200,184,18818,1,0,0:0:0:0:
256,96,19018,1,8,0:0:0:0:
288,184,19218,1,0,0:0:0:0:
288,184,19418,2,0,B|352:104,1,87.5,8|0,0:0|0:0,0:0:0:0:
352,120,19818,5,8,0:0:0:0:
440,192,20018,1,0,0:0:0:0:
344,264,20218,2,0,L|432:304,1,87.5,8|0,0:0|0:0,0:0:0:0:
440,224,20618,2,0,L|360:264,1,87.5,8|0,0:0|0:0,0:0:0:0:
320,192,21018,1,8,0:0:0:0:
392,112,21218,1,0,0:0:0:0:
432,208,21418,1,8,0:0:0:0:
304,160,21618,1,0,0:0:0:0:
440,56,21818,2,0,L|262:103,1,175,8|12,0:0|0:0,0:0:0:0:
312,240,22418,5,0,0:0:0:0:
416,200,22618,2,0,B|424:248|392:312,1,87.5,8|0,0:0|0:0,0:0:0:0:
312,288,23018,2,0,B|296:240|311:201,1,87.5,8|0,0:0|0:0,0:0:0:0:
408,120,23418,1,8,0:0:0:0:
312,120,23618,1,0,0:0:0:0:
408,40,23818,1,8,0:0:0:0:
312,40,24018,1,0,0:0:0:0:
232,120,24218,6,0,B|216:72|232:32,1,87.5,8|0,0:0|0:0,0:0:0:0:
136,32,24618,2,0,B|152:72|136:120,1,87.5,8|0,0:0|0:0,0:0:0:0:
136,272,25018,1,8,0:0:0:0:
40,272,25218,1,0,0:0:0:0:
136,192,25418,1,8,0:0:0:0:
40,192,25618,1,0,0:0:0:0:
40,112,25818,6,0,B|87:98|128:112,1,87.5,8|0,0:0|0:0,0:0:0:0:
208,136,26218,1,8,0:0:0:0:
208,48,26418,1,0,0:0:0:0:
296,48,26618,2,0,B|304:88|296:144,1,87.5,8|0,0:0|0:0,0:0:0:0:
272,176,26918,1,0,0:0:0:0:
256,224,27018,2,8,B|248:264|256:320,1,87.5
392,224,27418,5,8,0:0:0:0:
304,224,27618,1,0,0:0:0:0:
352,296,27818,2,8,B|304:320|240:288,1,87.5
176,216,28218,1,8,0:0:0:0:
128,144,28418,1,8,0:0:0:0:
128,144,28517,1,8,0:0:0:0:
128,144,28618,1,12,0:0:0:0:
160,64,28818,1,0,0:0:0:0:
208,136,29018,6,0,B|256:151|295:134,1,87.5,12|2,0:0|0:0,0:0:0:0:
248,16,29418,1,8,0:0:0:0:
344,88,29618,1,0,0:0:0:0:
232,120,29818,2,0,B|218:158|226:206,1,87.5,8|0,0:0|0:0,0:0:0:0:
256,336,30218,2,0,B|264:288|248:240,1,87.5,8|0,0:0|0:0,0:0:0:0:
104,176,30618,5,8,0:0:0:0:
133,59,30818,1,0,0:0:0:0:
201,127,31018,1,8,0:0:0:0:
230,10,31218,1,0,0:0:0:0:
201,127,31418,2,0,B|208:80|190:42,1,87.5,8|0,0:0|0:0,0:0:0:0:
80,56,31818,2,0,B|68:96|83:141,1,87.5,8|0,0:0|0:0,0:0:0:0:
112,336,32218,5,8,0:0:0:0:
141,219,32418,1,0,0:0:0:0:
209,287,32618,1,8,0:0:0:0:
238,170,32818,1,0,0:0:0:0:
104,280,33018,6,0,B|88:232|115:196,1,87.5,8|0,0:0|0:0,0:0:0:0:
232,208,33418,2,0,B|248:248|226:292,1,87.5,8|0,0:0|0:0,0:0:0:0:
144,224,33818,1,8,0:0:0:0:
208,136,34018,1,0,0:0:0:0:
304,104,34218,1,8,0:0:0:0:
376,224,34418,1,0,0:0:0:0:
392,104,34618,1,8,0:0:0:0:
288,208,34818,1,0,0:0:0:0:
344,88,35018,1,8,0:0:0:0:
440,240,35218,1,0,0:0:0:0:
368,144,35418,6,0,B|408:112|416:64,1,87.5,8|0,0:3|0:3,0:3:0:0:
304,40,35818,1,8,0:0:0:0:
232,136,36018,1,0,0:0:0:0:
160,40,36218,2,0,B|128:72|120:120,1,87.5,8|0,0:3|0:3,0:3:0:0:
40,208,36618,1,8,0:0:0:0:
160,192,36818,1,0,0:0:0:0:
120,304,37018,2,0,B|168:320|208:296,1,87.5,8|0,0:3|0:3,0:3:0:0:
264,192,37418,1,8,0:0:0:0:
160,136,37618,1,0,0:0:0:0:
248,48,37818,6,0,B|296:64|312:104,1,87.5,8|0,0:3|0:3,0:3:0:0:
312,120,38118,1,0,0:0:0:0:
312,136,38218,1,8,0:0:0:0:
192,184,38418,6,0,B|147:158|139:111,1,87.5,0|8,0:3|0:3,0:3:0:0:
64,152,38818,1,0,0:0:0:0:
224,176,39018,1,8,0:0:0:0:
56,152,39218,1,0,0:0:0:0:
232,176,39418,6,0,B|280:208|280:264,1,87.5,8|0,0:3|0:3,0:3:0:0:
104,280,39818,6,0,B|161:283|195:238,1,87.5,8|0,0:3|0:3,0:3:0:0:
208,144,40218,1,8,0:0:0:0:
264,320,40418,2,0,B|280:320|304:304|312:288,1,43.75,0|0,0:3|0:3,0:3:0:0:
344,224,40618,1,8,0:0:0:0:
248,232,40818,2,0,P|216:224|192:208,1,43.75,0|0,0:3|0:3,0:3:0:0:
152,144,41018,1,8,0:0:0:0:
304,152,41218,1,8,0:0:0:0:
296,136,41318,1,8,0:0:0:0:
280,128,41418,1,12,0:0:0:0:
144,192,41618,2,0,P|152:152|168:128,1,43.75
208,80,41818,5,0,0:0:0:0:
56,176,42018,1,0,0:0:0:0:
224,96,42218,1,0,0:0:0:0:
104,230,42418,1,0,0:0:0:0:
240,112,42618,1,0,0:0:0:0:
160,272,42818,1,0,0:0:0:0:
256,128,43018,1,0,0:0:0:0:
224,296,43218,2,0,P|240:248|240:216,1,43.75
256,128,43418,5,0,0:0:0:0:
296,304,43618,1,0,0:0:0:0:
272,104,43818,1,0,0:0:0:0:
360,272,44018,1,0,0:0:0:0:
288,88,44218,1,0,0:0:0:0:
400,216,44418,1,0,0:0:0:0:
304,72,44618,1,0,0:0:0:0:
440,152,44818,1,0,0:0:0:0:
288,32,45018,5,0,0:0:0:0:
200,88,45218,1,0,0:0:0:0:
152,184,45418,1,0,0:0:0:0:
184,280,45618,1,0,0:0:0:0:
264,208,45818,1,0,0:0:0:0:
312,112,46018,1,0,0:0:0:0:
400,56,46218,1,0,0:0:0:0:
296,48,46418,1,0,0:0:0:0:
176,96,46618,5,0,0:0:0:0:
208,120,46718,1,0,0:0:0:0:
248,144,46818,1,0,0:0:0:0:
280,176,46918,1,0,0:0:0:0:
248,224,47018,1,0,0:0:0:0:
208,264,47118,1,0,0:0:0:0:
168,304,47218,1,0,0:0:0:0:
216,336,47318,1,0,0:0:0:0:
208,136,48218,6,0,B|168:160|168:160|160:208,1,70
164,183,48418,2,0,B|204:167|204:167|212:111,1,70
216,96,48618,5,0,0:0:0:0:
248,64,48718,1,0,0:0:0:0:
272,64,48818,1,0,0:0:0:0:
288,80,48918,1,0,0:0:0:0:
216,136,49018,5,0,0:0:0:0:
312,136,49118,1,0,0:0:0:0:
304,160,49218,1,0,0:0:0:0:
288,184,49318,1,0,0:0:0:0:
256,96,49418,5,0,0:0:0:0:
256,200,49518,1,0,0:0:0:0:
232,208,49618,1,0,0:0:0:0:
208,208,49718,1,0,0:0:0:0:
224,128,49818,5,0,0:0:0:0:
152,112,49918,1,0,0:0:0:0:
136,80,50018,1,0,0:0:0:0:
144,48,50118,1,0,0:0:0:0:
224,80,50218,5,0,0:0:0:0:
248,8,50318,1,0,0:0:0:0:
272,16,50418,1,0,0:0:0:0:
288,40,50518,1,0,0:0:0:0:
216,88,50618,5,0,0:0:0:0:
296,128,50718,1,0,0:0:0:0:
280,152,50818,1,0,0:0:0:0:
256,168,50918,1,0,0:0:0:0:
200,96,51018,1,0,0:0:0:0:
160,16,51118,2,0,P|96:48|56:104,1,140
200,112,51418,6,0,B|160:136|160:136|152:184,1,70
156,159,51618,6,0,B|196:143|196:143|204:87,1,70
112,240,51818,5,0,0:0:0:0:
56,288,51918,1,0,0:0:0:0:
80,304,52018,1,0,0:0:0:0:
104,312,52118,1,0,0:0:0:0:
136,248,52218,5,0,0:0:0:0:
152,312,52318,1,0,0:0:0:0:
176,304,52418,1,0,0:0:0:0:
200,288,52518,1,0,0:0:0:0:
176,224,52618,5,0,0:0:0:0:
232,256,52718,1,0,0:0:0:0:
248,232,52818,1,0,0:0:0:0:
256,208,52918,1,0,0:0:0:0:
320,200,53018,5,0,0:0:0:0:
272,152,53118,1,0,0:0:0:0:
280,128,53218,1,0,0:0:0:0:
296,104,53318,1,0,0:0:0:0:
256,56,53418,5,0,0:0:0:0:
312,32,53518,1,0,0:0:0:0:
296,8,53618,1,0,0:0:0:0:
272,0,53718,1,0,0:0:0:0:
248,8,53818,6,0,B|200:16|200:16|200:64|176:136|112:144,1,210
116,140,54218,2,0,B|136:88|168:88|224:96|224:96|240:48|304:56,1,210
296,56,54618,2,0,B|352:80|352:80|352:128|312:136|312:136|304:136,1,140
288,136,54918,1,0,0:0:0:0:
264,128,55018,5,0,0:0:0:0:
216,104,55118,1,0,0:0:0:0:
200,128,55218,1,0,0:0:0:0:
192,152,55318,1,0,0:0:0:0:
144,176,55418,5,0,0:0:0:0:
192,208,55518,1,0,0:0:0:0:
184,232,55618,1,0,0:0:0:0:
168,256,55718,1,0,0:0:0:0:
224,272,55818,5,0,0:0:0:0:
160,296,55918,1,0,0:0:0:0:
176,320,56018,1,0,0:0:0:0:
200,336,56118,1,0,0:0:0:0:
240,264,56218,5,0,0:0:0:0:
240,336,56318,1,0,0:0:0:0:
264,328,56418,1,0,0:0:0:0:
288,312,56518,1,0,0:0:0:0:
336,344,56618,5,0,0:0:0:0:
328,288,56718,1,0,0:0:0:0:
344,272,56818,1,0,0:0:0:0:
360,248,56918,1,0,0:0:0:0:
328,200,57018,5,0,0:0:0:0:
376,200,57118,1,0,0:0:0:0:
400,184,57218,1,0,0:0:0:0:
424,176,57318,1,0,0:0:0:0:
480,200,57418,5,0,0:0:0:0:
472,144,57518,1,0,0:0:0:0:
480,120,57618,1,0,0:0:0:0:
472,96,57718,1,0,0:0:0:0:
368,264,57818,6,0,L|296:248,1,70
288,224,58018,2,0,L|352:152,1,70
328,144,58218,2,0,L|256:128,1,70
248,104,58418,2,0,L|312:32,1,70
216,16,58618,2,0,L|160:80,1,70
96,176,58818,2,0,L|184:120,1,70
248,32,59018,2,0,L|256:112,1,70
160,240,59218,2,0,L|264:160,1,70
256,120,59418,6,0,L|272:120,1,11.6666666666667
256,120,59518,6,0,L|280:120,1,17.500000667572
256,120,59618,6,0,L|288:120,1,23.3333333333333
256,120,59718,6,0,L|296:120,1,29.1666666666667
256,120,59818,6,0,L|304:120,1,35.0000013351441
256,120,59918,6,0,L|304:120,1,40.8333337227503
256,120,60018,6,0,L|320:120,1,46.6666666666667
256,120,60118,6,0,L|320:120,1,46.6666666666667
8,64,61018,6,0,B|24:1|24:1|37:44|80:56,1,140
144,96,61418,5,0,0:0:0:0:
168,112,61518,1,0,0:0:0:0:
192,128,61618,1,0,0:0:0:0:
216,144,61718,1,0,0:0:0:0:
200,200,61818,5,0,0:0:0:0:
224,216,61918,1,0,0:0:0:0:
248,232,62018,1,0,0:0:0:0:
272,248,62118,1,0,0:0:0:0:
328,248,62218,5,0,0:0:0:0:
344,224,62318,1,0,0:0:0:0:
360,200,62418,1,0,0:0:0:0:
376,176,62518,1,0,0:0:0:0:
320,48,62618,6,0,P|280:48|240:64,1,70
224,104,62818,2,0,P|257:93|292:94,1,70
320,136,63018,2,0,P|280:136|240:152,1,70
224,192,63218,2,0,P|257:181|292:182,1,70
320,248,63418,5,0,0:0:0:0:
293,259,63518,1,0,0:0:0:0:
264,272,63618,2,0,B|200:272|200:272|224:248,1,93.3333333333333
112,176,63818,2,0,L|216:192,1,87.5
312,96,64018,2,0,L|224:128,1,87.5
136,72,64218,2,0,B|176:10|176:10|188:81,1,140
144,120,64618,5,0,0:0:0:0:
152,144,64718,1,0,0:0:0:0:
168,168,64818,1,0,0:0:0:0:
192,184,64918,1,0,0:0:0:0:
208,240,65018,5,0,0:0:0:0:
232,248,65118,1,0,0:0:0:0:
256,248,65218,1,0,0:0:0:0:
280,240,65318,1,0,0:0:0:0:
328,248,65418,5,0,0:0:0:0:
352,224,65518,1,0,0:0:0:0:
368,200,65618,1,0,0:0:0:0:
384,176,65718,5,0,0:0:0:0:
344,144,65818,1,0,0:0:0:0:
344,120,65918,1,0,0:0:0:0:
336,96,66018,1,0,0:0:0:0:
320,72,66118,1,0,0:0:0:0:
272,40,66218,5,0,0:0:0:0:
248,48,66318,1,0,0:0:0:0:
224,64,66418,1,0,0:0:0:0:
200,80,66518,1,0,0:0:0:0:
280,240,66618,6,0,B|281:236|281:236|257:298,1,70
264,328,66818,6,0,B|288:266|288:266|286:269,1,70
152,160,67018,6,0,B|150:156|150:156|174:218,1,70
168,248,67218,6,0,B|143:186|143:186|145:189,1,70
272,160,67418,2,0,P|328:134|296:81,1,140
192,88,67818,5,0,0:0:0:0:
192,80,67918,1,0,0:0:0:0:
200,80,68018,1,0,0:0:0:0:
208,88,68118,1,0,0:0:0:0:
280,56,68218,5,0,0:0:0:0:
280,48,68318,1,0,0:0:0:0:
288,48,68418,1,0,0:0:0:0:
296,56,68518,1,0,0:0:0:0:
376,56,68618,5,0,0:0:0:0:
381,49,68718,1,0,0:0:0:0:
386,54,68818,1,0,0:0:0:0:
387,66,68918,1,0,0:0:0:0:
462,90,69018,5,0,0:0:0:0:
467,84,69118,1,0,0:0:0:0:
473,90,69218,1,0,0:0:0:0:
474,100,69318,1,0,0:0:0:0:
456,176,69418,5,0,0:0:0:0:
440,200,69518,1,0,0:0:0:0:
424,224,69618,1,0,0:0:0:0:
408,248,69718,1,0,0:0:0:0:
352,232,69818,5,0,0:0:0:0:
336,256,69918,1,0,0:0:0:0:
320,280,70018,2,0,B|288:320|288:320|256:296|256:296,1,70
248,208,70218,6,0,B|208:232|208:232|200:280,1,70
204,255,70418,6,0,B|244:239|244:239|252:183,1,70
240,192,70618,2,0,B|200:128|200:128|304:144,1,140
384,88,71018,5,0,0:0:0:0:
400,104,71118,1,0,0:0:0:0:
408,120,71218,1,0,0:0:0:0:
416,144,71318,1,0,0:0:0:0:
368,176,71418,5,0,0:0:0:0:
360,200,71518,1,0,0:0:0:0:
344,224,71618,1,0,0:0:0:0:
320,240,71718,1,0,0:0:0:0:
272,216,71818,5,0,0:0:0:0:
248,224,71918,1,0,0:0:0:0:
224,224,72018,1,0,0:0:0:0:
200,224,72118,1,0,0:0:0:0:
176,184,72218,1,0,0:0:0:0:
384,96,72418,1,0,0:0:0:0:
256,248,72618,1,0,0:0:0:0:
312,24,72818,1,0,0:0:0:0:
320,280,73218,1,0,0:0:0:0:
88,80,73618,1,0,0:0:0:0:
145,268,73818,6,0,P|195:281|240:280,1,70
312,128,74217,1,0,0:0:0:0:
192,160,74418,1,0,0:0:0:0:
392,240,74618,2,0,P|363:283|328:312,1,70
170,205,75018,2,0,P|186:154|216:120,1,70
392,120,75418,1,0,0:0:0:0:
296,256,75618,1,0,0:0:0:0:
280,88,75818,1,0,0:0:0:0:
160,208,76018,1,0,0:0:0:0:
328,192,76218,6,0,P|298:234|256:264,1,70
144,136,76618,2,0,P|172:91|208:64,1,70
312,200,77018,1,0,0:0:0:0:
152,248,77218,1,0,0:0:0:0:
200,88,77418,1,0,0:0:0:0:
240,248,77618,1,0,0:0:0:0:
297,62,77818,6,0,P|339:91|360:128,1,70
248,256,78218,2,0,P|203:227|184:192,1,70
320,104,78618,1,0,0:0:0:0:
152,112,78818,1,0,0:0:0:0:
248,256,79018,1,0,0:0:0:0:
352,120,79218,2,0,P|323:75|288:48,1,70
200,40,79618,1,0,0:0:0:0:
184,48,79718,1,0,0:0:0:0:
168,56,79818,2,0,P|136:72|96:120,1,70
16,224,80218,5,0,0:0:0:0:
168,160,80418,1,0,0:0:0:0:
184,320,80618,1,0,0:0:0:0:
96,184,80818,1,0,0:0:0:0:
256,152,81018,2,0,P|298:181|328:224,1,70
384,336,81418,1,0,0:0:0:0:
224,304,81618,1,0,0:0:0:0:
384,320,81818,2,0,P|336:296|304:264,1,70
248,144,82218,1,0,0:0:0:0:
400,88,82418,1,0,0:0:0:0:
256,80,82618,6,0,P|237:109|228:143,1,70
220,174,82919,1,0,0:0:0:0:
212,206,83019,2,0,P|208:240|195:273,1,70
96,144,83418,5,0,0:0:0:0:
96,304,83618,1,0,0:0:0:0:
72,144,83818,1,0,0:0:0:0:
112,296,84018,1,0,0:0:0:0:
56,144,84218,2,0,P|90:139|119:120,1,70
208,32,84618,2,0,P|224:88|248:112,1,70
352,112,85018,5,0,0:0:0:0:
224,184,85218,2,0,B|208:184|184:168|176:152,1,52.5000020027161,0|0,0:3|0:3,0:3:0:0:
136,80,85418,1,0,0:0:0:0:
264,208,85618,2,0,P|288:176|312:160,1,52.5000020027161,0|0,0:3|0:3,0:3:0:0:
376,128,85818,1,0,0:0:0:0:
272,56,86018,1,0,0:0:0:0:
255,50,86118,1,0,0:0:0:0:
238,56,86218,1,0,0:0:0:0:
144,152,86418,2,0,P|133:176|128:208,1,52.5000020027161
152,304,86618,5,0,0:0:0:0:
160,96,86818,1,0,0:0:0:0:
168,304,87018,1,0,0:0:0:0:
232,104,87218,1,0,0:0:0:0:
184,304,87418,1,0,0:0:0:0:
296,128,87618,1,0,0:0:0:0:
200,304,87818,1,0,0:0:0:0:
360,160,88018,6,0,P|328:176|312:192,1,52.5000020027161
216,304,88218,1,0,0:0:0:0:
248,96,88418,1,0,0:0:0:0:
288,304,88618,1,0,0:0:0:0:
184,120,88818,1,0,0:0:0:0:
336,256,89018,1,0,0:0:0:0:
160,184,89218,1,0,0:0:0:0:
368,192,89418,1,0,0:0:0:0:
168,256,89618,1,0,0:0:0:0:
360,296,89818,5,0,0:0:0:0:
448,232,90018,1,0,0:0:0:0:
360,216,90218,1,0,0:0:0:0:
448,152,90418,1,0,0:0:0:0:
360,136,90618,1,0,0:0:0:0:
448,72,90818,1,0,0:0:0:0:
360,56,91018,1,0,0:0:0:0:
296,120,91218,1,0,0:0:0:0:
395,183,91418,5,0,0:0:0:0:
370,216,91518,1,0,0:0:0:0:
346,257,91618,1,0,0:0:0:0:
313,290,91718,1,0,0:0:0:0:
264,257,91818,1,0,0:0:0:0:
223,216,91918,1,0,0:0:0:0:
182,175,92018,1,0,0:0:0:0:
149,224,92118,1,0,0:0:0:0:
160,80,93018,6,0,B|120:104|120:104|112:152,1,70
116,127,93218,2,0,B|156:111|156:111|164:55,1,70
216,96,93418,5,0,0:0:0:0:
248,64,93518,1,0,0:0:0:0:
272,64,93618,1,0,0:0:0:0:
288,80,93718,1,0,0:0:0:0:
264,136,93818,5,0,0:0:0:0:
312,136,93918,1,0,0:0:0:0:
328,152,94018,1,0,0:0:0:0:
336,168,94118,1,0,0:0:0:0:
280,200,94218,5,0,0:0:0:0:
328,248,94318,1,0,0:0:0:0:
336,272,94418,1,0,0:0:0:0:
352,288,94518,1,0,0:0:0:0:
392,240,94618,5,0,0:0:0:0:
424,296,94718,1,0,0:0:0:0:
440,288,94818,1,0,0:0:0:0:
456,272,94918,1,0,0:0:0:0:
424,216,95018,5,0,0:0:0:0:
488,232,95118,1,0,0:0:0:0:
496,208,95218,1,0,0:0:0:0:
488,192,95318,1,0,0:0:0:0:
424,192,95418,5,0,0:0:0:0:
456,136,95518,1,0,0:0:0:0:
448,112,95618,1,0,0:0:0:0:
432,96,95718,1,0,0:0:0:0:
376,64,95818,6,0,P|288:88|232:152,1,140
368,144,96218,6,0,B|325:160|325:160|302:199,1,70,0|0,2:0|2:0,2:0:0:0:
315,183,96418,2,0,B|357:173|357:173|373:119,1,70,0|0,2:0|2:0,2:0:0:0:
376,120,96618,5,0,0:0:0:0:
376,56,96718,1,0,0:0:0:0:
352,56,96818,1,0,0:0:0:0:
328,64,96918,1,0,0:0:0:0:
272,40,97018,5,0,0:0:0:0:
272,104,97118,1,0,0:0:0:0:
256,112,97218,1,0,0:0:0:0:
240,128,97318,1,0,0:0:0:0:
288,168,97418,5,0,0:0:0:0:
232,192,97518,1,0,0:0:0:0:
224,208,97618,1,0,0:0:0:0:
208,224,97718,1,0,0:0:0:0:
144,216,97818,5,0,0:0:0:0:
160,280,97918,1,0,0:0:0:0:
144,296,98018,1,0,0:0:0:0:
120,304,98118,1,0,0:0:0:0:
88,248,98218,5,0,0:0:0:0:
56,304,98318,1,0,0:0:0:0:
48,288,98418,1,0,0:0:0:0:
40,264,98518,1,0,0:0:0:0:
40,208,98618,6,0,B|80:112|80:112|192:120|192:16,1,210
184,64,99018,2,0,B|280:40|280:40|224:120|240:160|288:192,1,210
256,160,99418,2,0,B|336:136|336:136|392:176|272:200,1,210
272,216,99818,5,0,0:0:0:0:
280,280,99918,1,0,0:0:0:0:
264,288,100018,1,0,0:0:0:0:
240,296,100118,1,0,0:0:0:0:
200,248,100218,5,0,0:0:0:0:
176,304,100318,1,0,0:0:0:0:
160,320,100418,1,0,0:0:0:0:
144,328,100518,1,0,0:0:0:0:
96,288,100618,5,0,0:0:0:0:
64,344,100718,1,0,0:0:0:0:
48,328,100818,1,0,0:0:0:0:
40,312,100918,1,0,0:0:0:0:
72,256,101018,5,0,0:0:0:0:
40,200,101118,1,0,0:0:0:0:
40,176,101218,1,0,0:0:0:0:
48,160,101318,1,0,0:0:0:0:
112,168,101418,5,0,0:0:0:0:
88,112,101518,1,0,0:0:0:0:
112,112,101618,1,0,0:0:0:0:
128,104,101718,1,0,0:0:0:0:
128,40,101818,5,0,0:0:0:0:
184,64,101918,1,0,0:0:0:0:
200,56,102018,1,0,0:0:0:0:
224,56,102118,1,0,0:0:0:0:
240,120,102218,5,0,0:0:0:0:
288,80,102318,1,0,0:0:0:0:
304,88,102418,1,0,0:0:0:0:
320,104,102518,1,0,0:0:0:0:
352,152,102618,6,0,L|288:208,1,70
248,240,102818,2,0,L|176:304,1,70
136,248,103018,2,0,L|200:192,1,70
240,160,103218,2,0,L|312:104,1,70
248,64,103418,2,0,L|184:120,1,70
112,160,103618,2,0,L|210:125,1,70
248,32,103818,2,0,L|256:112,1,70
160,240,104018,2,0,L|264:160,1,70
256,120,104218,6,0,L|272:120,1,11.6666666666667
256,120,104318,6,0,L|280:120,1,17.500000667572
256,120,104418,6,0,L|288:120,1,23.3333333333333
256,120,104518,6,0,L|296:120,1,29.1666666666667
256,120,104618,6,0,L|304:120,1,35.0000013351441
256,120,104718,6,0,L|304:120,1,40.8333337227503
256,120,104818,6,0,L|320:120,1,46.6666666666667
256,120,104918,6,0,L|320:120,1,52.5000020027161
128,304,105818,6,0,B|65:241|65:241|136:240|168:216,1,140
176,176,106218,5,0,0:0:0:0:
176,152,106318,1,0,0:0:0:0:
184,128,106418,1,0,0:0:0:0:
200,104,106518,1,0,0:0:0:0:
256,120,106618,5,0,0:0:0:0:
280,104,106718,1,0,0:0:0:0:
304,96,106818,1,0,0:0:0:0:
328,96,106918,1,0,0:0:0:0:
344,152,107018,5,0,0:0:0:0:
369,164,107118,1,0,0:0:0:0:
388,181,107218,1,0,0:0:0:0:
400,202,107318,1,0,0:0:0:0:
384,256,107418,6,0,P|344:262|294:253,1,70
312,210,107618,2,0,P|346:212|381:206,1,70
383,150,107818,2,0,P|343:156|293:147,1,70
311,105,108018,2,0,P|345:107|380:101,1,70
400,152,108218,5,0,0:0:0:0:
386,177,108318,1,0,0:0:0:0:
372,206,108418,2,0,B|322:247|322:247|325:213,1,93.3333333333333
200,232,108618,2,0,L|289:177,1,87.5
296,40,108818,2,0,L|249:121,1,87.5
136,136,109018,2,0,B|126:62|126:62|151:89|191:89,1,140
288,112,109418,5,0,0:0:0:0:
296,136,109518,1,0,0:0:0:0:
312,160,109618,1,0,0:0:0:0:
328,176,109718,1,0,0:0:0:0:
304,224,109818,5,0,0:0:0:0:
312,248,109918,1,0,0:0:0:0:
328,272,110018,1,0,0:0:0:0:
344,296,110118,1,0,0:0:0:0:
400,296,110218,5,0,0:0:0:0:
424,296,110318,1,0,0:0:0:0:
448,288,110418,1,0,0:0:0:0:
472,272,110518,1,0,0:0:0:0:
456,216,110618,5,0,0:0:0:0:
448,192,110718,5,0,0:0:0:0:
432,168,110818,1,0,0:0:0:0:
408,152,110918,1,0,0:0:0:0:
408,96,111018,1,0,0:0:0:0:
392,72,111118,1,0,0:0:0:0:
368,56,111218,1,0,0:0:0:0:
344,48,111318,1,0,0:0:0:0:
248,55,111418,2,0,L|266:157,1,70,0|0,0:3|0:3,0:3:0:0:
224,160,111618,6,0,L|211:91,1,70,0|0,0:3|0:3,0:3:0:0:
320,144,111818,6,0,L|307:212,1,70,0|0,0:3|0:3,0:3:0:0:
331,244,112019,2,0,L|344:176,1,70,0|0,0:3|0:3,0:3:0:0:
424,88,112218,6,0,B|464:16|464:16|432:32|376:40,1,140
320,80,112618,5,0,0:0:0:0:
315,73,112718,1,0,0:0:0:0:
309,77,112818,1,0,0:0:0:0:
306,88,112918,1,0,0:0:0:0:
228,97,113018,5,0,0:0:0:0:
223,91,113118,1,0,0:0:0:0:
217,95,113218,1,0,0:0:0:0:
214,106,113318,1,0,0:0:0:0:
145,147,113418,5,0,0:0:0:0:
137,143,113518,1,0,0:0:0:0:
136,150,113618,1,0,0:0:0:0:
141,161,113718,1,0,0:0:0:0:
89,220,113818,5,0,0:0:0:0:
82,218,113918,1,0,0:0:0:0:
80,226,114018,1,0,0:0:0:0:
84,235,114118,1,0,0:0:0:0:
112,304,114218,6,0,P|152:304|200:288,1,70
264,240,114418,2,0,P|296:208|312:176,1,70
352,104,114618,2,0,P|355:55|280:88,1,157.500006008148
240,208,115418,1,0,0:0:0:0:
312,88,115618,1,0,0:0:0:0:
392,200,115818,1,0,0:0:0:0:
232,120,116018,1,0,0:0:0:0:
368,112,116218,2,0,P|392:160|392:200,1,70
336,304,116618,1,0,0:0:0:0:
216,184,116818,6,0,P|184:160|176:144,1,35
136,88,117018,1,0,0:0:0:0:
288,48,117218,2,0,P|352:56|360:80,1,70
400,128,117618,1,0,0:0:0:0:
400,216,117818,2,0,P|390:248|360:264,1,70
336,264,118118,1,0,0:0:0:0:
320,256,118219,1,0,0:0:0:0:
288,232,131418,5,0,0:0:0:0:
208,152,131618,2,0,L|240:184,1,35
288,232,132018,1,0,0:0:0:0:
360,184,132218,2,0,P|376:168|384:144,1,35
408,80,132618,1,0,0:0:0:0:
320,64,132818,1,0,0:0:0:0:
240,104,133018,2,0,B|184:224|184:224|216:208|264:200,1,210
328,168,134418,5,0,0:0:0:0:
368,104,134618,2,0,P|376:80|376:56,1,35
288,56,135018,5,0,0:0:0:0:
285,95,135218,1,0,0:0:0:0:
288,176,135418,2,0,L|312:208,1,35
368,256,135818,1,0,0:0:0:0:
424,192,136018,1,0,0:0:0:0:
464,120,136218,2,0,P|432:64|360:56,1,140
240,176,138418,5,0,0:0:0:0:
200,96,138618,2,0,P|192:80|181:66,1,35
80,96,139018,6,0,P|72:112|72:144,1,35
88,224,139418,2,0,B|176:192|176:256|272:208,1,175
336,160,140618,5,0,0:0:0:0:
400,104,140818,1,0,0:0:0:0:
416,192,141018,1,0,0:0:0:0:
336,96,141218,1,0,0:0:0:0:
464,96,141418,2,0,P|472:120|472:144,1,35
464,208,141818,2,0,P|455:231|440:250,1,35
376,288,142218,1,0,0:0:0:0:
304,216,142418,1,0,0:0:0:0:
272,312,142618,1,0,0:0:0:0:
256,192,142818,12,0,143818,0:0:0:0:
152,224,144018,5,0,0:0:0:0:
200,112,144218,2,0,L|272:168,1,87.5
368,176,144618,2,0,L|344:64,1,87.5
272,16,145018,1,0,0:0:0:0:
384,112,145218,1,0,0:0:0:0:
232,112,145418,1,0,0:0:0:0:
400,40,145618,1,0,0:0:0:0:
256,48,145818,6,0,L|160:80,1,87.5
128,200,146218,2,0,L|200:152,1,87.5
296,88,146618,1,0,0:0:0:0:
352,224,146818,1,0,0:0:0:0:
216,152,147018,1,0,0:0:0:0:
360,112,147218,1,0,0:0:0:0:
360,112,147418,6,0,L|263:83,1,87.5
184,208,147818,2,0,L|272:152,1,87.5
352,88,148218,1,0,0:0:0:0:
376,232,148418,1,0,0:0:0:0:
272,105,148618,1,0,0:0:0:0:
400,72,148818,1,0,0:0:0:0:
424,192,149018,6,0,L|256:96,1,175
160,80,149618,1,0,0:0:0:0:
168,200,149818,2,0,L|272:272,1,87.5
264,264,150118,1,0,0:0:0:0:
296,288,150218,2,0,L|400:360,1,87.5
208,264,150618,6,0,P|160:248|120:192,1,87.5
200,184,151018,2,0,P|241:171|273:142,1,87.5
336,72,151418,1,0,0:0:0:0:
216,176,151618,1,0,0:0:0:0:
320,64,151818,1,0,0:0:0:0:
224,176,152018,1,0,0:0:0:0:
336,72,152218,6,0,P|377:84|409:113,1,87.5
344,216,152618,2,0,P|302:203|270:174,1,87.5
192,64,153018,1,0,0:0:0:0:
272,192,153218,1,0,0:0:0:0:
184,56,153418,2,0,P|153:131|160:165,1,87.5
214,264,153818,5,0,0:0:0:0:
297,119,154018,1,0,0:0:0:0:
297,264,154218,1,0,0:0:0:0:
214,119,154418,1,0,0:0:0:0:
349,196,154618,2,0,P|330:235|297:263,1,87.5
208,176,155018,2,0,P|233:140|271:120,1,87.5
392,152,155418,5,0,0:0:0:0:
432,264,155618,1,0,0:0:0:0:
464,112,155818,1,0,0:0:0:0:
368,192,156018,1,0,0:0:0:0:
352,72,156218,1,0,0:0:0:0:
264,152,156418,1,0,0:0:0:0:
264,152,156518,1,0,0:0:0:0:
264,152,156618,1,0,0:0:0:0:
192,56,156818,1,0,0:0:0:0:
112,144,157018,6,0,P|128:200|179:233,1,87.5
232,120,157418,1,0,0:0:0:0:
264,240,157618,1,0,0:0:0:0:
368,192,157818,2,0,P|369:148|349:110,1,87.5
200,88,158218,1,0,0:0:0:0:
128,224,158418,1,0,0:0:0:0:
128,224,158618,2,0,B|192:176|200:232|280:168,1,131.25
280,176,159018,2,0,P|316:152|341:116,1,87.5
400,32,159418,5,0,0:0:0:0:
416,168,159618,1,0,0:0:0:0:
384,32,159818,2,0,P|342:43|304:72,1,87.5
248,152,160218,1,0,0:0:0:0:
136,112,160418,1,0,0:0:0:0:
184,232,160618,1,0,0:0:0:0:
216,96,160818,1,0,0:0:0:0:
120,176,161018,6,0,L|96:280,1,87.5
256,296,161418,2,0,L|280:184,1,87.5
280,184,161718,1,0,0:0:0:0:
288,152,161818,2,0,L|312:40,1,87.5
432,112,162218,1,0,0:0:0:0:
336,216,162418,1,0,0:0:0:0:
256,96,162618,2,0,P|208:136|200:184,1,87.5
256,304,163018,2,0,L|160:248,1,87.5
96,144,163418,5,0,0:0:0:0:
208,184,163618,1,0,0:0:0:0:
136,64,163818,1,0,0:0:0:0:
264,112,164018,1,0,0:0:0:0:
264,112,164218,2,0,P|352:144|432:184,1,175
384,280,164818,5,0,0:0:0:0:
264,200,165018,2,0,L|368:160,1,87.5
360,144,165318,1,0,0:0:0:0:
368,112,165418,2,0,P|327:96|284:101,1,87.5
144,136,165818,2,0,P|105:156|82:192,1,87.5
72,312,166218,2,0,L|184:328,1,87.5
272,336,166618,5,0,0:0:0:0:
176,232,166818,1,0,0:0:0:0:
304,304,167018,1,0,0:0:0:0:
152,264,167218,1,0,0:0:0:0:
312,264,167418,6,0,L|400:224,1,87.5
440,112,167818,1,0,0:0:0:0:
336,64,168018,2,0,P|272:96|256:112,1,87.5
256,224,168418,2,0,P|208:264|160:272,1,87.5
64,240,168818,1,0,0:0:0:0:
160,120,169018,2,0,L|216:52,1,87.5
112,48,169418,2,0,P|72:80|55:115,1,87.5
64,256,169818,5,0,0:0:0:0:
184,288,170218,5,0,0:0:0:0:
225,299,170318,1,0,0:0:0:0:
269,295,170418,1,0,0:0:0:0:
304,272,170518,1,0,0:0:0:0:
296,216,170618,5,0,0:0:0:0:
320,180,170718,1,0,0:0:0:0:
356,155,170818,1,0,0:0:0:0:
398,145,170918,1,0,0:0:0:0:
448,144,171018,6,0,L|463:61,1,70
384,56,171218,2,0,L|320:88,1,70
304,168,171418,2,0,L|224:128,1,70
248,48,171618,2,0,L|160:72,1,70
160,96,171818,5,0,0:0:0:0:
136,128,171918,1,0,0:0:0:0:
120,160,172018,1,0,0:0:0:0:
104,192,172118,1,0,0:0:0:0:
152,224,172218,5,0,0:0:0:0:
184,264,172318,1,0,0:0:0:0:
224,288,172418,1,0,0:0:0:0:
272,304,172518,1,0,0:0:0:0:
328,304,172618,6,0,L|344:200,1,70
336,128,172818,2,0,L|264:184,1,70
200,208,173018,2,0,B|304:216|304:216|312:152|416:160,1,210
424,152,173418,5,0,0:0:0:0:
448,120,173518,1,0,0:0:0:0:
464,80,173618,1,0,0:0:0:0:
464,40,173718,1,0,0:0:0:0:
424,32,173818,5,0,0:0:0:0:
412,70,173918,1,0,0:0:0:0:
386,104,174018,1,0,0:0:0:0:
354,128,174118,1,0,0:0:0:0:
320,136,174218,6,0,P|224:136|216:136,1,70
216,48,174418,2,0,L|144:96,1,70
120,120,174618,5,0,0:0:0:0:
96,152,174718,1,0,0:0:0:0:
88,192,174818,1,0,0:0:0:0:
88,232,174918,1,0,0:0:0:0:
136,248,175018,5,0,0:0:0:0:
184,264,175118,1,0,0:0:0:0:
232,280,175218,1,0,0:0:0:0:
280,296,175318,1,0,0:0:0:0:
328,304,175418,6,0,B|354:273|354:273|351:204,1,70
352,192,175618,1,0,0:0:0:0:
352,160,175718,1,0,0:0:0:0:
352,128,175818,2,0,P|264:104|256:112,1,70
286,165,176018,6,0,P|217:106|216:90,1,70
216,88,176218,5,0,0:0:0:0:
184,48,176318,1,0,0:0:0:0:
160,64,176418,1,0,0:0:0:0:
144,88,176518,1,0,0:0:0:0:
88,88,176618,5,0,0:0:0:0:
112,136,176718,1,0,0:0:0:0:
104,160,176818,1,0,0:0:0:0:
104,184,176918,1,0,0:0:0:0:
160,184,177018,5,0,0:0:0:0:
144,240,177118,1,0,0:0:0:0:
152,264,177218,1,0,0:0:0:0:
168,280,177318,1,0,0:0:0:0:
160,336,177418,5,0,0:0:0:0:
216,320,177518,1,0,0:0:0:0:
240,312,177618,1,0,0:0:0:0:
264,296,177718,1,0,0:0:0:0:
248,240,177818,5,0,0:0:0:0:
304,256,177918,1,0,0:0:0:0:
328,248,178018,1,0,0:0:0:0:
352,232,178118,1,0,0:0:0:0:
328,176,178218,5,0,0:0:0:0:
384,184,178318,1,0,0:0:0:0:
408,168,178418,1,0,0:0:0:0:
424,144,178518,1,0,0:0:0:0:
480,128,178618,5,0,0:0:0:0:
440,88,178718,1,0,0:0:0:0:
432,64,178818,1,0,0:0:0:0:
408,48,178918,1,0,0:0:0:0:
368,88,179018,5,0,0:0:0:0:
352,32,179118,1,0,0:0:0:0:
328,32,179218,1,0,0:0:0:0:
304,40,179318,1,0,0:0:0:0:
264,56,179418,6,0,P|184:80|160:96,1,70
136,32,179618,2,0,P|78:92|65:118,1,70,0|0,0:3|0:3,0:3:0:0:
80,152,179818,2,0,P|102:178|129:200,1,70,0|0,0:3|0:3,0:3:0:0:
192,160,180020,2,0,P|224:171|259:177,1,70
400,176,180218,2,0,P|367:187|332:193,1,70
192,240,180418,2,0,P|224:251|259:257,1,70
408,248,180616,2,0,P|375:259|340:265,1,70
224,288,180818,2,0,P|248:240|312:192,1,70
320,160,181018,6,0,L|332:149,1,11.6666666666667
320,160,181118,6,0,L|338:144,1,17.500000667572
320,160,181218,6,0,L|344:139,1,23.3333333333333
320,160,181318,6,0,L|350:134,1,29.1666666666667
320,160,181418,6,0,L|356:129,1,35.0000013351441
320,160,181518,6,0,L|356:129,1,40.8333337227503
320,160,181618,6,0,L|369:118,1,46.6666666666667
416,96,182618,6,0,B|368:48|368:48|368:104|328:136,1,140
304,208,183018,5,0,0:0:0:0:
288,232,183118,1,0,0:0:0:0:
272,256,183218,1,0,0:0:0:0:
256,280,183318,1,0,0:0:0:0:
200,264,183418,5,0,0:0:0:0:
176,272,183518,1,0,0:0:0:0:
152,280,183618,1,0,0:0:0:0:
128,288,183718,1,0,0:0:0:0:
96,248,183818,5,0,0:0:0:0:
104,224,183918,1,0,0:0:0:0:
104,200,184018,1,0,0:0:0:0:
96,176,184118,1,0,0:0:0:0:
95,152,184218,6,0,P|113:121|134:94,1,70
168,176,184418,2,0,P|185:145|206:118,1,70
232,208,184618,2,0,P|255:182|275:153,1,70
312,72,184818,2,0,P|294:41|273:14,1,70
136,40,185018,5,0,0:0:0:0:
112,56,185118,1,0,0:0:0:0:
88,72,185218,2,0,B|88:128|88:128|120:104|168:96,1,87.5
224,80,185418,2,0,L|168:208,1,87.5
184,256,185618,2,0,L|312:200,1,87.5
400,112,185818,6,0,B|416:184|416:184|384:160|320:160,1,140
248,120,186218,5,0,0:0:0:0:
232,104,186318,1,0,0:0:0:0:
208,96,186418,1,0,0:0:0:0:
184,96,186518,1,0,0:0:0:0:
152,144,186618,5,0,0:0:0:0:
128,160,186718,1,0,0:0:0:0:
112,176,186818,1,0,0:0:0:0:
96,200,186918,1,0,0:0:0:0:
128,248,187018,5,0,0:0:0:0:
136,272,187118,1,0,0:0:0:0:
152,296,187218,1,0,0:0:0:0:
168,312,187318,1,0,0:0:0:0:
216,280,187418,5,0,0:0:0:0:
240,264,187518,1,0,0:0:0:0:
264,256,187618,1,0,0:0:0:0:
288,248,187718,1,0,0:0:0:0:
336,280,187818,5,0,0:0:0:0:
360,272,187918,1,0,0:0:0:0:
384,256,188018,1,0,0:0:0:0:
408,240,188118,1,0,0:0:0:0:
432,168,188218,6,0,P|376:176|304:168,1,70
424,136,188418,2,0,P|368:144|296:136,1,70
256,176,188618,2,0,P|290:177|325:175,1,70
251,143,188818,2,0,P|285:144|320:142,1,70
432,72,189018,6,0,B|360:8|360:8|360:56|336:88,1,140
336,160,189418,5,0,0:0:0:0:
328,160,189518,1,0,0:0:0:0:
328,152,189618,1,0,0:0:0:0:
336,152,189718,1,0,0:0:0:0:
272,240,189818,5,0,0:0:0:0:
264,240,189918,1,0,0:0:0:0:
264,232,190018,1,0,0:0:0:0:
272,232,190118,1,0,0:0:0:0:
176,264,190218,5,0,0:0:0:0:
168,264,190318,1,0,0:0:0:0:
168,256,190418,1,0,0:0:0:0:
176,256,190518,1,0,0:0:0:0:
72,224,190618,5,0,0:0:0:0:
64,224,190718,1,0,0:0:0:0:
64,216,190818,1,0,0:0:0:0:
72,216,190918,1,0,0:0:0:0:
112,120,191018,5,0,0:0:0:0:
128,96,191118,1,0,0:0:0:0:
152,80,191218,1,0,0:0:0:0:
176,72,191318,1,0,0:0:0:0:
208,112,191418,5,0,0:0:0:0:
232,120,191518,1,0,0:0:0:0:
256,128,191618,2,0,B|296:112|296:112|392:96,1,87.5
416,80,191818,2,0,P|400:168|384:184,1,87.5
328,184,192018,2,0,P|384:232|424:240,1,87.5
464,288,192218,2,0,B|416:216|416:216|408:256|376:304,1,140
320,320,192618,5,0,0:0:0:0:
296,336,192718,1,0,0:0:0:0:
272,344,192818,1,0,0:0:0:0:
248,344,192918,1,0,0:0:0:0:
232,288,193018,5,0,0:0:0:0:
208,280,193118,1,0,0:0:0:0:
184,264,193218,1,0,0:0:0:0:
160,248,193318,1,0,0:0:0:0:
184,208,193418,5,0,0:0:0:0:
192,184,193518,1,0,0:0:0:0:
192,160,193618,1,0,0:0:0:0:
184,136,193718,1,0,0:0:0:0:
144,112,193818,5,0,0:0:0:0:
368,80,194018,1,0,0:0:0:0:
320,248,194218,2,0,L|200:152,1,140
88,72,194618,1,0,0:0:0:0:
80,200,194818,2,0,P|144:312|192:344,1,140
296,336,195218,1,0,0:0:0:0:
192,168,195418,2,0,B|160:96|160:96|192:120|240:120,1,140
416,88,195818,6,0,P|360:112|320:112,1,70
336,168,196018,2,0,P|369:159|400:142,1,70
416,192,196218,2,0,P|360:216|320:216,1,70
336,272,196418,2,0,P|369:263|400:246,1,70
280,176,196618,2,0,P|232:216|208:264,1,70
208,312,196818,2,0,P|144:272|128:248,1,70
176,184,197018,2,0,P|104:192|80:216,1,70
96,288,197218,2,0,P|32:240|24:224,1,70
64,144,197418,2,0,L|152:200,1,70
248,112,197618,2,0,L|200:224,1,70
176,296,197818,6,0,B|264:320|264:320|232:280|208:224,1,175
88,184,198218,2,0,L|192:192,1,87.5
320,160,198418,2,0,L|216:240,1,87.5
112,88,198618,2,0,B|200:88|200:88|152:112|136:160,1,140
112,224,199018,6,0,P|144:239|179:239,1,70
192,312,199218,2,0,P|227:309|258:291,1,70
312,344,199418,2,0,P|341:324|358:292,1,70
427,318,199618,2,0,P|443:285|442:250,1,70
344,240,199818,2,0,P|328:200|344:144,1,70
360,48,200018,2,0,L|280:80,1,70
320,176,200218,2,0,L|216:144,1,70
208,80,200418,2,0,L|128:120,1,70
56,128,200618,2,0,P|64:152|104:200,1,70
168,272,200818,2,0,L|272:264,1,70
416,80,201018,6,0,P|376:120|315:158,1,70
257,171,201218,2,0,P|285:151|311:127,1,70
416,80,201418,2,0,P|376:120|315:158,1,70
257,171,201618,2,0,P|285:151|311:127,1,70
400,48,201818,6,0,P|312:40|216:72,1,140
248,208,202218,6,0,L|160:176,1,70
152,80,202618,6,0,P|120:104|104:128,1,70
200,176,203018,6,0,L|168:232,1,52.5000020027161
144,304,203418,6,0,L|208:304,1,52.5000020027161
288,312,203818,6,0,L|336:296,1,35
448,272,204218,1,0,0:0:0:0:
448,96,204618,6,0,P|368:104|304:80,1,140
200,64,205018,2,0,P|192:104|200:136,1,70
224,224,205218,2,0,P|176:224|112:200,1,70
64,136,205418,5,0,0:0:0:0:
72,112,205518,1,0,0:0:0:0:
96,96,205618,1,0,0:0:0:0:
120,88,205718,1,0,0:0:0:0:
152,136,205818,5,0,0:0:0:0:
176,128,205918,1,0,0:0:0:0:
200,128,206018,1,0,0:0:0:0:
224,136,206118,1,0,0:0:0:0:
224,192,206218,5,0,0:0:0:0:
248,200,206318,1,0,0:0:0:0:
272,208,206418,1,0,0:0:0:0:
296,224,206518,1,0,0:0:0:0:
304,272,206618,5,0,0:0:0:0:
120,184,206818,1,0,0:0:0:0:
368,184,207018,1,0,0:0:0:0:
144,88,207218,1,0,0:0:0:0:
336,288,207618,1,0,0:0:0:0:
256,48,208018,1,0,0:0:0:0:
