osu file format v14

[General]
AudioFilename: audio.mp3
AudioLeadIn: 0
PreviewTime: 59172
Countdown: 0
SampleSet: Soft
StackLeniency: 0.7
Mode: 0
LetterboxInBreaks: 0
WidescreenStoryboard: 1

[Editor]
Bookmarks: 169,30169,60169,120169,180169,239231
DistanceSpacing: 1.1
BeatDivisor: 8
GridSize: 32
TimelineZoom: 1.7

[Metadata]
Title:Disconnected
TitleUnicode:Disconnected
Artist:Pegboard Nerds
ArtistUnicode:Pegboard Nerds
Creator:KaedeharaKazuha
Version:Normal
Source:
Tags:Addy2607 Kaedehara Kazuha FA featured artist mpg mappers mappers' guild Monstercat electronic EDM dance music instrumental Mayuzumi Mayuyu Kai 黛灰 Vtuber V-Tuber Virtual Youtuber Nijisanji にじさんじ
BeatmapID:3842850
BeatmapSetID:1816835

[Difficulty]
HPDrainRate:3
CircleSize:3
OverallDifficulty:4
ApproachRate:5
SliderMultiplier:1.2
SliderTickRate:1

[Events]
//Background and Video events
0,0,"BG.jpg",0,0
//Break Periods
2,120368,130219
//Storyboard Layer 0 (Background)
//Storyboard Layer 1 (Fail)
//Storyboard Layer 2 (Pass)
//Storyboard Layer 3 (Foreground)
//Storyboard Layer 4 (Overlay)
//Storyboard Sound Samples

[TimingPoints]
169,468.75,4,2,2,40,1,0
169,-117.647058823529,4,2,2,40,0,0
15169,-111.111111111111,4,2,2,50,0,0
29231,-111.111111111111,4,2,1,70,0,0
30169,-105.263157894737,4,2,4,60,0,0
45169,-100,4,2,3,70,0,0
52669,-100,4,2,3,80,0,0
56419,-100,4,2,3,70,0,0
57356,-100,4,2,3,60,0,0
58294,-100,4,2,3,70,0,0
59231,-100,4,2,5,80,0,0
59700,-100,4,2,1,80,0,0
60169,-95.2380952380952,4,2,1,90,0,1
60754,-95.2380952380952,4,2,1,5,0,1
60872,-95.2380952380952,4,2,1,90,0,1
60989,-95.2380952380952,4,2,1,5,0,1
61106,-95.2380952380952,4,2,1,90,0,1
61692,-95.2380952380952,4,2,1,5,0,1
61809,-95.2380952380952,4,2,1,90,0,1
61926,-95.2380952380952,4,2,1,5,0,1
62044,-95.2380952380952,4,2,1,90,0,1
64504,-95.2380952380952,4,2,1,5,0,1
64622,-95.2380952380952,4,2,1,90,0,1
64739,-95.2380952380952,4,2,1,5,0,1
64856,-95.2380952380952,4,2,1,90,0,1
65442,-95.2380952380952,4,2,1,5,0,1
65559,-95.2380952380952,4,2,1,90,0,1
65676,-95.2380952380952,4,2,1,5,0,1
65794,-95.2380952380952,4,2,1,90,0,1
68254,-95.2380952380952,4,2,1,5,0,1
68371,-95.2380952380952,4,2,1,90,0,1
68488,-95.2380952380952,4,2,1,5,0,1
68606,-95.2380952380952,4,2,1,90,0,1
69192,-95.2380952380952,4,2,1,5,0,1
69309,-95.2380952380952,4,2,1,90,0,1
69426,-95.2380952380952,4,2,1,5,0,1
69544,-95.2380952380952,4,2,1,90,0,1
72004,-95.2380952380952,4,2,1,5,0,1
72121,-95.2380952380952,4,2,1,90,0,1
72238,-95.2380952380952,4,2,1,5,0,1
72356,-95.2380952380952,4,2,1,90,0,1
72942,-95.2380952380952,4,2,1,5,0,1
73059,-95.2380952380952,4,2,1,90,0,1
73176,-95.2380952380952,4,2,1,5,0,1
73294,-95.2380952380952,4,2,1,90,0,1
74700,-95.2380952380952,4,2,1,70,0,0
75169,-95.2380952380952,4,2,1,90,0,1
75754,-95.2380952380952,4,2,1,5,0,1
75871,-95.2380952380952,4,2,1,90,0,1
75988,-95.2380952380952,4,2,1,5,0,1
76106,-95.2380952380952,4,2,1,90,0,1
76692,-95.2380952380952,4,2,1,5,0,1
76809,-95.2380952380952,4,2,1,90,0,1
76926,-95.2380952380952,4,2,1,5,0,1
77044,-95.2380952380952,4,2,1,90,0,1
79504,-95.2380952380952,4,2,1,5,0,1
79621,-95.2380952380952,4,2,1,90,0,1
79738,-95.2380952380952,4,2,1,5,0,1
79856,-95.2380952380952,4,2,1,90,0,1
80442,-95.2380952380952,4,2,1,5,0,1
80559,-95.2380952380952,4,2,1,90,0,1
80676,-95.2380952380952,4,2,1,5,0,1
80794,-95.2380952380952,4,2,1,90,0,1
83254,-95.2380952380952,4,2,1,5,0,1
83371,-95.2380952380952,4,2,1,90,0,1
83488,-95.2380952380952,4,2,1,5,0,1
83606,-95.2380952380952,4,2,1,90,0,1
84192,-95.2380952380952,4,2,1,5,0,1
84309,-95.2380952380952,4,2,1,90,0,1
84426,-95.2380952380952,4,2,1,5,0,1
84544,-95.2380952380952,4,2,1,90,0,1
89172,-95.2380952380952,4,2,1,5,0,1
89231,-95.2380952380952,4,2,1,60,0,0
89700,-95.2380952380952,4,2,1,70,0,0
90169,-95.2380952380952,4,2,1,90,0,1
90754,-95.2380952380952,4,2,1,5,0,1
90871,-95.2380952380952,4,2,1,90,0,1
90988,-95.2380952380952,4,2,1,5,0,1
91106,-95.2380952380952,4,2,1,90,0,1
91692,-95.2380952380952,4,2,1,5,0,1
91809,-95.2380952380952,4,2,1,90,0,1
91926,-95.2380952380952,4,2,1,5,0,1
92044,-95.2380952380952,4,2,1,90,0,1
102004,-95.2380952380952,4,2,1,5,0,1
102121,-95.2380952380952,4,2,1,90,0,1
102238,-95.2380952380952,4,2,1,5,0,1
102356,-95.2380952380952,4,2,1,90,0,1
102942,-95.2380952380952,4,2,1,5,0,1
103059,-95.2380952380952,4,2,1,90,0,1
103176,-95.2380952380952,4,2,1,5,0,1
103294,-95.2380952380952,4,2,1,90,0,1
104700,-95.2380952380952,4,2,1,70,0,0
105169,-95.2380952380952,4,2,1,90,0,1
105754,-95.2380952380952,4,2,1,5,0,1
105871,-95.2380952380952,4,2,1,90,0,1
105988,-95.2380952380952,4,2,1,5,0,1
106106,-95.2380952380952,4,2,1,90,0,1
106692,-95.2380952380952,4,2,1,5,0,1
106809,-95.2380952380952,4,2,1,90,0,1
106926,-95.2380952380952,4,2,1,5,0,1
107044,-95.2380952380952,4,2,1,90,0,1
113254,-95.2380952380952,4,2,1,5,0,1
113371,-95.2380952380952,4,2,1,90,0,1
113488,-95.2380952380952,4,2,1,5,0,1
113606,-95.2380952380952,4,2,1,90,0,1
114192,-95.2380952380952,4,2,1,5,0,1
114309,-95.2380952380952,4,2,1,90,0,1
120169,-111.111111111111,4,2,1,60,0,0
135169,-105.263157894737,4,2,1,80,0,0
136106,-105.263157894737,4,2,1,70,0,0
137044,-105.263157894737,4,2,1,60,0,0
137981,-105.263157894737,4,2,1,70,0,0
138450,-105.263157894737,4,2,1,80,0,0
138684,-105.263157894737,4,2,1,70,0,0
138919,-105.263157894737,4,2,1,80,0,0
139856,-105.263157894737,4,2,1,70,0,0
140794,-105.263157894737,4,2,1,60,0,0
141731,-105.263157894737,4,2,1,80,0,0
143606,-105.263157894737,4,2,1,70,0,0
144544,-105.263157894737,4,2,1,60,0,0
145481,-105.263157894737,4,2,1,70,0,0
145950,-105.263157894737,4,2,1,80,0,0
146184,-105.263157894737,4,2,1,70,0,0
146419,-105.263157894737,4,2,1,80,0,0
147356,-105.263157894737,4,2,1,70,0,0
148294,-105.263157894737,4,2,1,60,0,0
149231,-105.263157894737,4,2,1,80,0,0
150169,-105.263157894737,4,2,1,70,0,0
151106,-105.263157894737,4,2,1,80,0,0
152044,-105.263157894737,4,2,1,60,0,0
152981,-105.263157894737,4,2,1,70,0,0
153450,-105.263157894737,4,2,1,80,0,0
153684,-105.263157894737,4,2,1,70,0,0
153919,-105.263157894737,4,2,1,80,0,0
154856,-105.263157894737,4,2,1,70,0,0
155794,-105.263157894737,4,2,1,60,0,0
156731,-105.263157894737,4,2,1,80,0,0
157669,-105.263157894737,4,2,1,70,0,0
158606,-105.263157894737,4,2,1,80,0,0
159544,-105.263157894737,4,2,1,60,0,0
160481,-105.263157894737,4,2,1,70,0,0
160950,-105.263157894737,4,2,1,80,0,0
161184,-105.263157894737,4,2,1,70,0,0
161419,-105.263157894737,4,2,1,80,0,0
163294,-105.263157894737,4,2,1,60,0,0
164231,-105.263157894737,4,2,1,80,0,0
165169,-100,4,2,3,60,0,0
172669,-100,4,2,3,70,0,0
174544,-100,4,2,3,60,0,0
177356,-100,4,2,3,70,0,0
179231,-100,4,2,5,80,0,0
179700,-100,4,2,1,80,0,0
180169,-95.2380952380952,4,2,1,90,0,1
180754,-95.2380952380952,4,2,1,5,0,1
180871,-95.2380952380952,4,2,1,90,0,1
180988,-95.2380952380952,4,2,1,5,0,1
181106,-95.2380952380952,4,2,1,90,0,1
181692,-95.2380952380952,4,2,1,5,0,1
181809,-95.2380952380952,4,2,1,90,0,1
181926,-95.2380952380952,4,2,1,5,0,1
182044,-95.2380952380952,4,2,1,90,0,1
184504,-95.2380952380952,4,2,1,5,0,1
184621,-95.2380952380952,4,2,1,90,0,1
184738,-95.2380952380952,4,2,1,5,0,1
184856,-95.2380952380952,4,2,1,90,0,1
185442,-95.2380952380952,4,2,1,5,0,1
185559,-95.2380952380952,4,2,1,90,0,1
185676,-95.2380952380952,4,2,1,5,0,1
185794,-95.2380952380952,4,2,1,90,0,1
188254,-95.2380952380952,4,2,1,5,0,1
188371,-95.2380952380952,4,2,1,90,0,1
188488,-95.2380952380952,4,2,1,5,0,1
188606,-95.2380952380952,4,2,1,90,0,1
189192,-95.2380952380952,4,2,1,5,0,1
189309,-95.2380952380952,4,2,1,90,0,1
189426,-95.2380952380952,4,2,1,5,0,1
189544,-95.2380952380952,4,2,1,90,0,1
192004,-95.2380952380952,4,2,1,5,0,1
192121,-95.2380952380952,4,2,1,90,0,1
192238,-95.2380952380952,4,2,1,5,0,1
192356,-95.2380952380952,4,2,1,90,0,1
192942,-95.2380952380952,4,2,1,5,0,1
193059,-95.2380952380952,4,2,1,90,0,1
193176,-95.2380952380952,4,2,1,5,0,1
193294,-95.2380952380952,4,2,1,90,0,1
194700,-95.2380952380952,4,2,1,70,0,0
195169,-95.2380952380952,4,2,1,90,0,1
195754,-95.2380952380952,4,2,1,5,0,1
195871,-95.2380952380952,4,2,1,90,0,1
195988,-95.2380952380952,4,2,1,5,0,1
196106,-95.2380952380952,4,2,1,90,0,1
196692,-95.2380952380952,4,2,1,5,0,1
196809,-95.2380952380952,4,2,1,90,0,1
196926,-95.2380952380952,4,2,1,5,0,1
197044,-95.2380952380952,4,2,1,90,0,1
199504,-95.2380952380952,4,2,1,5,0,1
199621,-95.2380952380952,4,2,1,90,0,1
199738,-95.2380952380952,4,2,1,5,0,1
199856,-95.2380952380952,4,2,1,90,0,1
200442,-95.2380952380952,4,2,1,5,0,1
200559,-95.2380952380952,4,2,1,90,0,1
200676,-95.2380952380952,4,2,1,5,0,1
200794,-95.2380952380952,4,2,1,90,0,1
203254,-95.2380952380952,4,2,1,5,0,1
203371,-95.2380952380952,4,2,1,90,0,1
203488,-95.2380952380952,4,2,1,5,0,1
203606,-95.2380952380952,4,2,1,90,0,1
204192,-95.2380952380952,4,2,1,5,0,1
204309,-95.2380952380952,4,2,1,90,0,1
204426,-95.2380952380952,4,2,1,5,0,1
204544,-95.2380952380952,4,2,1,90,0,1
208704,-95.2380952380952,4,2,1,5,0,1
208762,-95.2380952380952,4,2,1,90,0,1
209172,-95.2380952380952,4,2,1,5,0,1
209231,-95.2380952380952,4,2,1,60,0,0
209700,-95.2380952380952,4,2,1,70,0,0
210169,-95.2380952380952,4,2,1,90,0,1
224700,-95.2380952380952,4,2,1,70,0,0
225169,-95.2380952380952,4,2,1,90,0,1
239231,-95.2380952380952,4,2,1,60,0,0

[Colours]
Combo1 : 180,180,180
Combo2 : 9,138,162
Combo3 : 89,89,89
Combo4 : 32,143,210

[HitObjects]
363,51,169,6,0,P|367:24|372:-7,2,51.0000009727478,2|2|2,3:2|0:0|0:0,0:0:0:0:
445,90,1106,2,0,P|448:123|451:149,1,51.0000009727478,10|2,0:0|0:0,0:0:0:0:
484,171,1575,1,2,0:0:0:0:
472,262,2044,2,0,P|407:255|359:252,1,102.000001945496,2|2,3:2|0:0,0:0:0:0:
339,287,2747,2,0,P|305:319|253:298,1,102.000001945496,2|2,0:0|0:0,0:0:0:0:
227,269,3450,1,2,0:0:0:0:
158,330,3919,6,0,P|161:362|163:388,2,51.0000009727478,2|2|2,3:2|0:0|0:0,0:0:0:0:
78,284,4856,1,10,0:0:0:0:
42,199,5325,1,2,0:0:0:0:
71,112,5794,2,0,P|115:127|157:83,1,102.000001945496,2|2,3:2|0:0,0:0:0:0:
180,56,6497,2,0,P|217:26|266:52,1,102.000001945496,2|2,0:0|0:0,0:0:0:0:
292,80,7200,1,2,0:0:0:0:
255,163,7669,6,0,P|207:158|182:157,2,51.0000009727478,2|2|2,3:2|0:0|0:0,0:0:0:0:
302,241,8606,1,10,0:0:0:0:
293,332,9075,1,2,0:0:0:0:
381,356,9544,2,0,P|390:276|394:245,1,102.000001945496,2|2,3:2|0:0,0:0:0:0:
434,234,10247,2,0,P|456:202|429:148,1,102.000001945496,2|2,0:0|0:0,0:0:0:0:
396,119,10950,1,2,0:0:0:0:
458,52,11419,6,0,P|488:57|511:62,2,51.0000009727478,2|2|2,3:2|0:0|0:0,0:0:0:0:
376,9,12356,2,0,P|338:17|310:24,1,51.0000009727478,10|2,0:0|0:0,0:0:0:0:
283,36,12825,1,2,0:0:0:0:
194,12,13294,2,0,B|130:25|129:25|88:35,1,102.000001945496,2|2,3:2|0:0,0:0:0:0:
52,51,13997,2,0,B|21:92|21:92|61:147,1,102.000001945496,2|2,0:0|0:0,0:0:0:0:
79,168,14700,1,2,0:0:0:0:
11,237,15169,6,0,P|54:228|165:281,1,161.999995056153,2|0,3:2|0:0,0:0:0:0:
190,310,16106,1,8,0:0:0:0:
283,276,16575,1,2,0:0:0:0:
283,276,16809,2,0,P|275:201|268:153,1,107.999996704102,2|2,3:2|0:0,0:0:0:0:
312,80,17747,2,0,P|375:55|423:131,1,161.999995056153,2|2,0:0|0:0,0:0:0:0:
458,212,18919,6,0,P|497:209|517:206,2,53.9999983520508,2|2|2,3:2|0:0|0:0,0:0:0:0:
398,289,19856,1,10,0:0:0:0:
398,289,20090,2,0,P|358:284|337:281,1,53.9999983520508,2|2,0:0|0:0,0:0:0:0:
303,308,20559,2,0,P|246:318|192:334,1,107.999996704102,2|2,3:2|0:0,0:0:0:0:
111,286,21497,2,0,P|101:229|85:175,1,107.999996704102,2|2,0:0|0:0,0:0:0:0:
70,135,22200,1,2,0:0:0:0:
7,60,22669,6,0,P|-4:30|8:3,2,53.9999983520508,2|2|2,3:2|0:0|0:0,0:0:0:0:
74,139,23606,1,10,0:0:0:0:
74,139,23840,2,0,L|130:146,1,53.9999983520508,2|2,0:0|0:0,0:0:0:0:
169,120,24309,2,0,P|209:104|248:157,1,107.999996704102,2|2,3:2|0:0,0:0:0:0:
199,230,25247,2,0,P|192:273|182:342,1,107.999996704102,2|2,0:0|0:0,0:0:0:0:
217,370,25950,2,0,P|250:365|275:361,1,53.9999983520508,2|2,0:0|0:0,0:0:0:0:
318,351,26419,5,2,3:2:0:0:
256,192,26653,12,8,29231,0:0:0:0:
177,155,30169,5,2,3:2:0:0:
177,155,30403,2,0,P|173:126|167:97,1,56.9999984779358,2|2,0:0|0:3,0:0:0:0:
283,46,31106,1,2,0:0:0:0:
283,46,31340,2,0,P|286:75|293:104,1,56.9999984779358,2|2,0:0|0:3,0:0:0:0:
372,198,32044,2,0,P|414:188|435:187,2,56.9999984779358,2|2|2,0:0|0:0|0:0,0:0:0:0:
329,244,32747,2,0,P|265:240|204:255,1,113.999996955872,2|2,0:0|0:0,0:0:0:0:
160,278,33450,1,2,0:0:0:0:
178,157,33919,5,2,0:0:0:0:
178,157,34153,2,0,P|174:128|168:99,1,56.9999984779358,2|2,0:0|0:3,0:0:0:0:
52,69,34856,1,2,0:0:0:0:
52,69,35090,2,0,P|55:98|62:127,1,56.9999984779358,2|2,0:0|0:3,0:0:0:0:
26,178,35559,1,2,0:0:0:0:
26,178,35794,2,0,P|5:201|30:268,2,85.4999977169037,2|2|2,0:0|0:0|0:0,0:0:0:0:
214,175,37200,2,0,P|248:182|278:191,1,56.9999984779358,2|2,0:0|0:0,0:0:0:0:
314,144,37669,5,2,0:0:0:0:
314,144,37903,2,0,P|348:137|378:128,1,56.9999984779358,2|2,0:0|0:3,0:0:0:0:
483,195,38606,1,2,0:0:0:0:
483,195,38840,1,2,0:0:0:0:
419,304,39309,1,2,0:0:0:0:
419,304,39544,2,0,L|434:376,2,56.9999984779358,2|2|2,0:0|0:0|0:0,0:0:0:0:
361,278,40247,2,0,P|287:296|240:311,1,113.999996955872,2|2,0:0|0:0,0:0:0:0:
194,334,40950,1,2,0:0:0:0:
73,297,41419,6,0,P|41:262|69:200,1,113.999996955872,2|2,0:0|0:3,0:0:0:0:
106,161,42122,2,0,P|138:126|110:64,1,113.999996955872,2|2,0:0|0:0,0:0:0:0:
10,15,43059,1,2,0:0:0:0:
10,15,43294,2,0,P|101:13|261:-1,1,227.999993911743,2|0,0:3|0:0,0:0:0:0:
464,137,45169,6,0,P|500:171|478:239,1,120,10|2,3:2|0:0,0:0:0:0:
443,285,45872,1,8,0:0:0:0:
443,285,46106,2,0,P|451:332|460:383,2,90,10|8|8,0:0|0:0|0:0,0:0:0:0:
379,264,47044,2,0,P|316:274|251:288,1,120,10|2,0:0|0:0,0:0:0:0:
131,259,47981,2,0,B|109:301|109:301|143:348,2,90,10|8|8,0:0|0:0|0:0,0:0:0:0:
185,221,48919,6,0,P|178:168|169:90,1,120,10|2,0:0|0:0,0:0:0:0:
216,54,49622,1,8,0:0:0:0:
216,54,49856,2,0,P|266:47|311:42,2,90,10|8|8,0:0|0:0|0:0,0:0:0:0:
168,7,50794,2,0,P|103:14|40:23,1,120,10|2,0:0|0:0,0:0:0:0:
86,148,51731,2,0,P|136:141|181:136,2,90,10|8|8,0:0|0:0|0:0,0:0:0:0:
21,164,52669,6,0,P|-10:196|28:262,1,120,2|2,3:2|3:2,0:0:0:0:
80,291,53372,1,2,0:0:0:0:
80,291,53606,2,0,P|142:281|205:273,1,120,2|2,3:2|3:2,0:0:0:0:
309,345,54544,2,0,P|368:353|428:363,1,120,10|10,3:2|3:2,0:0:0:0:
487,330,55247,1,2,0:0:0:0:
487,330,55481,2,0,P|516:281|482:235,1,120,10|10,0:0|0:0,0:0:0:0:
352,257,56419,6,0,P|311:251|281:247,1,60,10|10,0:0|0:0,0:0:0:0:
227,238,56887,1,10,0:0:0:0:
99,272,57356,2,0,P|105:231|109:201,1,60,10|10,0:0|0:0,0:0:0:0:
118,147,57824,1,10,0:0:0:0:
111,14,58294,6,0,P|152:20|182:24,1,60,8|8,0:0|0:0,0:0:0:0:
218,67,58762,2,0,P|259:61|289:57,1,60,8|8,0:0|0:0,0:0:0:0:
319,7,59231,2,0,P|360:13|390:17,1,60,10|4,0:0|0:3,0:0:0:0:
443,26,59700,1,10,3:2:0:0:
504,183,60169,5,4,3:1:0:0:
504,183,60403,2,0,P|493:254|486:307,1,125.999996154785,2|2,0:0|0:3,0:0:0:0:
431,369,61106,1,2,3:2:0:0:
431,369,61340,2,0,P|389:364|369:363,1,62.9999980773926,2|8,0:0|0:0,0:0:0:0:
209,320,62044,2,0,P|219:349|202:390,2,62.9999980773926,2|2|10,3:2|0:0|0:0,0:0:0:0:
266,260,62747,2,0,P|273:207|286:124,1,125.999996154785,2|2,0:0|0:0,0:0:0:0:
341,76,63450,1,10,0:0:0:0:
198,7,63919,5,2,3:2:0:0:
198,7,64153,2,0,P|144:13|64:21,1,125.999996154785,2|2,0:0|0:3,0:0:0:0:
43,99,64856,1,2,3:2:0:0:
43,99,65090,2,0,P|46:129|51:175,1,62.9999980773926,2|8,0:0|0:0,0:0:0:0:
92,238,65559,1,2,0:3:0:0:
92,238,65794,2,0,P|37:246|-4:253,2,94.499997116089,2|2|2,3:2|0:0|0:0,0:0:0:0:
173,231,66731,2,0,P|216:253|279:206,1,125.999996154785,0|10,3:0|0:0,0:0:0:0:
334,63,67669,5,2,3:2:0:0:
334,63,67903,2,0,P|380:25|437:46,1,125.999996154785,2|2,0:0|0:3,0:0:0:0:
492,114,68606,1,2,3:2:0:0:
492,114,68840,2,0,P|485:157|481:187,1,62.9999980773926,2|8,0:0|0:0,0:0:0:0:
455,338,69544,2,0,B|482:352|482:352|522:334,2,62.9999980773926,2|2|10,3:2|0:0|0:0,0:0:0:0:
401,275,70247,2,0,P|346:266|272:254,1,125.999996154785,2|2,0:0|0:0,0:0:0:0:
221,193,70950,1,10,0:0:0:0:
129,330,71419,5,2,3:2:0:0:
129,330,71653,2,0,P|57:335|29:286,1,125.999996154785,2|2,0:0|0:3,0:0:0:0:
8,221,72356,1,2,3:2:0:0:
8,221,72590,2,0,P|15:185|20:158,1,62.9999980773926,2|8,0:0|0:0,0:0:0:0:
98,14,73294,2,0,P|143:22|170:26,1,62.9999980773926,2|2,3:2|0:0,0:0:0:0:
207,98,73762,1,10,0:0:0:0:
207,98,73997,2,0,B|249:88|249:88|280:108|280:108|329:97,1,125.999996154785,2|2,0:0|0:3,0:0:0:0:
378,36,74700,1,8,0:0:0:0:
505,149,75169,5,4,3:1:0:0:
505,149,75403,2,0,P|498:205|489:287,1,125.999996154785,2|2,0:0|0:3,0:0:0:0:
498,360,76106,1,2,3:2:0:0:
498,360,76340,2,0,P|458:355|433:354,1,62.9999980773926,2|8,0:0|0:0,0:0:0:0:
276,311,77044,2,0,P|259:344|272:383,2,62.9999980773926,2|2|10,3:2|0:0|0:0,0:0:0:0:
329,248,77747,2,0,P|359:201|323:139,1,125.999996154785,2|2,0:0|0:0,0:0:0:0:
263,95,78450,1,10,0:0:0:0:
123,19,78919,5,2,3:2:0:0:
123,19,79153,2,0,P|59:27|-13:41,1,125.999996154785,2|2,0:0|0:3,0:0:0:0:
13,123,79856,1,2,3:2:0:0:
13,123,80090,2,0,P|18:164|22:189,1,62.9999980773926,2|8,0:0|0:0,0:0:0:0:
30,271,80559,1,2,0:3:0:0:
30,271,80794,2,0,B|3:310|3:310|38:374,2,94.499997116089,2|2|2,3:2|0:0|0:0,0:0:0:0:
101,311,81731,2,0,P|169:317|237:322,1,125.999996154785,0|10,3:0|0:0,0:0:0:0:
389,365,82669,5,2,3:2:0:0:
389,365,82903,2,0,P|395:297|400:229,1,125.999996154785,2|2,0:0|0:3,0:0:0:0:
466,190,83606,1,2,3:2:0:0:
466,190,83840,2,0,P|469:144|473:99,1,62.9999980773926,2|8,0:0|0:0,0:0:0:0:
317,68,84544,2,0,P|306:38|313:8,2,62.9999980773926,2|2|10,3:2|0:0|0:0,0:0:0:0:
299,148,85247,2,0,P|328:187|288:256,1,125.999996154785,2|2,0:0|0:0,0:0:0:0:
227,292,85950,1,10,0:0:0:0:
68,251,86419,6,0,P|61:201|46:114,1,125.999996154785,2|8,3:2|0:0,0:0:0:0:
96,60,87122,2,0,P|127:56|158:51,1,62.9999980773926,2|0,0:0|3:0,0:0:0:0:
227,95,87590,2,0,P|232:131|236:164,1,62.9999980773926,2|8,0:0|0:0,0:0:0:0:
295,212,88059,2,0,B|324:254|374:272|436:273|461:251|478:226|485:185|465:155|419:142|385:173,1,314.999990386963,6|2,0:0|0:0,0:0:0:0:
281,45,89700,1,10,0:0:0:0:
146,136,90169,5,4,3:1:0:0:
146,136,90403,2,0,P|104:129|64:125,2,62.9999980773926,2|8|2,0:0|0:0|0:3,0:0:0:0:
205,200,91106,1,2,3:2:0:0:
205,200,91340,2,0,P|198:242|194:282,1,62.9999980773926,2|8,0:0|0:0,0:0:0:0:
343,333,92044,2,0,B|398:364|398:364|452:323,1,125.999996154785,2|8,3:2|0:0,0:0:0:0:
494,258,92747,2,0,B|483:182,1,62.9999980773926,2|0,0:0|3:0,0:0:0:0:
508,120,93215,1,2,0:0:0:0:
508,120,93450,1,10,0:0:0:0:
365,38,93919,6,0,B|297:49,1,62.9999980773926,2|2,3:2|0:0,0:0:0:0:
222,61,94387,2,0,B|154:72,1,62.9999980773926,10|2,0:0|0:0,0:0:0:0:
77,70,94856,2,0,B|88:138,1,62.9999980773926,2|2,3:2|0:0,0:0:0:0:
102,212,95324,1,10,0:0:0:0:
185,353,95794,2,0,P|214:360|248:338,1,62.9999980773926,2|2,3:2|0:0,0:0:0:0:
296,282,96262,1,10,0:0:0:0:
296,282,96497,2,0,P|285:228|268:151,1,125.999996154785,2|2,0:0|0:3,0:0:0:0:
212,99,97200,1,10,0:0:0:0:
345,3,97669,6,0,P|372:8|411:17,1,62.9999980773926,2|2,3:2|0:0,0:0:0:0:
477,57,98137,2,0,P|472:84|463:123,1,62.9999980773926,10|2,0:0|0:0,0:0:0:0:
460,200,98606,2,0,P|434:194|395:185,1,62.9999980773926,2|2,3:2|0:0,0:0:0:0:
318,168,99074,1,8,0:0:0:0:
251,318,99544,2,0,P|225:323|186:332,1,62.9999980773926,2|2,3:2|0:0,0:0:0:0:
113,318,100012,1,10,0:0:0:0:
113,318,100247,2,0,B|78:265|78:265|119:206,1,125.999996154785,2|2,0:0|0:0,0:0:0:0:
182,169,100950,1,10,0:0:0:0:
59,59,101419,6,0,P|24:67|-6:77,2,62.9999980773926,2|2|8,3:2|0:0|0:0,0:0:0:0:
133,21,102122,1,2,0:3:0:0:
133,21,102356,2,0,P|175:27|199:34,1,62.9999980773926,2|2,3:2|0:0,0:0:0:0:
237,102,102825,1,10,0:0:0:0:
388,39,103294,2,0,P|430:45|454:52,1,62.9999980773926,2|2,3:2|0:0,0:0:0:0:
497,123,103762,1,10,0:0:0:0:
497,123,103997,2,0,P|520:170|475:228,1,125.999996154785,2|2,0:0|0:3,0:0:0:0:
417,277,104700,1,10,0:0:0:0:
265,339,105169,6,0,P|223:331|192:325,2,62.9999980773926,4|2|8,3:1|0:0|0:0,0:0:0:0:
311,272,105872,1,2,0:3:0:0:
311,272,106106,2,0,P|320:230|323:207,1,62.9999980773926,2|2,3:2|0:0,0:0:0:0:
389,162,106575,1,8,0:0:0:0:
270,48,107044,2,0,P|232:56|205:62,1,62.9999980773926,2|2,3:2|0:0,0:0:0:0:
150,5,107512,1,10,0:0:0:0:
150,5,107747,2,0,P|148:59|121:136,1,125.999996154785,2|2,0:0|0:0,0:0:0:0:
63,180,108450,1,10,0:0:0:0:
127,330,108919,6,0,P|159:334|195:338,1,62.9999980773926,2|2,3:2|0:0,0:0:0:0:
270,347,109387,2,0,P|274:315|278:279,1,62.9999980773926,10|2,0:0|0:0,0:0:0:0:
308,208,109856,2,0,P|276:204|240:200,1,62.9999980773926,2|2,3:2|0:0,0:0:0:0:
164,191,110324,1,10,0:0:0:0:
179,27,110794,2,0,P|211:31|247:35,1,62.9999980773926,2|2,3:2|0:0,0:0:0:0:
327,35,111262,1,10,0:0:0:0:
327,35,111497,2,0,P|397:26|459:10,1,125.999996154785,2|2,0:0|0:3,0:0:0:0:
510,71,112200,1,8,0:0:0:0:
451,224,112669,6,0,P|457:267|462:294,1,62.9999980773926,2|2,3:2|0:0,0:0:0:0:
403,345,113137,2,0,P|360:351|333:356,1,62.9999980773926,8|2,0:0|0:3,0:0:0:0:
281,297,113606,2,0,P|275:254|270:227,1,62.9999980773926,2|2,3:2|0:0,0:0:0:0:
304,160,114075,1,8,0:0:0:0:
422,47,114544,2,0,B|447:28|447:28|487:40,2,62.9999980773926,2|2|10,3:2|0:0|0:0,0:0:0:0:
349,7,115247,2,0,P|285:19|223:26,1,125.999996154785,2|2,0:0|0:0,0:0:0:0:
144,6,115950,1,10,0:0:0:0:
19,112,116419,6,0,P|31:176|38:238,1,125.999996154785,2|8,3:2|0:0,0:0:0:0:
99,290,117122,2,0,P|149:314|204:280,1,125.999996154785,2|2,0:0|0:0,0:0:0:0:
234,203,117825,1,8,0:0:0:0:
362,305,118294,6,0,B|329:47|329:47|406:7|406:7|426:170,1,503.999984619141,0|4,3:0|3:2,0:0:0:0:
256,192,131419,12,0,134231,3:0:0:0:
290,282,135169,6,0,B|235:292|235:292|207:339|207:339|139:354,1,170.999995433807,4|0,3:2|0:0,0:0:0:0:
86,361,136106,2,0,P|91:324|95:294,1,56.9999984779358,10|2,0:0|0:0,0:0:0:0:
120,247,136575,1,2,0:0:0:0:
23,166,137044,1,0,3:2:0:0:
73,51,137512,1,2,0:0:0:0:
192,88,137981,2,0,P|224:83|253:80,1,56.9999984779358,10|2,0:0|0:0,0:0:0:0:
292,36,138450,1,2,0:0:0:0:
381,123,138919,6,0,B|500:143|500:143|514:200,1,170.999995433807,0|0,3:0|0:0,0:0:0:0:
507,254,139856,2,0,L|494:321,1,56.9999984779358,10|2,0:0|0:0,0:0:0:0:
459,360,140325,1,2,0:0:0:0:
376,265,140794,1,2,3:2:0:0:
295,360,141262,1,2,0:0:0:0:
225,255,141731,2,0,P|173:266|106:287,1,113.999996955872,8|8,0:0|0:0,0:0:0:0:
64,256,142434,1,0,3:0:0:0:
64,256,142669,6,0,B|18:239|18:239|7:157|7:157|35:127,1,170.999995433807,0|0,3:0|0:0,0:0:0:0:
92,107,143606,2,0,P|127:97|151:91,1,56.9999984779358,10|2,0:0|0:0,0:0:0:0:
207,109,144075,1,2,0:0:0:0:
324,64,144544,2,0,P|318:28|313:5,2,56.9999984779358,2|2|2,3:2|0:0|0:0,0:0:0:0:
380,103,145247,1,2,0:3:0:0:
380,103,145481,2,0,P|373:142|371:159,1,56.9999984779358,10|2,0:0|0:0,0:0:0:0:
406,210,145950,1,2,0:0:0:0:
403,335,146419,6,0,B|359:343|359:343|312:271|312:271|261:283,1,170.999995433807,0|0,3:0|0:0,0:0:0:0:
232,328,147356,2,0,P|193:339|175:344,1,56.9999984779358,10|2,0:0|0:0,0:0:0:0:
116,358,147825,1,2,0:0:0:0:
4,298,148294,1,2,3:2:0:0:
52,182,148762,1,2,0:0:0:0:
172,216,149231,2,0,P|213:211|234:208,1,56.9999984779358,8|0,0:0|3:0,0:0:0:0:
282,176,149700,2,0,P|277:135|274:114,1,56.9999984779358,8|0,0:0|3:0,0:0:0:0:
243,71,150169,5,2,3:2:0:0:
243,71,150403,2,0,P|202:80|121:87,1,113.999996955872,2|0,0:0|0:0,0:0:0:0:
75,118,151106,2,0,P|80:159|83:180,1,56.9999984779358,10|2,0:0|0:0,0:0:0:0:
52,229,151575,1,2,0:0:0:0:
108,341,152044,1,2,3:2:0:0:
212,271,152512,1,2,0:3:0:0:
313,344,152981,2,0,P|353:338|377:335,1,56.9999984779358,10|2,0:0|0:0,0:0:0:0:
431,324,153450,1,2,0:0:0:0:
495,216,153919,6,0,B|511:100|511:100|459:140,1,170.999995433807,2|0,3:2|0:0,0:0:0:0:
409,154,154856,2,0,P|359:163|343:168,1,56.9999984779358,10|2,0:0|0:0,0:0:0:0:
294,186,155325,1,2,0:0:0:0:
236,297,155794,2,0,P|203:292|176:292,1,56.9999984779358,2|2,3:2|0:0,0:0:0:0:
129,329,156262,2,0,P|96:324|69:324,1,56.9999984779358,2|0,0:3|3:0,0:0:0:0:
30,276,156731,2,0,P|35:243|35:216,1,56.9999984779358,8|0,0:0|3:0,0:0:0:0:
17,159,157200,1,8,0:0:0:0:
111,76,157669,5,2,3:2:0:0:
111,76,157903,2,0,B|162:50|162:50|209:90,1,113.999996955872,2|0,0:0|0:0,0:0:0:0:
243,137,158606,2,0,B|231:205,1,56.9999984779358,10|2,0:0|0:0,0:0:0:0:
268,244,159075,1,2,0:0:0:0:
185,338,159544,1,0,3:0:0:0:
185,338,159778,2,0,P|142:331|120:326,2,56.9999984779358,2|2|2,0:3|0:3|0:3,0:0:0:0:
237,372,160481,2,0,P|271:366|298:361,1,56.9999984779358,10|2,0:0|0:0,0:0:0:0:
353,378,160950,1,2,0:0:0:0:
469,330,161419,6,0,P|461:264|444:161,1,170.999995433807,0|0,3:0|0:0,0:0:0:0:
485,114,162356,2,0,P|488:88|495:54,1,56.9999984779358,10|2,0:0|0:0,0:0:0:0:
459,5,162825,1,2,0:0:0:0:
347,58,163294,1,0,3:0:0:0:
347,58,163528,2,0,P|335:119|326:177,1,113.999996955872,2|0,0:3|3:0,0:0:0:0:
315,231,164231,2,0,P|278:222|250:218,1,56.9999984779358,8|0,0:0|3:0,0:0:0:0:
207,183,164700,1,8,0:0:0:0:
88,123,165169,6,0,P|80:180|71:246,1,120,8|2,3:2|0:0,0:0:0:0:
20,282,165872,1,8,0:0:0:0:
20,282,166106,2,0,P|-5:317|20:366,2,90,8|8|8,0:0|0:0|0:0,0:0:0:0:
72,242,167044,2,0,P|145:252|199:262,1,120,8|2,0:0|0:0,0:0:0:0:
321,244,167981,2,0,B|339:287|339:287|302:324,2,90,8|8|8,0:0|0:0|0:0,0:0:0:0:
276,195,168919,6,0,P|286:122|293:71,1,120,8|2,0:0|0:0,0:0:0:0:
344,35,169622,1,8,0:0:0:0:
344,35,169856,2,0,P|390:23|428:55,2,90,8|8|8,0:0|0:0|0:0,0:0:0:0:
292,76,170794,2,0,B|245:87|245:87|229:105|229:105|172:120,1,120,8|2,0:0|0:0,0:0:0:0:
58,90,171731,1,10,0:0:0:0:
58,90,171965,2,0,P|34:134|68:192,1,120,2|8,0:0|0:0,0:0:0:0:
117,231,172669,6,0,P|167:230|243:256,1,120,2|2,3:2|3:2,0:0:0:0:
289,285,173372,1,2,0:0:0:0:
289,285,173606,2,0,P|330:333|378:308,1,120,2|2,3:2|3:2,0:0:0:0:
462,214,174544,2,0,P|456:166|442:90,1,120,10|10,3:2|3:2,0:0:0:0:
406,47,175247,1,2,0:0:0:0:
406,47,175481,2,0,P|352:21|312:65,1,120,10|10,0:0|0:0,0:0:0:0:
263,179,176419,6,0,P|270:227|273:248,1,60,10|10,0:0|0:0,0:0:0:0:
283,303,176887,1,10,0:0:0:0:
165,362,177356,2,0,P|158:314|155:293,1,60,10|10,0:0|0:0,0:0:0:0:
145,238,177824,1,10,0:0:0:0:
154,105,178294,2,0,P|160:72|188:45,1,60,8|8,0:0|0:0,0:0:0:0:
234,18,178762,2,0,P|265:13|301:29,1,60,8|8,0:0|0:0,0:0:0:0:
342,63,179231,2,0,P|357:90|353:129,1,60,10|4,0:0|0:3,0:0:0:0:
330,178,179700,1,10,3:2:0:0:
249,322,180169,5,4,3:1:0:0:
249,322,180403,2,0,P|180:317|118:313,1,125.999996154785,2|2,0:0|0:3,0:0:0:0:
43,317,181106,1,2,3:2:0:0:
43,317,181340,2,0,P|46:283|47:253,1,62.9999980773926,2|8,0:0|0:0,0:0:0:0:
11,93,182044,2,0,P|14:59|15:29,2,62.9999980773926,2|2|10,3:2|0:0|0:0,0:0:0:0:
76,142,182747,2,0,P|130:133|208:122,1,125.999996154785,2|2,0:0|0:0,0:0:0:0:
248,56,183450,1,10,0:0:0:0:
388,150,183919,5,2,3:2:0:0:
388,150,184153,2,0,P|418:191|392:262,1,125.999996154785,2|2,0:0|0:3,0:0:0:0:
324,291,184856,1,2,3:2:0:0:
324,291,185090,2,0,P|283:286|255:284,1,62.9999980773926,2|8,0:0|0:0,0:0:0:0:
183,258,185559,1,2,0:3:0:0:
183,258,185794,2,0,B|150:296|150:296|176:343,2,94.499997116089,2|2|2,3:2|0:0|0:0,0:0:0:0:
235,195,186731,2,0,P|231:132|228:62,1,125.999996154785,0|10,3:0|0:0,0:0:0:0:
77,18,187669,5,2,3:2:0:0:
77,18,187903,2,0,P|81:81|84:151,1,125.999996154785,2|2,0:0|0:3,0:0:0:0:
80,229,188606,1,2,3:2:0:0:
80,229,188840,2,0,P|123:226|148:224,1,62.9999980773926,2|8,0:0|0:0,0:0:0:0:
288,299,189544,2,0,P|313:309|349:299,2,62.9999980773926,2|2|10,3:2|0:0|0:0,0:0:0:0:
321,223,190247,2,0,P|314:164|306:93,1,125.999996154785,2|2,0:0|0:0,0:0:0:0:
352,30,190950,1,10,0:0:0:0:
498,115,191419,5,2,3:2:0:0:
498,115,191653,2,0,P|505:174|513:245,1,125.999996154785,2|2,0:0|0:3,0:0:0:0:
459,303,192356,1,2,3:2:0:0:
459,303,192590,2,0,P|429:299|394:295,1,62.9999980773926,2|8,0:0|0:0,0:0:0:0:
239,344,193294,2,0,P|193:350|162:353,1,62.9999980773926,2|2,3:2|0:0,0:0:0:0:
117,297,193762,1,10,0:0:0:0:
117,297,193997,2,0,P|88:247|125:187,1,125.999996154785,2|2,0:0|0:3,0:0:0:0:
196,169,194700,1,8,0:0:0:0:
259,20,195169,5,4,3:1:0:0:
259,20,195403,2,0,P|191:27|124:34,1,125.999996154785,2|2,0:0|0:3,0:0:0:0:
62,70,196106,1,2,3:2:0:0:
62,70,196340,2,0,P|65:104|69:137,1,62.9999980773926,2|8,0:0|0:0,0:0:0:0:
15,288,197044,2,0,P|18:322|22:355,2,62.9999980773926,2|2|10,3:2|0:0|0:0,0:0:0:0:
83,242,197747,2,0,P|145:235|208:229,1,125.999996154785,2|2,0:0|0:0,0:0:0:0:
264,289,198450,1,10,0:0:0:0:
395,190,198919,5,2,3:2:0:0:
395,190,199153,2,0,P|414:137|365:86,1,125.999996154785,2|2,0:0|0:3,0:0:0:0:
293,64,199856,1,2,3:2:0:0:
293,64,200090,2,0,P|253:71|226:77,1,62.9999980773926,2|8,0:0|0:0,0:0:0:0:
164,120,200559,1,2,0:3:0:0:
164,120,200794,2,0,B|136:81|136:81|161:28,2,94.499997116089,2|2|2,3:2|0:0|0:0,0:0:0:0:
218,180,201731,2,0,P|224:232|232:305,1,125.999996154785,0|10,3:0|0:0,0:0:0:0:
82,368,202669,5,2,3:2:0:0:
82,368,202903,2,0,P|76:316|68:243,1,125.999996154785,2|2,0:0|0:3,0:0:0:0:
9,189,203606,1,2,3:2:0:0:
9,189,203840,2,0,P|6:162|2:126,1,62.9999980773926,2|8,0:0|0:0,0:0:0:0:
153,62,204544,2,0,P|150:35|146:-1,2,62.9999980773926,2|2|10,3:2|0:0|0:0,0:0:0:0:
212,118,205247,2,0,P|242:138|315:98,1,125.999996154785,2|2,0:0|0:0,0:0:0:0:
347,25,205950,1,10,0:0:0:0:
489,105,206419,6,0,P|479:169|469:240,1,125.999996154785,2|8,3:2|0:0,0:0:0:0:
397,267,207122,2,0,P|365:262|329:257,1,62.9999980773926,2|0,0:0|3:0,0:0:0:0:
272,310,207590,2,0,P|240:315|204:320,1,62.9999980773926,2|8,0:0|0:0,0:0:0:0:
144,269,208059,2,0,B|85:197|194:118|201:186|320:92|245:24,1,314.999990386963,6|2,3:2|0:0,0:0:0:0:
85,1,209700,1,10,0:0:0:0:
0,157,210169,5,4,3:1:0:0:
0,157,210403,2,0,P|4:192|9:229,1,62.9999980773926,2|8,0:0|0:0,0:0:0:0:
12,305,210872,1,2,0:0:0:0:
12,305,211106,2,0,P|57:292|107:311,1,94.499997116089,0|2,3:0|0:0,0:0:0:0:
148,373,211692,1,2,0:0:0:0:
212,322,211926,2,0,P|206:264|204:225,1,94.499997116089,2|2,0:0|0:0,0:0:0:0:
244,156,212512,1,8,0:0:0:0:
96,84,212981,2,0,P|62:89|0:100,2,94.499997116089,2|2|2,3:2|0:0|0:3,0:0:0:0:
155,26,213919,5,0,3:0:0:0:
155,26,214153,2,0,P|197:33|222:38,1,62.9999980773926,2|8,0:0|0:0,0:0:0:0:
377,5,214856,2,0,P|411:33|393:84,1,94.499997116089,0|2,3:0|0:0,0:0:0:0:
330,120,215442,1,2,0:0:0:0:
258,159,215676,2,0,P|234:195|265:244,1,94.499997116089,2|2,0:0|0:0,0:0:0:0:
257,324,216262,1,8,0:0:0:0:
257,324,216497,2,0,P|316:324|380:349,1,125.999996154785,2|2,0:0|0:3,0:0:0:0:
456,375,217200,1,10,0:0:0:0:
503,218,217669,5,0,3:0:0:0:
503,218,217903,2,0,P|499:182|494:156,1,62.9999980773926,2|8,0:0|0:0,0:0:0:0:
512,77,218372,1,2,0:0:0:0:
512,77,218606,2,0,P|466:73|428:110,1,94.499997116089,0|2,3:0|0:0,0:0:0:0:
385,170,219192,1,2,0:0:0:0:
313,129,219426,2,0,P|271:131|214:143,1,94.499997116089,2|2,0:0|0:0,0:0:0:0:
156,193,220012,1,8,0:0:0:0:
29,88,220481,2,0,P|7:56|33:7,2,94.499997116089,2|2|2,3:2|0:0|0:3,0:0:0:0:
3,166,221419,6,0,P|8:197|11:232,1,62.9999980773926,0|2,3:0|0:0,0:0:0:0:
75,278,221887,2,0,P|106:273|141:270,1,62.9999980773926,10|2,0:0|0:0,0:0:0:0:
191,208,222356,2,0,P|186:177|183:142,1,62.9999980773926,2|2,3:2|0:0,0:0:0:0:
221,72,222825,1,10,0:0:0:0:
377,119,223294,2,0,P|417:114|447:112,2,62.9999980773926,2|2|10,3:2|0:0|0:0,0:0:0:0:
316,174,223997,2,0,B|284:229|284:229|325:282,1,125.999996154785,2|2,0:0|0:3,0:0:0:0:
289,353,224700,1,10,0:0:0:0:
133,302,225169,5,4,3:1:0:0:
133,302,225403,2,0,P|96:308|69:318,1,62.9999980773926,2|8,0:0|0:0,0:0:0:0:
3,275,225872,1,2,0:0:0:0:
3,275,226106,2,0,P|13:222|19:177,1,94.499997116089,0|2,3:0|0:0,0:0:0:0:
2,101,226692,1,2,0:0:0:0:
59,43,226926,2,0,P|94:25|144:63,1,94.499997116089,2|2,0:0|0:0,0:0:0:0:
175,123,227512,1,8,0:0:0:0:
230,277,227981,2,0,P|220:326|211:374,2,94.499997116089,2|2|2,3:2|0:0|0:3,0:0:0:0:
308,245,228919,5,0,3:0:0:0:
308,245,229153,2,0,P|343:255|374:263,1,62.9999980773926,2|8,0:0|0:0,0:0:0:0:
488,150,229856,2,0,P|502:96|515:47,1,94.499997116089,0|2,3:0|0:0,0:0:0:0:
451,2,230442,1,2,0:0:0:0:
382,46,230676,2,0,P|328:32|279:19,1,94.499997116089,2|2,0:0|0:0,0:0:0:0:
222,65,231262,1,8,0:0:0:0:
222,65,231497,2,0,P|195:103|233:170,1,125.999996154785,2|2,0:0|0:3,0:0:0:0:
299,206,232200,1,10,0:0:0:0:
207,343,232669,5,0,3:0:0:0:
207,343,232903,2,0,P|166:336|140:333,1,62.9999980773926,2|8,0:0|0:0,0:0:0:0:
63,355,233372,1,2,0:0:0:0:
63,355,233606,2,0,P|89:314|68:264,1,94.499997116089,0|2,3:0|0:0,0:0:0:0:
20,213,234192,1,2,0:0:0:0:
49,136,234426,2,0,P|90:142|146:152,1,94.499997116089,2|2,0:0|0:0,0:0:0:0:
197,90,235012,1,10,0:0:0:0:
197,90,235247,2,0,P|250:82|322:69,1,125.999996154785,2|2,0:0|0:0,0:0:0:0:
388,21,235950,1,8,0:0:0:0:
504,135,236419,6,0,P|475:196|421:180,1,125.999996154785,2|8,3:2|0:0,0:0:0:0:
345,186,237122,2,0,P|291:173|265:232,1,125.999996154785,2|2,0:0|0:0,0:0:0:0:
317,300,237825,1,8,0:0:0:0:
317,300,238059,2,0,P|253:277|38:369,1,314.999990386963,4|2,3:2|0:0,0:0:0:0:
