osu file format v14

[General]
AudioFilename: audio.mp3
AudioLeadIn: 0
PreviewTime: 89225
Countdown: 0
SampleSet: Normal
StackLeniency: 0.7
Mode: 1
LetterboxInBreaks: 0
WidescreenStoryboard: 1

[Editor]
Bookmarks: 15514,60163,88288,90163,120163,180163,208053,210163,240163
DistanceSpacing: 1
BeatDivisor: 12
GridSize: 8
TimelineZoom: 1

[Metadata]
Title:Disconnected
TitleUnicode:Disconnected
Artist:Pegboard Nerds
ArtistUnicode:Pegboard Nerds
Creator:Jonarwhal
Version:Kantan
Source:
Tags:jonawaga beaw mpg Alexander Odden Michael Parsberg 007 solace monstercat release electro instrumental electronic dance edm featured artist fa mappers' guild stingy
BeatmapID:3794215
BeatmapSetID:1838730

[Difficulty]
HPDrainRate:8
CircleSize:5
OverallDifficulty:3
ApproachRate:5
SliderMultiplier:1.4
SliderTickRate:1

[Events]
//Background and Video events
0,0,"pexels-la-miko-3615735.jpg",0,0
//Break Periods
//Storyboard Layer 0 (Background)
//Storyboard Layer 1 (Fail)
//Storyboard Layer 2 (Pass)
//Storyboard Layer 3 (Foreground)
//Storyboard Layer 4 (Overlay)
//Storyboard Sound Samples

[TimingPoints]
164,468.75,4,1,0,40,1,0
7644,-100,4,1,0,45,0,0
15144,-100,4,1,0,50,0,0
22644,-100,4,1,0,55,0,0
30144,-100,4,1,0,60,0,0
45144,-100,4,1,0,70,0,0
52644,-100,4,1,0,75,0,0
56394,-100,4,1,0,80,0,0
58269,-100,4,1,0,85,0,0
60164,-100,4,1,0,85,0,1
88054,-100,4,1,0,85,0,0
90164,-100,4,1,0,85,0,1
120046,-100,4,1,0,55,0,1
120164,-100,4,1,0,55,0,0
127664,-100,4,1,0,60,0,0
131296,-100,4,1,0,50,0,0
133171,-100,4,1,0,40,0,0
135046,-100,4,1,0,60,0,0
165105,-100,4,1,0,70,0,0
172605,-100,4,1,0,75,0,0
176355,-100,4,1,0,80,0,0
178230,-100,4,1,0,85,0,0
180164,-100,4,1,0,85,0,1
208054,-100,4,1,0,85,0,0
210164,-100,4,1,0,85,0,1
239226,-100,4,1,0,85,0,0

[HitObjects]
256,192,164,5,0,0:0:0:0:
256,192,1101,1,0,0:0:0:0:
256,192,2039,1,8,0:0:0:0:
256,192,3445,1,8,0:0:0:0:
256,192,3914,1,0,0:0:0:0:
256,192,4851,1,0,0:0:0:0:
256,192,5789,1,8,0:0:0:0:
256,192,7195,1,8,0:0:0:0:
256,192,7664,1,0,0:0:0:0:
256,192,8601,1,0,0:0:0:0:
256,192,9539,1,8,0:0:0:0:
256,192,10945,1,8,0:0:0:0:
256,192,11414,1,0,0:0:0:0:
256,192,12351,1,0,0:0:0:0:
256,192,13289,12,0,14695,0:0:0:0:
256,192,15164,5,4,0:0:0:0:
256,192,16570,1,0,0:0:0:0:
256,192,17273,1,8,0:0:0:0:
256,192,17742,1,8,0:0:0:0:
256,192,18914,1,0,0:0:0:0:
256,192,19851,1,0,0:0:0:0:
256,192,20554,1,0,0:0:0:0:
256,192,21023,1,8,0:0:0:0:
256,192,22664,1,0,0:0:0:0:
256,192,23601,1,8,0:0:0:0:
256,192,24304,1,0,0:0:0:0:
256,192,24773,1,0,0:0:0:0:
256,192,25242,1,0,0:0:0:0:
256,192,25945,1,0,0:0:0:0:
256,192,26414,1,8,0:0:0:0:
256,192,27117,1,8,0:0:0:0:
256,192,27585,1,8,0:0:0:0:
256,192,28289,1,0,0:0:0:0:
256,192,30164,1,4,0:0:0:0:
256,192,31101,1,0,0:0:0:0:
256,192,32039,1,0,0:0:0:0:
256,192,32742,1,8,0:0:0:0:
256,192,33445,1,8,0:0:0:0:
256,192,33914,1,0,0:0:0:0:
256,192,34851,1,0,0:0:0:0:
256,192,35789,1,8,0:0:0:0:
256,192,37195,1,0,0:0:0:0:
256,192,37664,1,8,0:0:0:0:
256,192,38601,1,8,0:0:0:0:
256,192,39539,1,0,0:0:0:0:
256,192,40242,1,0,0:0:0:0:
256,192,40945,1,8,0:0:0:0:
256,192,41414,1,0,0:0:0:0:
256,192,42117,1,0,0:0:0:0:
256,192,42585,1,8,0:0:0:0:
256,192,43054,1,0,0:0:0:0:
256,192,45164,1,8,0:0:0:0:
256,192,46101,1,8,0:0:0:0:
256,192,46570,1,0,0:0:0:0:
256,192,47039,1,8,0:0:0:0:
256,192,47976,1,0,0:0:0:0:
256,192,48914,1,8,0:0:0:0:
256,192,49851,1,8,0:0:0:0:
256,192,50320,1,0,0:0:0:0:
256,192,50789,1,8,0:0:0:0:
256,192,52664,1,8,0:0:0:0:
256,192,53132,1,8,0:0:0:0:
256,192,53601,1,8,0:0:0:0:
256,192,54539,1,0,0:0:0:0:
256,192,55007,1,0,0:0:0:0:
256,192,55476,1,0,0:0:0:0:
256,192,56414,1,8,0:0:0:0:
256,192,56882,1,8,0:0:0:0:
256,192,57351,1,0,0:0:0:0:
256,192,57820,1,0,0:0:0:0:
256,192,58289,1,8,0:0:0:0:
256,192,59695,5,0,0:0:0:0:
256,192,60164,5,12,0:0:0:0:
256,192,61101,1,8,0:0:0:0:
256,192,62039,1,0,0:0:0:0:
256,192,62742,1,8,0:0:0:0:
256,192,63445,1,8,0:0:0:0:
256,192,63914,1,0,0:0:0:0:
256,192,64851,1,0,0:0:0:0:
256,192,65789,1,8,0:0:0:0:
256,192,67195,1,0,0:0:0:0:
256,192,67664,1,8,0:0:0:0:
256,192,68601,1,8,0:0:0:0:
256,192,69539,1,0,0:0:0:0:
256,192,70242,1,0,0:0:0:0:
256,192,70945,1,8,0:0:0:0:
256,192,71414,1,0,0:0:0:0:
256,192,72351,1,0,0:0:0:0:
256,192,73289,1,8,0:0:0:0:
256,192,74695,1,0,0:0:0:0:
256,192,75164,1,12,0:0:0:0:
256,192,76101,1,0,0:0:0:0:
256,192,77039,1,0,0:0:0:0:
256,192,77742,1,8,0:0:0:0:
256,192,78445,1,8,0:0:0:0:
256,192,78914,1,0,0:0:0:0:
256,192,79851,1,0,0:0:0:0:
256,192,80789,1,8,0:0:0:0:
256,192,82195,1,0,0:0:0:0:
256,192,82664,1,8,0:0:0:0:
256,192,83601,1,8,0:0:0:0:
256,192,84539,1,0,0:0:0:0:
256,192,85242,1,0,0:0:0:0:
256,192,85945,1,8,0:0:0:0:
256,192,86414,1,0,0:0:0:0:
256,192,88054,12,0,89226,0:0:0:0:
256,192,90164,5,12,0:0:0:0:
256,192,91101,1,8,0:0:0:0:
256,192,92039,1,0,0:0:0:0:
256,192,92742,1,8,0:0:0:0:
256,192,93445,1,8,0:0:0:0:
256,192,93914,1,0,0:0:0:0:
256,192,94382,1,0,0:0:0:0:
256,192,94851,1,8,0:0:0:0:
256,192,95789,1,0,0:0:0:0:
256,192,97195,1,0,0:0:0:0:
256,192,97664,1,8,0:0:0:0:
256,192,98132,1,0,0:0:0:0:
256,192,98601,1,8,0:0:0:0:
256,192,99539,1,0,0:0:0:0:
256,192,100242,1,8,0:0:0:0:
256,192,100945,1,0,0:0:0:0:
256,192,101414,1,8,0:0:0:0:
256,192,102351,1,8,0:0:0:0:
256,192,103289,1,0,0:0:0:0:
256,192,104695,1,0,0:0:0:0:
256,192,105164,1,12,0:0:0:0:
256,192,106101,1,0,0:0:0:0:
256,192,107039,1,0,0:0:0:0:
256,192,107742,1,8,0:0:0:0:
256,192,108445,1,8,0:0:0:0:
256,192,108914,1,0,0:0:0:0:
256,192,109382,1,0,0:0:0:0:
256,192,109851,1,0,0:0:0:0:
256,192,110789,1,8,0:0:0:0:
256,192,112195,1,0,0:0:0:0:
256,192,112664,1,8,0:0:0:0:
256,192,113601,1,8,0:0:0:0:
256,192,114539,1,8,0:0:0:0:
256,192,115242,1,0,0:0:0:0:
256,192,115945,1,0,0:0:0:0:
256,192,116414,1,8,0:0:0:0:
256,192,118054,12,0,119695,0:0:0:0:
256,192,120164,5,12,0:0:0:0:
256,192,120867,1,8,0:0:0:0:
256,192,122039,1,8,0:0:0:0:
256,192,122742,1,8,0:0:0:0:
256,192,123914,1,8,0:0:0:0:
256,192,124617,1,8,0:0:0:0:
256,192,125789,1,8,0:0:0:0:
256,192,126492,1,8,0:0:0:0:
256,192,127195,1,0,0:0:0:0:
256,192,127664,1,8,0:0:0:0:
256,192,128367,1,8,0:0:0:0:
256,192,129539,1,8,0:0:0:0:
256,192,130476,1,0,0:0:0:0:
256,192,131414,12,0,134226,0:0:0:0:
256,192,135164,5,4,0:0:0:0:
256,192,136101,1,8,0:0:0:0:
256,192,136570,1,0,0:0:0:0:
256,192,137039,1,0,0:0:0:0:
256,192,138445,1,8,0:0:0:0:
256,192,138914,1,0,0:0:0:0:
256,192,139851,1,0,0:0:0:0:
256,192,140320,1,0,0:0:0:0:
256,192,140789,1,8,0:0:0:0:
256,192,141257,1,8,0:0:0:0:
256,192,141726,1,0,0:0:0:0:
256,192,142664,1,0,0:0:0:0:
256,192,143601,1,0,0:0:0:0:
256,192,144070,1,0,0:0:0:0:
256,192,144539,1,8,0:0:0:0:
256,192,145945,1,8,0:0:0:0:
256,192,146414,1,0,0:0:0:0:
256,192,147351,1,0,0:0:0:0:
256,192,147820,1,8,0:0:0:0:
256,192,148289,1,0,0:0:0:0:
256,184,148757,1,0,0:0:0:0:
256,192,149226,1,8,0:0:0:0:
256,192,150164,1,0,0:0:0:0:
256,192,151101,1,8,0:0:0:0:
256,192,151570,1,8,0:0:0:0:
256,192,152039,1,0,0:0:0:0:
256,192,153445,1,8,0:0:0:0:
256,192,153914,1,0,0:0:0:0:
256,192,154851,1,0,0:0:0:0:
256,192,155320,1,8,0:0:0:0:
256,192,155789,1,8,0:0:0:0:
256,192,156257,1,0,0:0:0:0:
256,192,156726,1,8,0:0:0:0:
256,192,157664,1,0,0:0:0:0:
256,192,158601,1,8,0:0:0:0:
256,192,159070,1,8,0:0:0:0:
256,192,159539,1,0,0:0:0:0:
256,192,160945,1,8,0:0:0:0:
256,192,161414,1,0,0:0:0:0:
256,192,162351,1,8,0:0:0:0:
256,192,162820,1,8,0:0:0:0:
256,192,163289,1,0,0:0:0:0:
256,192,163992,1,0,0:0:0:0:
256,192,164695,1,0,0:0:0:0:
256,192,165164,1,8,0:0:0:0:
256,192,166101,1,8,0:0:0:0:
256,192,166570,1,0,0:0:0:0:
256,192,167039,1,8,0:0:0:0:
256,192,167976,1,0,0:0:0:0:
256,192,168914,1,8,0:0:0:0:
256,192,169851,1,8,0:0:0:0:
256,192,170320,1,0,0:0:0:0:
256,192,170789,1,8,0:0:0:0:
256,192,172664,1,8,0:0:0:0:
256,192,173132,1,8,0:0:0:0:
256,192,173601,1,8,0:0:0:0:
256,192,174539,1,0,0:0:0:0:
256,192,175007,1,0,0:0:0:0:
256,192,175476,1,0,0:0:0:0:
256,192,176414,1,8,0:0:0:0:
256,192,176882,1,8,0:0:0:0:
256,192,177351,1,0,0:0:0:0:
256,192,177820,1,0,0:0:0:0:
256,192,178289,1,8,0:0:0:0:
256,192,179695,5,0,0:0:0:0:
256,192,180164,5,12,0:0:0:0:
256,192,181101,1,8,0:0:0:0:
256,192,182039,1,0,0:0:0:0:
256,192,182742,1,8,0:0:0:0:
256,192,183445,1,8,0:0:0:0:
256,192,183914,1,0,0:0:0:0:
256,192,184851,1,0,0:0:0:0:
256,192,185789,1,8,0:0:0:0:
256,192,187195,1,0,0:0:0:0:
256,192,187664,1,8,0:0:0:0:
256,192,188601,1,8,0:0:0:0:
256,192,189539,1,0,0:0:0:0:
256,192,190242,1,0,0:0:0:0:
256,192,190945,1,8,0:0:0:0:
256,192,191414,1,0,0:0:0:0:
256,192,192351,1,0,0:0:0:0:
256,192,193289,1,8,0:0:0:0:
256,192,194695,1,0,0:0:0:0:
256,192,195164,1,12,0:0:0:0:
256,192,196101,1,0,0:0:0:0:
256,192,197039,1,0,0:0:0:0:
256,192,197742,1,8,0:0:0:0:
256,192,198445,1,8,0:0:0:0:
256,192,198914,1,0,0:0:0:0:
256,192,199851,1,0,0:0:0:0:
256,192,200789,1,8,0:0:0:0:
256,192,202195,1,0,0:0:0:0:
256,192,202664,1,8,0:0:0:0:
256,192,203601,1,8,0:0:0:0:
256,192,204539,1,8,0:0:0:0:
256,192,205242,1,0,0:0:0:0:
256,192,205945,1,8,0:0:0:0:
256,192,206414,1,0,0:0:0:0:
256,192,208054,12,0,209226,0:0:0:0:
256,192,210164,5,12,0:0:0:0:
256,192,211101,1,8,0:0:0:0:
256,192,212039,1,0,0:0:0:0:
256,192,212742,1,8,0:0:0:0:
256,192,213445,1,0,0:0:0:0:
256,192,213914,1,8,0:0:0:0:
256,192,214851,1,8,0:0:0:0:
256,192,215789,1,0,0:0:0:0:
256,192,217195,1,0,0:0:0:0:
256,192,217664,1,8,0:0:0:0:
256,192,218601,1,8,0:0:0:0:
256,192,219539,1,0,0:0:0:0:
256,192,220242,1,8,0:0:0:0:
256,192,220945,1,0,0:0:0:0:
256,192,221414,1,8,0:0:0:0:
256,192,222351,1,8,0:0:0:0:
256,192,223289,1,0,0:0:0:0:
256,192,224695,1,0,0:0:0:0:
256,192,225164,1,12,0:0:0:0:
256,192,226101,1,0,0:0:0:0:
256,192,227039,1,0,0:0:0:0:
256,192,227742,1,8,0:0:0:0:
256,192,228445,1,0,0:0:0:0:
256,192,228914,1,0,0:0:0:0:
256,192,229851,1,0,0:0:0:0:
256,192,230789,1,8,0:0:0:0:
256,192,232195,1,0,0:0:0:0:
256,192,232664,1,8,0:0:0:0:
256,192,233601,1,8,0:0:0:0:
256,192,234539,1,8,0:0:0:0:
256,192,235242,1,0,0:0:0:0:
256,192,235945,1,0,0:0:0:0:
256,192,236414,1,8,0:0:0:0:
256,192,238054,12,0,239226,0:0:0:0:
