osu file format v14

[General]
AudioFilename: audio.mp3
AudioLeadIn: 0
PreviewTime: 89225
Countdown: 0
SampleSet: Normal
StackLeniency: 0.7
Mode: 1
LetterboxInBreaks: 0
WidescreenStoryboard: 1

[Editor]
Bookmarks: 23131,29694,30631,37897,44459,60163,60866,75631,88288,90163,105631,120163,165280,180163,195514,208053,210163,226334,240163
DistanceSpacing: 1
BeatDivisor: 12
GridSize: 8
TimelineZoom: 1

[Metadata]
Title:Disconnected
TitleUnicode:Disconnected
Artist:Pegboard Nerds
ArtistUnicode:Pegboard Nerds
Creator:Jonarwhal
Version:Futsuu
Source:
Tags:jonawaga beaw mpg Alexander Odden Michael Parsberg 007 solace monstercat release electro instrumental electronic dance edm featured artist fa mappers' guild stingy
BeatmapID:3776016
BeatmapSetID:1838730

[Difficulty]
HPDrainRate:7
CircleSize:5
OverallDifficulty:4
ApproachRate:5
SliderMultiplier:1.4
SliderTickRate:1

[Events]
//Background and Video events
0,0,"pexels-la-miko-3615735.jpg",0,0
//Break Periods
//Storyboard Layer 0 (Background)
//Storyboard Layer 1 (Fail)
//Storyboard Layer 2 (Pass)
//Storyboard Layer 3 (Foreground)
//Storyboard Layer 4 (Overlay)
//Storyboard Sound Samples

[TimingPoints]
164,468.75,4,1,0,40,1,0
7644,-100,4,1,0,45,0,0
15144,-100,4,1,0,50,0,0
22644,-100,4,1,0,55,0,0
30144,-100,4,1,0,60,0,0
45144,-100,4,1,0,70,0,0
52644,-100,4,1,0,75,0,0
56394,-100,4,1,0,80,0,0
58269,-100,4,1,0,85,0,0
60164,-100,4,1,0,85,0,1
88054,-100,4,1,0,85,0,0
90164,-100,4,1,0,85,0,1
120046,-100,4,1,0,55,0,1
120164,-100,4,1,0,55,0,0
127664,-100,4,1,0,60,0,0
131296,-100,4,1,0,50,0,0
133171,-100,4,1,0,40,0,0
135046,-100,4,1,0,60,0,0
165105,-100,4,1,0,70,0,0
172605,-100,4,1,0,75,0,0
176355,-100,4,1,0,80,0,0
178230,-100,4,1,0,85,0,0
180164,-100,4,1,0,85,0,1
208054,-100,4,1,0,85,0,0
210164,-100,4,1,0,85,0,1
239226,-100,4,1,0,85,0,0

[HitObjects]
256,192,164,5,0,0:0:0:0:
256,192,632,1,0,0:0:0:0:
256,192,1101,1,0,0:0:0:0:
256,192,2039,1,0,0:0:0:0:
256,192,2742,1,8,0:0:0:0:
256,192,3445,1,8,0:0:0:0:
256,192,3914,1,0,0:0:0:0:
256,192,4382,1,0,0:0:0:0:
256,192,4851,1,0,0:0:0:0:
256,192,5789,1,0,0:0:0:0:
256,192,6492,1,8,0:0:0:0:
256,192,7195,1,8,0:0:0:0:
256,192,7664,1,0,0:0:0:0:
256,192,8132,1,0,0:0:0:0:
256,192,8601,1,0,0:0:0:0:
256,192,9539,1,0,0:0:0:0:
256,192,10242,1,8,0:0:0:0:
256,192,10945,1,8,0:0:0:0:
256,192,11414,1,0,0:0:0:0:
256,192,11882,1,0,0:0:0:0:
256,192,12351,1,0,0:0:0:0:
256,192,13289,12,0,14695,0:0:0:0:
256,192,15164,5,4,0:0:0:0:
256,192,16570,1,0,0:0:0:0:
256,192,16804,1,0,0:0:0:0:
256,192,17273,1,8,0:0:0:0:
256,192,17742,1,8,0:0:0:0:
256,192,18914,1,0,0:0:0:0:
256,192,19851,1,0,0:0:0:0:
256,192,20554,1,0,0:0:0:0:
256,192,21023,1,8,0:0:0:0:
256,192,21257,1,8,0:0:0:0:
256,192,21492,1,0,0:0:0:0:
256,192,22664,1,0,0:0:0:0:
256,192,23601,1,8,0:0:0:0:
256,192,23835,1,0,0:0:0:0:
256,192,24304,1,8,0:0:0:0:
256,192,24773,1,8,0:0:0:0:
256,192,25242,1,0,0:0:0:0:
256,192,25710,1,0,0:0:0:0:
256,192,25945,1,0,0:0:0:0:
256,192,26414,1,8,0:0:0:0:
256,192,27117,1,8,0:0:0:0:
256,192,27585,1,8,0:0:0:0:
256,192,28054,1,0,0:0:0:0:
256,192,28289,1,8,0:0:0:0:
256,192,28757,1,0,0:0:0:0:
256,192,29226,1,8,0:0:0:0:
256,192,30164,1,4,0:0:0:0:
256,192,31101,1,0,0:0:0:0:
256,192,31335,1,0,0:0:0:0:
256,192,32039,1,8,0:0:0:0:
256,192,32507,1,0,0:0:0:0:
256,192,32742,1,8,0:0:0:0:
256,192,33210,1,8,0:0:0:0:
256,192,33445,1,8,0:0:0:0:
256,192,33914,1,0,0:0:0:0:
256,192,34148,1,0,0:0:0:0:
256,192,34851,1,0,0:0:0:0:
256,192,35085,1,0,0:0:0:0:
256,192,35789,1,8,0:0:0:0:
256,192,36140,1,8,0:0:0:0:
256,192,36492,1,0,0:0:0:0:
256,192,37195,1,0,0:0:0:0:
256,192,37664,1,8,0:0:0:0:
256,192,38601,1,8,0:0:0:0:
256,192,38835,1,0,0:0:0:0:
256,192,39304,1,0,0:0:0:0:
256,192,39539,1,8,0:0:0:0:
256,192,40007,1,0,0:0:0:0:
256,192,40242,1,0,0:0:0:0:
256,192,40710,1,0,0:0:0:0:
256,192,40945,1,8,0:0:0:0:
256,192,41179,1,8,0:0:0:0:
256,192,41414,1,0,0:0:0:0:
256,192,42117,1,8,0:0:0:0:
256,192,42585,1,8,0:0:0:0:
256,192,43054,1,0,0:0:0:0:
256,192,43289,1,8,0:0:0:0:
256,192,43757,1,8,0:0:0:0:
256,192,43992,1,0,0:0:0:0:
256,192,44460,1,0,0:0:0:0:
256,192,44929,1,0,0:0:0:0:
256,192,45164,1,8,0:0:0:0:
256,192,46101,1,8,0:0:0:0:
256,192,46453,1,8,0:0:0:0:
256,192,46804,1,0,0:0:0:0:
256,192,47039,1,8,0:0:0:0:
256,192,47742,1,0,0:0:0:0:
256,192,47976,1,8,0:0:0:0:
256,192,48328,1,8,0:0:0:0:
256,192,48679,1,8,0:0:0:0:
256,192,48914,1,0,0:0:0:0:
256,192,49617,1,0,0:0:0:0:
256,192,49851,1,8,0:0:0:0:
256,192,50203,1,0,0:0:0:0:
256,192,50554,1,0,0:0:0:0:
256,192,50789,1,8,0:0:0:0:
256,192,51492,1,8,0:0:0:0:
256,192,51726,1,8,0:0:0:0:
256,192,52078,1,0,0:0:0:0:
256,192,52429,1,0,0:0:0:0:
256,192,52664,1,8,0:0:0:0:
256,192,53132,1,8,0:0:0:0:
256,192,53601,1,8,0:0:0:0:
256,192,54070,1,8,0:0:0:0:
256,192,54539,1,0,0:0:0:0:
256,192,55007,1,0,0:0:0:0:
256,192,55476,1,0,0:0:0:0:
256,192,55945,1,0,0:0:0:0:
256,192,56414,1,8,0:0:0:0:
256,192,56648,1,8,0:0:0:0:
256,192,56882,1,8,0:0:0:0:
256,192,57351,1,8,0:0:0:0:
256,192,57585,5,8,0:0:0:0:
256,192,57820,1,0,0:0:0:0:
256,192,58054,1,0,0:0:0:0:
256,192,58289,2,0,L|341:191,4,70
256,192,59695,1,0,0:0:0:0:
256,192,60164,1,12,0:0:0:0:
256,192,61101,1,8,0:0:0:0:
256,192,61335,1,0,0:0:0:0:
256,192,62039,1,0,0:0:0:0:
256,192,62273,1,0,0:0:0:0:
256,192,62507,1,0,0:0:0:0:
256,192,62742,1,8,0:0:0:0:
256,192,63210,1,0,0:0:0:0:
256,192,63445,1,8,0:0:0:0:
256,192,63679,1,8,0:0:0:0:
256,192,63914,1,0,0:0:0:0:
256,192,64148,1,0,0:0:0:0:
256,192,64851,1,0,0:0:0:0:
256,192,65085,1,0,0:0:0:0:
256,192,65554,1,0,0:0:0:0:
256,192,65789,1,8,0:0:0:0:
256,192,66140,1,8,0:0:0:0:
256,192,66492,1,0,0:0:0:0:
256,192,67195,1,0,0:0:0:0:
256,192,67429,1,0,0:0:0:0:
256,192,67664,1,8,0:0:0:0:
256,192,67898,1,0,0:0:0:0:
256,192,68601,1,8,0:0:0:0:
256,192,68835,1,8,0:0:0:0:
256,192,69304,1,0,0:0:0:0:
256,192,69539,1,8,0:0:0:0:
256,192,69773,1,0,0:0:0:0:
256,192,70007,1,8,0:0:0:0:
256,192,70242,1,8,0:0:0:0:
256,192,70710,1,0,0:0:0:0:
256,192,70945,1,8,0:0:0:0:
256,192,71179,1,8,0:0:0:0:
256,192,71414,1,0,0:0:0:0:
256,192,71648,1,0,0:0:0:0:
256,192,72351,1,8,0:0:0:0:
256,192,72585,1,0,0:0:0:0:
256,192,73054,1,8,0:0:0:0:
256,192,73289,1,8,0:0:0:0:
256,192,73523,1,0,0:0:0:0:
256,192,73757,1,0,0:0:0:0:
256,192,73992,1,8,0:0:0:0:
256,192,74695,1,0,0:0:0:0:
256,192,74929,1,0,0:0:0:0:
256,192,75164,1,12,0:0:0:0:
256,192,76101,1,0,0:0:0:0:
256,192,76335,1,0,0:0:0:0:
256,192,77039,1,8,0:0:0:0:
256,192,77273,1,0,0:0:0:0:
256,192,77507,1,8,0:0:0:0:
256,192,77742,1,8,0:0:0:0:
256,192,78210,1,0,0:0:0:0:
256,192,78445,1,8,0:0:0:0:
256,192,78679,1,8,0:0:0:0:
256,192,78914,1,0,0:0:0:0:
256,192,79148,1,0,0:0:0:0:
256,192,79851,1,0,0:0:0:0:
256,192,80085,1,0,0:0:0:0:
256,192,80554,1,0,0:0:0:0:
256,192,80789,1,8,0:0:0:0:
256,192,81140,1,8,0:0:0:0:
256,192,81492,1,0,0:0:0:0:
256,192,82195,1,0,0:0:0:0:
256,192,82429,1,0,0:0:0:0:
256,192,82664,1,8,0:0:0:0:
256,192,82898,1,8,0:0:0:0:
256,192,83601,1,8,0:0:0:0:
256,192,83835,1,0,0:0:0:0:
256,192,84304,1,0,0:0:0:0:
256,192,84539,1,8,0:0:0:0:
256,192,84773,1,0,0:0:0:0:
256,192,85007,1,8,0:0:0:0:
256,192,85242,1,0,0:0:0:0:
256,192,85710,1,0,0:0:0:0:
256,192,85945,1,8,0:0:0:0:
256,192,86179,1,8,0:0:0:0:
256,192,86414,1,0,0:0:0:0:
256,192,87117,1,8,0:0:0:0:
256,192,87585,1,8,0:0:0:0:
256,192,88054,1,4,0:0:0:0:
256,192,88289,12,0,89226,0:0:0:0:
256,192,90164,5,12,0:0:0:0:
256,192,91101,1,0,0:0:0:0:
256,192,91335,1,0,0:0:0:0:
256,192,92039,1,0,0:0:0:0:
256,192,92273,1,8,0:0:0:0:
256,192,92507,1,0,0:0:0:0:
256,192,92742,1,8,0:0:0:0:
256,192,93210,1,0,0:0:0:0:
256,192,93445,1,8,0:0:0:0:
256,192,93914,1,0,0:0:0:0:
256,192,94148,1,0,0:0:0:0:
256,192,94382,1,8,0:0:0:0:
256,192,94617,1,8,0:0:0:0:
256,192,94851,1,0,0:0:0:0:
256,192,95085,1,0,0:0:0:0:
256,192,95554,1,0,0:0:0:0:
256,192,95789,1,8,0:0:0:0:
256,192,96140,1,8,0:0:0:0:
256,192,96492,1,0,0:0:0:0:
256,192,97195,1,8,0:0:0:0:
256,192,97664,1,8,0:0:0:0:
256,192,97898,1,8,0:0:0:0:
256,192,98132,1,0,0:0:0:0:
256,192,98367,1,0,0:0:0:0:
256,192,98601,1,8,0:0:0:0:
256,192,98835,1,8,0:0:0:0:
256,192,99304,1,0,0:0:0:0:
256,192,99539,1,8,0:0:0:0:
256,192,100007,1,8,0:0:0:0:
256,192,100242,1,8,0:0:0:0:
256,192,100710,1,0,0:0:0:0:
256,192,100945,1,8,0:0:0:0:
256,192,101179,1,8,0:0:0:0:
256,192,101414,1,8,0:0:0:0:
256,192,101648,1,0,0:0:0:0:
256,192,102351,1,8,0:0:0:0:
256,192,102585,1,8,0:0:0:0:
256,192,103054,1,0,0:0:0:0:
256,192,103289,1,8,0:0:0:0:
256,192,103523,1,0,0:0:0:0:
256,192,103757,1,8,0:0:0:0:
256,192,103992,1,8,0:0:0:0:
256,192,104695,1,0,0:0:0:0:
256,192,104929,1,0,0:0:0:0:
256,192,105164,1,12,0:0:0:0:
256,192,106101,1,8,0:0:0:0:
256,192,106335,1,0,0:0:0:0:
256,192,107039,1,8,0:0:0:0:
256,192,107273,1,0,0:0:0:0:
256,192,107507,1,8,0:0:0:0:
256,192,107742,1,8,0:0:0:0:
256,192,108210,1,0,0:0:0:0:
256,192,108445,1,8,0:0:0:0:
256,192,108914,1,0,0:0:0:0:
256,192,109148,1,0,0:0:0:0:
256,192,109382,1,8,0:0:0:0:
256,192,109617,1,8,0:0:0:0:
256,192,109851,1,0,0:0:0:0:
256,192,110085,1,0,0:0:0:0:
256,192,110554,1,0,0:0:0:0:
256,192,110789,1,8,0:0:0:0:
256,192,111140,1,8,0:0:0:0:
256,192,111492,1,0,0:0:0:0:
256,192,112195,1,0,0:0:0:0:
256,192,112664,1,8,0:0:0:0:
256,192,112898,1,0,0:0:0:0:
256,192,113601,1,8,0:0:0:0:
256,192,113835,1,8,0:0:0:0:
256,192,114304,1,0,0:0:0:0:
256,192,114539,1,8,0:0:0:0:
256,192,114773,1,0,0:0:0:0:
256,192,115007,1,8,0:0:0:0:
256,192,115242,1,0,0:0:0:0:
256,192,115710,1,0,0:0:0:0:
256,192,115945,1,0,0:0:0:0:
256,192,116179,1,0,0:0:0:0:
256,192,116414,1,8,0:0:0:0:
256,192,117117,1,0,0:0:0:0:
256,192,117585,1,8,0:0:0:0:
256,192,118054,1,4,0:0:0:0:
256,192,118289,12,0,119695,0:0:0:0:
256,192,120164,5,12,0:0:0:0:
256,192,120867,1,8,0:0:0:0:
256,192,122039,1,8,0:0:0:0:
256,192,122742,1,8,0:0:0:0:
256,192,123914,1,8,0:0:0:0:
256,192,124617,1,8,0:0:0:0:
256,192,125789,1,8,0:0:0:0:
256,192,126492,1,8,0:0:0:0:
256,192,127664,1,0,0:0:0:0:
256,192,128132,1,0,0:0:0:0:
256,192,128601,1,8,0:0:0:0:
256,192,129539,1,0,0:0:0:0:
256,192,130007,1,0,0:0:0:0:
256,192,130476,1,8,0:0:0:0:
256,192,130710,1,8,0:0:0:0:
256,192,130945,1,8,0:0:0:0:
256,192,131414,1,0,0:0:0:0:
256,192,131882,1,0,0:0:0:0:
256,192,132351,1,8,0:0:0:0:
256,192,132820,1,0,0:0:0:0:
256,192,133289,1,8,0:0:0:0:
256,192,133757,1,8,0:0:0:0:
256,192,134226,1,0,0:0:0:0:
256,192,135164,1,4,0:0:0:0:
256,192,136101,1,8,0:0:0:0:
256,192,136335,1,8,0:0:0:0:
256,192,136570,1,0,0:0:0:0:
256,192,137039,1,8,0:0:0:0:
256,192,137507,1,0,0:0:0:0:
256,192,137976,1,8,0:0:0:0:
256,192,138210,1,8,0:0:0:0:
256,192,138445,1,8,0:0:0:0:
256,192,138914,1,0,0:0:0:0:
256,192,139851,1,0,0:0:0:0:
256,192,140085,1,0,0:0:0:0:
256,192,140320,1,8,0:0:0:0:
256,192,140789,1,0,0:0:0:0:
256,192,141257,1,0,0:0:0:0:
256,192,141726,1,8,0:0:0:0:
256,192,141960,1,0,0:0:0:0:
256,192,142195,1,8,0:0:0:0:
256,192,142664,1,0,0:0:0:0:
256,192,143601,1,8,0:0:0:0:
256,192,143835,1,8,0:0:0:0:
256,192,144070,1,8,0:0:0:0:
256,192,144539,1,0,0:0:0:0:
256,192,145007,1,0,0:0:0:0:
256,192,145476,1,8,0:0:0:0:
256,192,145710,1,0,0:0:0:0:
256,192,145945,1,8,0:0:0:0:
256,192,146414,1,0,0:0:0:0:
256,192,147351,1,0,0:0:0:0:
256,192,147585,1,0,0:0:0:0:
256,192,147820,1,8,0:0:0:0:
256,192,148054,1,8,0:0:0:0:
256,192,148289,1,0,0:0:0:0:
256,192,148757,1,0,0:0:0:0:
256,192,148992,1,0,0:0:0:0:
256,192,149226,1,8,0:0:0:0:
256,192,149695,1,8,0:0:0:0:
256,192,150164,1,0,0:0:0:0:
256,192,151101,1,8,0:0:0:0:
256,192,151335,1,8,0:0:0:0:
256,192,151570,1,8,0:0:0:0:
256,192,152039,1,0,0:0:0:0:
256,192,152507,1,0,0:0:0:0:
256,192,152976,1,0,0:0:0:0:
256,192,153210,1,0,0:0:0:0:
256,192,153445,1,8,0:0:0:0:
256,192,153914,1,0,0:0:0:0:
256,192,154851,1,0,0:0:0:0:
256,192,155085,1,0,0:0:0:0:
256,192,155320,1,8,0:0:0:0:
256,192,155789,1,8,0:0:0:0:
256,192,156257,1,0,0:0:0:0:
256,192,156492,1,0,0:0:0:0:
256,192,156726,1,8,0:0:0:0:
256,192,157195,1,8,0:0:0:0:
256,192,157664,1,0,0:0:0:0:
256,192,158601,1,8,0:0:0:0:
256,192,158835,1,8,0:0:0:0:
256,192,159070,1,8,0:0:0:0:
256,192,159539,1,0,0:0:0:0:
256,192,160007,1,0,0:0:0:0:
256,192,160476,1,0,0:0:0:0:
256,192,160710,1,0,0:0:0:0:
256,192,160945,1,8,0:0:0:0:
256,192,161414,1,0,0:0:0:0:
256,192,162351,1,8,0:0:0:0:
256,192,162585,1,0,0:0:0:0:
256,192,162820,1,8,0:0:0:0:
256,192,163289,1,0,0:0:0:0:
256,192,163523,1,0,0:0:0:0:
256,192,163992,1,8,0:0:0:0:
256,192,164226,1,0,0:0:0:0:
256,192,164695,1,0,0:0:0:0:
256,192,165164,1,8,0:0:0:0:
256,192,166101,1,8,0:0:0:0:
256,192,166453,1,8,0:0:0:0:
256,192,166804,1,0,0:0:0:0:
256,192,167039,1,8,0:0:0:0:
256,192,167742,1,8,0:0:0:0:
256,192,167976,1,8,0:0:0:0:
256,192,168328,1,0,0:0:0:0:
256,192,168679,1,0,0:0:0:0:
256,192,168914,1,8,0:0:0:0:
256,192,169617,1,0,0:0:0:0:
256,192,169851,1,8,0:0:0:0:
256,192,170203,1,8,0:0:0:0:
256,192,170554,1,0,0:0:0:0:
256,192,170789,1,8,0:0:0:0:
256,192,171492,1,0,0:0:0:0:
256,192,171726,1,8,0:0:0:0:
256,192,172078,1,0,0:0:0:0:
256,192,172429,1,0,0:0:0:0:
256,192,172664,1,8,0:0:0:0:
256,192,173132,1,8,0:0:0:0:
256,192,173601,1,8,0:0:0:0:
256,192,174070,1,8,0:0:0:0:
256,192,174539,1,0,0:0:0:0:
256,192,175007,1,0,0:0:0:0:
256,192,175476,1,0,0:0:0:0:
256,192,175945,1,0,0:0:0:0:
256,192,176414,1,8,0:0:0:0:
256,192,176648,1,8,0:0:0:0:
256,192,176882,1,8,0:0:0:0:
256,192,177351,1,8,0:0:0:0:
256,192,177585,1,8,0:0:0:0:
256,192,177820,1,0,0:0:0:0:
256,192,178054,1,0,0:0:0:0:
256,192,178289,1,8,0:0:0:0:
256,192,178757,1,8,0:0:0:0:
256,192,179226,1,0,0:0:0:0:
256,192,179695,1,0,0:0:0:0:
256,192,180164,1,12,0:0:0:0:
256,192,181101,1,8,0:0:0:0:
256,192,181335,1,0,0:0:0:0:
256,192,182039,1,8,0:0:0:0:
256,192,182273,1,8,0:0:0:0:
256,192,182507,1,0,0:0:0:0:
256,192,182742,1,8,0:0:0:0:
256,192,183210,1,0,0:0:0:0:
256,192,183445,1,8,0:0:0:0:
256,192,183679,1,8,0:0:0:0:
256,192,183914,1,0,0:0:0:0:
256,192,184148,1,0,0:0:0:0:
256,192,184851,1,0,0:0:0:0:
256,192,185085,1,0,0:0:0:0:
256,192,185554,1,0,0:0:0:0:
256,192,185789,1,8,0:0:0:0:
256,192,186140,1,8,0:0:0:0:
256,192,186492,1,0,0:0:0:0:
256,192,187195,1,0,0:0:0:0:
256,192,187429,1,0,0:0:0:0:
256,192,187664,1,8,0:0:0:0:
256,192,187898,1,0,0:0:0:0:
256,192,188601,1,8,0:0:0:0:
256,192,188835,1,8,0:0:0:0:
256,192,189304,1,0,0:0:0:0:
256,192,189539,1,8,0:0:0:0:
256,192,189773,1,0,0:0:0:0:
256,192,190007,1,8,0:0:0:0:
256,192,190242,1,8,0:0:0:0:
256,192,190710,1,0,0:0:0:0:
256,192,190945,1,8,0:0:0:0:
256,192,191179,1,8,0:0:0:0:
256,192,191414,1,0,0:0:0:0:
256,192,191648,1,0,0:0:0:0:
256,192,192351,1,0,0:0:0:0:
256,192,192585,1,0,0:0:0:0:
256,192,193054,1,8,0:0:0:0:
256,192,193289,1,8,0:0:0:0:
256,192,193523,1,0,0:0:0:0:
256,192,193757,1,0,0:0:0:0:
256,192,193992,1,8,0:0:0:0:
256,192,194695,1,0,0:0:0:0:
256,192,194929,1,0,0:0:0:0:
256,192,195164,1,12,0:0:0:0:
256,192,196101,1,8,0:0:0:0:
256,192,196335,1,0,0:0:0:0:
256,192,197039,1,8,0:0:0:0:
256,192,197273,1,0,0:0:0:0:
256,192,197507,1,8,0:0:0:0:
256,192,197742,1,8,0:0:0:0:
256,192,198210,1,0,0:0:0:0:
256,192,198445,1,8,0:0:0:0:
256,192,198679,1,8,0:0:0:0:
256,192,198914,1,0,0:0:0:0:
256,192,199148,1,0,0:0:0:0:
256,192,199851,1,8,0:0:0:0:
256,192,200085,1,0,0:0:0:0:
256,192,200554,1,0,0:0:0:0:
256,192,200789,1,8,0:0:0:0:
256,192,201140,1,8,0:0:0:0:
256,192,201492,1,0,0:0:0:0:
256,192,202195,1,0,0:0:0:0:
256,192,202429,1,0,0:0:0:0:
256,192,202664,1,8,0:0:0:0:
256,192,202898,1,8,0:0:0:0:
256,192,203601,1,8,0:0:0:0:
256,192,203835,1,0,0:0:0:0:
256,192,204304,1,0,0:0:0:0:
256,192,204539,1,8,0:0:0:0:
256,192,204773,1,0,0:0:0:0:
256,192,205007,1,0,0:0:0:0:
256,192,205242,1,0,0:0:0:0:
256,192,205710,1,0,0:0:0:0:
256,192,205945,1,8,0:0:0:0:
256,192,206179,1,8,0:0:0:0:
256,192,206414,1,0,0:0:0:0:
256,192,207117,1,8,0:0:0:0:
256,192,207585,1,8,0:0:0:0:
256,192,208054,1,4,0:0:0:0:
256,192,208289,12,0,209226,0:0:0:0:
256,192,210164,5,12,0:0:0:0:
256,192,211101,1,8,0:0:0:0:
256,192,211335,1,8,0:0:0:0:
264,192,211804,1,8,0:0:0:0:
256,192,212039,1,0,0:0:0:0:
256,192,212273,1,0,0:0:0:0:
256,192,212507,1,0,0:0:0:0:
256,192,212742,1,8,0:0:0:0:
256,192,213210,1,0,0:0:0:0:
256,192,213445,1,8,0:0:0:0:
256,192,213914,1,0,0:0:0:0:
256,192,214148,1,0,0:0:0:0:
256,192,214851,1,8,0:0:0:0:
256,192,215085,1,0,0:0:0:0:
256,192,215554,1,0,0:0:0:0:
256,192,215789,1,8,0:0:0:0:
256,192,216140,1,8,0:0:0:0:
256,192,216492,1,8,0:0:0:0:
256,200,217195,1,0,0:0:0:0:
256,200,217429,1,0,0:0:0:0:
256,200,217664,1,8,0:0:0:0:
256,200,217898,1,0,0:0:0:0:
256,200,218601,1,0,0:0:0:0:
256,200,218835,1,8,0:0:0:0:
256,200,219304,1,8,0:0:0:0:
256,200,219539,1,8,0:0:0:0:
256,200,219773,1,0,0:0:0:0:
256,200,220007,1,0,0:0:0:0:
256,200,220242,1,8,0:0:0:0:
256,200,220710,1,0,0:0:0:0:
256,200,220945,1,8,0:0:0:0:
256,200,221179,1,8,0:0:0:0:
256,200,221414,1,0,0:0:0:0:
256,200,221648,1,0,0:0:0:0:
256,200,222351,1,8,0:0:0:0:
256,200,222585,1,0,0:0:0:0:
256,200,223054,5,8,0:0:0:0:
256,200,223289,1,8,0:0:0:0:
256,200,223523,1,0,0:0:0:0:
256,200,223757,1,8,0:0:0:0:
256,200,223992,1,8,0:0:0:0:
256,200,224695,1,0,0:0:0:0:
256,200,224929,1,0,0:0:0:0:
256,192,225164,5,12,0:0:0:0:
256,192,226101,1,8,0:0:0:0:
256,192,226335,1,8,0:0:0:0:
264,192,226804,1,0,0:0:0:0:
256,192,227039,1,8,0:0:0:0:
256,192,227273,1,0,0:0:0:0:
256,192,227507,1,8,0:0:0:0:
256,192,227742,1,8,0:0:0:0:
256,192,228210,1,0,0:0:0:0:
256,192,228445,1,8,0:0:0:0:
256,192,228914,1,0,0:0:0:0:
256,192,229148,1,0,0:0:0:0:
256,192,229851,1,8,0:0:0:0:
256,192,230085,1,0,0:0:0:0:
256,192,230554,1,0,0:0:0:0:
256,192,230789,1,8,0:0:0:0:
256,192,231140,1,8,0:0:0:0:
256,192,231492,1,0,0:0:0:0:
256,200,232195,1,0,0:0:0:0:
256,200,232429,1,0,0:0:0:0:
256,200,232664,1,8,0:0:0:0:
256,200,232898,1,0,0:0:0:0:
256,200,233601,1,8,0:0:0:0:
256,200,233835,1,8,0:0:0:0:
256,200,234304,1,0,0:0:0:0:
256,200,234539,1,8,0:0:0:0:
256,200,234773,1,0,0:0:0:0:
256,200,235007,1,8,0:0:0:0:
256,200,235242,1,0,0:0:0:0:
256,200,235710,1,0,0:0:0:0:
256,200,235945,1,8,0:0:0:0:
256,200,236179,1,8,0:0:0:0:
256,200,236414,1,0,0:0:0:0:
256,200,237117,1,8,0:0:0:0:
256,200,237585,1,8,0:0:0:0:
256,200,238054,1,4,0:0:0:0:
256,192,238289,12,0,239226,0:0:0:0:
