osu file format v14

[General]
AudioFilename: Pegboard Nerds - Disconnected.mp3
AudioLeadIn: 0
PreviewTime: 180916
Countdown: 0
SampleSet: Soft
StackLeniency: 0.7
Mode: 3
LetterboxInBreaks: 0
SpecialStyle: 0
WidescreenStoryboard: 0

[Editor]
DistanceSpacing: 0.8
BeatDivisor: 8
GridSize: 8
TimelineZoom: 1.999999

[Metadata]
Title:Disconnected
TitleUnicode:Disconnected
Artist:Pegboard Nerds
ArtistUnicode:Pegboard Nerds
Creator:Identikit
Version:Hard
Source:
Tags:FA Featured Artist Instrumental Electronic Monstercat 007 Solace Michael Parsberg Alexander Odden
BeatmapID:484164
BeatmapSetID:205045

[Difficulty]
HPDrainRate:7.7
CircleSize:7
OverallDifficulty:8
ApproachRate:5
SliderMultiplier:1.4
SliderTickRate:1

[Events]
//Background and Video events
0,0,"000b.png",0,0
//Break Periods
//Storyboard Layer 0 (Background)
//Storyboard Layer 1 (Fail)
//Storyboard Layer 2 (Pass)
//Storyboard Layer 3 (Foreground)
//Storyboard Layer 4 (Overlay)
//Storyboard Sound Samples

[TimingPoints]
916,468.75,4,2,0,15,1,0
210916,-100,4,2,0,15,0,1
240916,-100,4,2,0,15,0,0

[HitObjects]
256,192,916,5,0,0:0:0:0:
256,192,1150,1,0,0:0:0:0:
256,192,1384,1,0,0:0:0:0:
109,192,1853,1,0,0:0:0:0:
329,192,1853,1,0,0:0:0:0:
402,192,2087,1,0,0:0:0:0:
109,192,2322,1,0,0:0:0:0:
402,192,2556,1,0,0:0:0:0:
36,192,2791,1,0,0:0:0:0:
36,192,3025,1,0,0:0:0:0:
36,192,3259,1,0,0:0:0:0:
475,192,3494,1,0,0:0:0:0:
36,192,3728,1,0,0:0:0:0:
475,192,3962,1,0,0:0:0:0:
475,192,4197,1,0,0:0:0:0:
475,192,4431,1,0,0:0:0:0:
182,192,4666,1,0,0:0:0:0:
329,192,4666,1,0,0:0:0:0:
109,192,4900,1,0,0:0:0:0:
402,192,5134,1,0,0:0:0:0:
109,192,5603,1,0,0:0:0:0:
402,192,5603,1,0,0:0:0:0:
182,192,5837,1,0,0:0:0:0:
329,192,6072,1,0,0:0:0:0:
182,192,6306,1,0,0:0:0:0:
256,192,6541,1,0,0:0:0:0:
402,192,6775,1,0,0:0:0:0:
402,192,7009,1,0,0:0:0:0:
256,192,7244,1,0,0:0:0:0:
475,192,7478,1,0,0:0:0:0:
36,192,7478,1,0,0:0:0:0:
182,192,7712,1,0,0:0:0:0:
36,192,7947,1,0,0:0:0:0:
109,192,8181,1,0,0:0:0:0:
182,192,8416,1,0,0:0:0:0:
329,192,8416,1,0,0:0:0:0:
329,192,8650,1,0,0:0:0:0:
329,192,8884,1,0,0:0:0:0:
182,192,9353,1,0,0:0:0:0:
329,192,9353,1,0,0:0:0:0:
182,192,9587,1,0,0:0:0:0:
182,192,9822,1,0,0:0:0:0:
182,192,10056,1,0,0:0:0:0:
475,192,10291,1,0,0:0:0:0:
475,192,10525,1,0,0:0:0:0:
475,192,10759,1,0,0:0:0:0:
36,192,10994,1,0,0:0:0:0:
256,192,11228,1,0,0:0:0:0:
109,192,11462,1,0,0:0:0:0:
402,192,11697,1,0,0:0:0:0:
109,192,11931,1,0,0:0:0:0:
256,192,12166,1,0,0:0:0:0:
182,192,12400,1,0,0:0:0:0:
329,192,12634,1,0,0:0:0:0:
182,192,12869,1,0,0:0:0:0:
402,192,13103,1,0,0:0:0:0:
36,192,13337,1,0,0:0:0:0:
36,192,13572,1,0,0:0:0:0:
36,192,13806,1,0,0:0:0:0:
256,192,13806,1,0,0:0:0:0:
109,192,14041,1,0,0:0:0:0:
329,192,14041,128,0,14509:0:0:0:0:
475,192,14041,128,0,15916:0:0:0:0:
182,192,14509,128,0,15916:0:0:0:0:
36,192,15916,1,0,0:0:0:0:
329,192,16150,1,0,0:0:0:0:
36,192,16384,1,0,0:0:0:0:
475,192,16619,1,0,0:0:0:0:
256,192,16853,1,0,0:0:0:0:
182,192,17322,1,0,0:0:0:0:
329,192,17322,1,0,0:0:0:0:
182,192,17556,1,0,0:0:0:0:
329,192,17556,1,0,0:0:0:0:
36,192,17791,1,0,0:0:0:0:
256,192,18025,1,0,0:0:0:0:
402,192,18025,1,0,0:0:0:0:
329,192,18494,1,0,0:0:0:0:
475,192,18494,1,0,0:0:0:0:
182,192,18728,1,0,0:0:0:0:
402,192,18962,1,0,0:0:0:0:
402,192,19197,1,0,0:0:0:0:
402,192,19431,1,0,0:0:0:0:
36,192,19666,1,0,0:0:0:0:
182,192,19666,1,0,0:0:0:0:
182,192,19900,1,0,0:0:0:0:
182,192,20134,1,0,0:0:0:0:
109,192,20603,1,0,0:0:0:0:
402,192,20603,1,0,0:0:0:0:
109,192,20837,1,0,0:0:0:0:
402,192,20837,1,0,0:0:0:0:
109,192,21306,1,0,0:0:0:0:
402,192,21306,1,0,0:0:0:0:
475,192,21775,1,0,0:0:0:0:
256,192,21775,1,0,0:0:0:0:
402,192,22244,1,0,0:0:0:0:
182,192,22244,1,0,0:0:0:0:
475,192,22478,1,0,0:0:0:0:
36,192,22712,1,0,0:0:0:0:
182,192,22947,1,0,0:0:0:0:
256,192,23181,1,0,0:0:0:0:
329,192,23416,1,0,0:0:0:0:
475,192,23416,1,0,0:0:0:0:
109,192,23650,1,0,0:0:0:0:
109,192,23884,1,0,0:0:0:0:
182,192,24353,1,0,0:0:0:0:
36,192,24353,1,0,0:0:0:0:
182,192,24587,1,0,0:0:0:0:
36,192,24587,1,0,0:0:0:0:
109,192,25056,1,0,0:0:0:0:
256,192,25056,1,0,0:0:0:0:
182,192,25525,1,0,0:0:0:0:
329,192,25525,1,0,0:0:0:0:
256,192,25994,1,0,0:0:0:0:
402,192,25994,1,0,0:0:0:0:
36,192,26228,1,0,0:0:0:0:
475,192,26462,1,0,0:0:0:0:
329,192,26462,1,0,0:0:0:0:
182,192,26697,1,0,0:0:0:0:
36,192,26697,1,0,0:0:0:0:
475,192,26931,1,0,0:0:0:0:
256,192,26931,1,0,0:0:0:0:
109,192,27166,1,0,0:0:0:0:
402,192,27166,1,0,0:0:0:0:
329,192,27400,1,0,0:0:0:0:
256,192,27634,1,0,0:0:0:0:
109,192,27869,1,0,0:0:0:0:
475,192,28103,1,0,0:0:0:0:
36,192,28103,128,0,30916:0:0:0:0:
256,192,28337,1,0,0:0:0:0:
402,192,28806,1,0,0:0:0:0:
182,192,28806,1,0,0:0:0:0:
109,192,29041,1,0,0:0:0:0:
256,192,29041,128,0,30916:0:0:0:0:
475,192,29978,1,0,0:0:0:0:
182,192,29978,1,0,0:0:0:0:
402,192,29978,128,0,30916:0:0:0:0:
109,192,30916,1,0,0:0:0:0:
475,192,30916,1,0,0:0:0:0:
109,192,31150,1,0,0:0:0:0:
475,192,31150,1,0,0:0:0:0:
109,192,31853,1,0,0:0:0:0:
402,192,31853,1,0,0:0:0:0:
109,192,32087,1,0,0:0:0:0:
402,192,32087,1,0,0:0:0:0:
36,192,32791,1,0,0:0:0:0:
329,192,32791,1,0,0:0:0:0:
329,192,33025,1,0,0:0:0:0:
36,192,33025,1,0,0:0:0:0:
36,192,33259,1,0,0:0:0:0:
329,192,33259,1,0,0:0:0:0:
109,192,33494,128,0,33845:0:0:0:0:
475,192,33494,128,0,33845:0:0:0:0:
182,192,33962,1,0,0:0:0:0:
402,192,33962,1,0,0:0:0:0:
182,192,34197,1,0,0:0:0:0:
402,192,34197,128,0,34314:0:0:0:0:
329,192,34314,128,0,34431:0:0:0:0:
256,192,34431,128,0,34548:0:0:0:0:
182,192,34548,128,0,34666:0:0:0:0:
402,192,34666,1,0,0:0:0:0:
475,192,34666,1,0,0:0:0:0:
402,192,34900,1,0,0:0:0:0:
475,192,34900,1,0,0:0:0:0:
109,192,35603,1,0,0:0:0:0:
36,192,35603,1,0,0:0:0:0:
109,192,35837,1,0,0:0:0:0:
36,192,35837,1,0,0:0:0:0:
109,192,36306,128,0,36541:0:0:0:0:
256,192,36541,128,0,36892:0:0:0:0:
475,192,36892,128,0,37244:0:0:0:0:
329,192,37244,128,0,37830:0:0:0:0:
109,192,37947,1,0,0:0:0:0:
402,192,37947,1,0,0:0:0:0:
36,192,38181,1,0,0:0:0:0:
475,192,38181,1,0,0:0:0:0:
182,192,38416,1,0,0:0:0:0:
329,192,38416,1,0,0:0:0:0:
182,192,38650,1,0,0:0:0:0:
329,192,38650,1,0,0:0:0:0:
402,192,39353,1,0,0:0:0:0:
329,192,39353,1,0,0:0:0:0:
109,192,39587,1,0,0:0:0:0:
182,192,39587,1,0,0:0:0:0:
475,192,40056,128,0,40291:0:0:0:0:
329,192,40291,128,0,40525:0:0:0:0:
182,192,40525,128,0,40759:0:0:0:0:
109,192,40759,128,0,40994:0:0:0:0:
36,192,40994,128,0,41345:0:0:0:0:
109,192,41462,1,0,0:0:0:0:
329,192,41462,1,0,0:0:0:0:
109,192,41697,1,0,0:0:0:0:
329,192,41697,128,0,41931:0:0:0:0:
402,192,41814,128,0,41931:0:0:0:0:
475,192,41931,128,0,42166:0:0:0:0:
402,192,42048,128,0,42166:0:0:0:0:
329,192,42166,128,0,42751:0:0:0:0:
256,192,42869,128,0,43337:0:0:0:0:
475,192,43337,128,0,43806:0:0:0:0:
329,192,43806,128,0,45916:0:0:0:0:
109,192,44041,128,0,44509:0:0:0:0:
36,192,44041,128,0,45916:0:0:0:0:
402,192,44509,128,0,45916:0:0:0:0:
109,192,45916,1,0,0:0:0:0:
256,192,45916,1,0,0:0:0:0:
182,192,46033,1,0,0:0:0:0:
109,192,46619,1,0,0:0:0:0:
402,192,46619,1,0,0:0:0:0:
109,192,46853,1,0,0:0:0:0:
402,192,46853,1,0,0:0:0:0:
109,192,47205,1,0,0:0:0:0:
402,192,47205,1,0,0:0:0:0:
109,192,47556,1,0,0:0:0:0:
402,192,47556,1,0,0:0:0:0:
109,192,47791,1,0,0:0:0:0:
402,192,47791,1,0,0:0:0:0:
256,192,47908,1,0,0:0:0:0:
475,192,48494,1,0,0:0:0:0:
256,192,48494,1,0,0:0:0:0:
329,192,48728,1,0,0:0:0:0:
109,192,48728,1,0,0:0:0:0:
182,192,49080,1,0,0:0:0:0:
402,192,49080,1,0,0:0:0:0:
36,192,49431,1,0,0:0:0:0:
256,192,49431,1,0,0:0:0:0:
182,192,49666,1,0,0:0:0:0:
256,192,49666,1,0,0:0:0:0:
329,192,49783,1,0,0:0:0:0:
475,192,50369,1,0,0:0:0:0:
402,192,50369,1,0,0:0:0:0:
329,192,50603,1,0,0:0:0:0:
256,192,50603,1,0,0:0:0:0:
182,192,50955,1,0,0:0:0:0:
109,192,50955,1,0,0:0:0:0:
36,192,51306,1,0,0:0:0:0:
475,192,51306,1,0,0:0:0:0:
109,192,51541,1,0,0:0:0:0:
182,192,51541,1,0,0:0:0:0:
256,192,51658,1,0,0:0:0:0:
402,192,52244,1,0,0:0:0:0:
109,192,52244,1,0,0:0:0:0:
475,192,52478,1,0,0:0:0:0:
182,192,52478,1,0,0:0:0:0:
329,192,52830,1,0,0:0:0:0:
36,192,52830,1,0,0:0:0:0:
256,192,53181,1,0,0:0:0:0:
109,192,53416,128,0,53884:0:0:0:0:
402,192,53416,128,0,53884:0:0:0:0:
256,192,53650,1,0,0:0:0:0:
329,192,53884,128,0,54353:0:0:0:0:
182,192,53884,128,0,54353:0:0:0:0:
256,192,54119,1,0,0:0:0:0:
36,192,54353,128,0,54822:0:0:0:0:
475,192,54353,128,0,54822:0:0:0:0:
256,192,54587,1,0,0:0:0:0:
182,192,54822,1,0,0:0:0:0:
329,192,54822,128,0,55291:0:0:0:0:
256,192,55056,1,0,0:0:0:0:
36,192,55291,1,0,0:0:0:0:
182,192,55291,128,0,55759:0:0:0:0:
109,192,55525,1,0,0:0:0:0:
36,192,55759,1,0,0:0:0:0:
256,192,55759,128,0,56228:0:0:0:0:
182,192,55994,1,0,0:0:0:0:
109,192,56228,1,0,0:0:0:0:
329,192,56228,128,0,56697:0:0:0:0:
256,192,56462,1,0,0:0:0:0:
402,192,56697,1,0,0:0:0:0:
182,192,56697,128,0,57166:0:0:0:0:
329,192,56931,1,0,0:0:0:0:
256,192,57166,1,0,0:0:0:0:
475,192,57166,1,0,0:0:0:0:
182,192,57400,1,0,0:0:0:0:
402,192,57400,1,0,0:0:0:0:
109,192,57634,1,0,0:0:0:0:
329,192,57634,1,0,0:0:0:0:
36,192,57869,1,0,0:0:0:0:
256,192,57869,1,0,0:0:0:0:
109,192,58103,1,0,0:0:0:0:
402,192,58103,1,0,0:0:0:0:
109,192,58337,1,0,0:0:0:0:
402,192,58337,1,0,0:0:0:0:
109,192,58572,1,0,0:0:0:0:
402,192,58572,1,0,0:0:0:0:
109,192,58806,1,0,0:0:0:0:
402,192,58806,1,0,0:0:0:0:
36,192,59041,1,0,0:0:0:0:
182,192,59041,1,0,0:0:0:0:
329,192,59158,1,0,0:0:0:0:
475,192,59158,1,0,0:0:0:0:
36,192,59275,1,0,0:0:0:0:
182,192,59275,1,0,0:0:0:0:
329,192,59392,1,0,0:0:0:0:
475,192,59392,1,0,0:0:0:0:
109,192,59509,1,0,0:0:0:0:
256,192,59509,1,0,0:0:0:0:
329,192,59626,1,0,0:0:0:0:
475,192,59626,1,0,0:0:0:0:
182,192,59744,1,0,0:0:0:0:
402,192,59744,1,0,0:0:0:0:
256,192,59861,1,0,0:0:0:0:
36,192,59861,1,0,0:0:0:0:
109,192,59978,128,0,60447:0:0:0:0:
402,192,59978,128,0,60447:0:0:0:0:
36,192,60447,1,0,0:0:0:0:
475,192,60447,1,0,0:0:0:0:
256,192,60681,128,0,60916:0:0:0:0:
36,192,60916,1,0,0:0:0:0:
475,192,60916,1,0,0:0:0:0:
329,192,61150,1,0,0:0:0:0:
109,192,61150,1,0,0:0:0:0:
402,192,61384,1,0,0:0:0:0:
182,192,61384,1,0,0:0:0:0:
182,192,61853,1,0,0:0:0:0:
329,192,61853,1,0,0:0:0:0:
182,192,62087,1,0,0:0:0:0:
329,192,62087,1,0,0:0:0:0:
402,192,62322,1,0,0:0:0:0:
36,192,62322,1,0,0:0:0:0:
109,192,62791,1,0,0:0:0:0:
256,192,62791,1,0,0:0:0:0:
109,192,63025,1,0,0:0:0:0:
256,192,63025,1,0,0:0:0:0:
109,192,63259,1,0,0:0:0:0:
256,192,63259,1,0,0:0:0:0:
475,192,63494,1,0,0:0:0:0:
329,192,63494,1,0,0:0:0:0:
475,192,63962,1,0,0:0:0:0:
329,192,63962,1,0,0:0:0:0:
402,192,64197,1,0,0:0:0:0:
182,192,64197,1,0,0:0:0:0:
256,192,64314,1,0,0:0:0:0:
329,192,64431,1,0,0:0:0:0:
36,192,64548,1,0,0:0:0:0:
109,192,64666,1,0,0:0:0:0:
329,192,64666,1,0,0:0:0:0:
329,192,64900,1,0,0:0:0:0:
109,192,64900,1,0,0:0:0:0:
475,192,65134,1,0,0:0:0:0:
36,192,65134,1,0,0:0:0:0:
329,192,65603,1,0,0:0:0:0:
109,192,65603,1,0,0:0:0:0:
109,192,65837,1,0,0:0:0:0:
329,192,65837,1,0,0:0:0:0:
402,192,66072,1,0,0:0:0:0:
36,192,66072,1,0,0:0:0:0:
182,192,66306,1,0,0:0:0:0:
256,192,66306,1,0,0:0:0:0:
402,192,66541,128,0,66892:0:0:0:0:
475,192,66892,128,0,67947:0:0:0:0:
402,192,67244,128,0,67947:0:0:0:0:
36,192,67947,1,0,0:0:0:0:
329,192,68181,1,0,0:0:0:0:
109,192,68416,1,0,0:0:0:0:
402,192,68416,1,0,0:0:0:0:
109,192,68650,128,0,68884:0:0:0:0:
402,192,68650,128,0,68884:0:0:0:0:
402,192,69353,1,0,0:0:0:0:
109,192,69353,1,0,0:0:0:0:
109,192,69587,128,0,69822:0:0:0:0:
402,192,69587,128,0,69822:0:0:0:0:
402,192,70056,1,0,0:0:0:0:
109,192,70056,1,0,0:0:0:0:
475,192,70291,1,0,0:0:0:0:
182,192,70291,1,0,0:0:0:0:
329,192,70525,1,0,0:0:0:0:
36,192,70525,1,0,0:0:0:0:
402,192,70759,1,0,0:0:0:0:
109,192,70759,1,0,0:0:0:0:
475,192,70994,1,0,0:0:0:0:
182,192,70994,1,0,0:0:0:0:
475,192,71462,1,0,0:0:0:0:
36,192,71462,1,0,0:0:0:0:
329,192,71697,1,0,0:0:0:0:
182,192,71697,1,0,0:0:0:0:
402,192,71814,1,0,0:0:0:0:
109,192,71931,1,0,0:0:0:0:
329,192,72048,1,0,0:0:0:0:
36,192,72166,1,0,0:0:0:0:
256,192,72166,1,0,0:0:0:0:
36,192,72400,128,0,72634:0:0:0:0:
256,192,72400,128,0,72634:0:0:0:0:
36,192,73103,1,0,0:0:0:0:
256,192,73103,1,0,0:0:0:0:
36,192,73337,128,0,73572:0:0:0:0:
256,192,73337,128,0,73572:0:0:0:0:
475,192,73806,128,0,74041:0:0:0:0:
402,192,74041,128,0,74275:0:0:0:0:
109,192,74041,128,0,74275:0:0:0:0:
329,192,74275,128,0,74509:0:0:0:0:
182,192,74275,128,0,74509:0:0:0:0:
256,192,74509,128,0,74744:0:0:0:0:
182,192,74744,128,0,75447:0:0:0:0:
329,192,74744,128,0,75447:0:0:0:0:
36,192,75447,1,0,0:0:0:0:
109,192,75681,1,0,0:0:0:0:
109,192,75916,1,0,0:0:0:0:
329,192,75916,1,0,0:0:0:0:
329,192,76150,128,0,76384:0:0:0:0:
109,192,76150,128,0,76384:0:0:0:0:
329,192,76853,1,0,0:0:0:0:
109,192,76853,1,0,0:0:0:0:
109,192,77087,128,0,77322:0:0:0:0:
329,192,77087,128,0,77322:0:0:0:0:
36,192,77791,1,0,0:0:0:0:
256,192,77791,1,0,0:0:0:0:
329,192,78025,1,0,0:0:0:0:
36,192,78259,1,0,0:0:0:0:
256,192,78259,1,0,0:0:0:0:
109,192,78494,128,0,78845:0:0:0:0:
329,192,78494,128,0,78845:0:0:0:0:
402,192,78962,1,0,0:0:0:0:
475,192,79197,1,0,0:0:0:0:
182,192,79197,128,0,79666:0:0:0:0:
329,192,79314,128,0,79666:0:0:0:0:
109,192,79431,128,0,79666:0:0:0:0:
402,192,79548,128,0,79666:0:0:0:0:
36,192,79666,1,0,0:0:0:0:
256,192,79666,1,0,0:0:0:0:
109,192,79900,128,0,80134:0:0:0:0:
329,192,79900,128,0,80134:0:0:0:0:
109,192,80603,1,0,0:0:0:0:
402,192,80603,1,0,0:0:0:0:
402,192,80837,128,0,81072:0:0:0:0:
109,192,80837,128,0,81072:0:0:0:0:
109,192,81306,1,0,0:0:0:0:
402,192,81306,1,0,0:0:0:0:
182,192,81541,128,0,81892:0:0:0:0:
329,192,81541,128,0,82947:0:0:0:0:
36,192,81892,128,0,82244:0:0:0:0:
475,192,81892,128,0,82947:0:0:0:0:
109,192,82244,128,0,82947:0:0:0:0:
402,192,82244,128,0,82947:0:0:0:0:
256,192,82947,1,0,0:0:0:0:
329,192,83181,1,0,0:0:0:0:
182,192,83416,1,0,0:0:0:0:
475,192,83416,1,0,0:0:0:0:
475,192,83650,128,0,83884:0:0:0:0:
182,192,83650,128,0,83884:0:0:0:0:
329,192,84353,1,0,0:0:0:0:
109,192,84353,1,0,0:0:0:0:
329,192,84587,128,0,84822:0:0:0:0:
109,192,84587,128,0,84822:0:0:0:0:
36,192,85056,1,0,0:0:0:0:
475,192,85056,1,0,0:0:0:0:
402,192,85291,1,0,0:0:0:0:
109,192,85291,1,0,0:0:0:0:
329,192,85525,1,0,0:0:0:0:
182,192,85525,1,0,0:0:0:0:
256,192,85759,1,0,0:0:0:0:
256,192,85994,1,0,0:0:0:0:
256,192,86462,128,0,86697:0:0:0:0:
329,192,86697,128,0,86814:0:0:0:0:
182,192,86697,128,0,86814:0:0:0:0:
109,192,86814,128,0,86931:0:0:0:0:
402,192,86814,128,0,86931:0:0:0:0:
475,192,86931,128,0,87048:0:0:0:0:
36,192,86931,128,0,87048:0:0:0:0:
109,192,87048,128,0,87166:0:0:0:0:
402,192,87048,128,0,87166:0:0:0:0:
182,192,87166,128,0,87869:0:0:0:0:
329,192,87166,128,0,87869:0:0:0:0:
256,192,87869,128,0,88337:0:0:0:0:
475,192,88337,128,0,88806:0:0:0:0:
402,192,88806,128,0,89978:0:0:0:0:
109,192,89978,128,0,90212:0:0:0:0:
329,192,90212,128,0,90447:0:0:0:0:
109,192,90447,128,0,90681:0:0:0:0:
329,192,90681,128,0,90916:0:0:0:0:
256,192,90916,1,0,0:0:0:0:
36,192,90916,1,0,0:0:0:0:
109,192,91150,128,0,91384:0:0:0:0:
329,192,91150,128,0,91384:0:0:0:0:
256,192,91853,1,0,0:0:0:0:
36,192,91853,1,0,0:0:0:0:
36,192,92087,128,0,92322:0:0:0:0:
256,192,92087,128,0,92322:0:0:0:0:
256,192,92791,1,0,0:0:0:0:
109,192,92791,1,0,0:0:0:0:
329,192,93025,1,0,0:0:0:0:
475,192,93142,1,0,0:0:0:0:
109,192,93259,1,0,0:0:0:0:
256,192,93259,1,0,0:0:0:0:
402,192,93494,1,0,0:0:0:0:
402,192,93962,1,0,0:0:0:0:
182,192,94197,1,0,0:0:0:0:
475,192,94197,1,0,0:0:0:0:
329,192,94314,1,0,0:0:0:0:
109,192,94431,1,0,0:0:0:0:
402,192,94548,1,0,0:0:0:0:
182,192,94666,1,0,0:0:0:0:
36,192,94666,1,0,0:0:0:0:
109,192,94900,1,0,0:0:0:0:
256,192,95134,1,0,0:0:0:0:
475,192,95134,1,0,0:0:0:0:
402,192,95251,1,0,0:0:0:0:
182,192,95369,1,0,0:0:0:0:
329,192,95369,1,0,0:0:0:0:
109,192,95486,1,0,0:0:0:0:
329,192,95603,1,0,0:0:0:0:
329,192,95837,1,0,0:0:0:0:
256,192,96072,128,0,96189:0:0:0:0:
182,192,96189,128,0,96306:0:0:0:0:
329,192,96189,128,0,96306:0:0:0:0:
402,192,96306,128,0,96423:0:0:0:0:
109,192,96306,128,0,96423:0:0:0:0:
36,192,96423,128,0,96541:0:0:0:0:
475,192,96423,128,0,96541:0:0:0:0:
329,192,96541,128,0,96775:0:0:0:0:
402,192,96775,128,0,97009:0:0:0:0:
36,192,96892,1,0,0:0:0:0:
109,192,97009,128,0,97244:0:0:0:0:
475,192,97244,128,0,97947:0:0:0:0:
256,192,97244,128,0,97947:0:0:0:0:
182,192,97947,1,0,0:0:0:0:
36,192,97947,1,0,0:0:0:0:
402,192,97947,1,0,0:0:0:0:
329,192,98064,1,0,0:0:0:0:
256,192,98181,1,0,0:0:0:0:
182,192,98298,1,0,0:0:0:0:
109,192,98416,1,0,0:0:0:0:
402,192,98416,1,0,0:0:0:0:
109,192,98650,1,0,0:0:0:0:
402,192,98650,1,0,0:0:0:0:
256,192,98884,1,0,0:0:0:0:
182,192,99001,1,0,0:0:0:0:
109,192,99119,1,0,0:0:0:0:
36,192,99236,1,0,0:0:0:0:
329,192,99353,1,0,0:0:0:0:
182,192,99353,1,0,0:0:0:0:
329,192,99587,1,0,0:0:0:0:
182,192,99587,1,0,0:0:0:0:
182,192,100056,1,0,0:0:0:0:
329,192,100056,1,0,0:0:0:0:
475,192,100291,1,0,0:0:0:0:
36,192,100291,1,0,0:0:0:0:
402,192,100525,1,0,0:0:0:0:
109,192,100525,1,0,0:0:0:0:
329,192,100759,1,0,0:0:0:0:
182,192,100759,1,0,0:0:0:0:
109,192,100994,1,0,0:0:0:0:
402,192,100994,1,0,0:0:0:0:
109,192,101462,1,0,0:0:0:0:
402,192,101462,1,0,0:0:0:0:
402,192,101697,1,0,0:0:0:0:
109,192,101697,1,0,0:0:0:0:
475,192,101814,1,0,0:0:0:0:
36,192,101814,1,0,0:0:0:0:
402,192,101931,1,0,0:0:0:0:
109,192,101931,1,0,0:0:0:0:
329,192,102048,1,0,0:0:0:0:
182,192,102048,1,0,0:0:0:0:
109,192,102166,1,0,0:0:0:0:
402,192,102166,1,0,0:0:0:0:
329,192,102400,1,0,0:0:0:0:
182,192,102400,1,0,0:0:0:0:
256,192,102634,1,0,0:0:0:0:
36,192,102634,1,0,0:0:0:0:
182,192,102869,1,0,0:0:0:0:
109,192,102869,1,0,0:0:0:0:
475,192,103103,1,0,0:0:0:0:
329,192,103103,1,0,0:0:0:0:
475,192,103337,1,0,0:0:0:0:
329,192,103337,1,0,0:0:0:0:
256,192,103572,1,0,0:0:0:0:
36,192,103572,1,0,0:0:0:0:
475,192,103806,128,0,104041:0:0:0:0:
182,192,103806,1,0,0:0:0:0:
402,192,104041,128,0,104275:0:0:0:0:
109,192,104041,1,0,0:0:0:0:
329,192,104275,128,0,104509:0:0:0:0:
182,192,104509,128,0,104744:0:0:0:0:
256,192,104509,1,0,0:0:0:0:
402,192,104744,128,0,105447:0:0:0:0:
36,192,104978,1,0,0:0:0:0:
329,192,105447,1,0,0:0:0:0:
182,192,105447,128,0,105681:0:0:0:0:
109,192,105681,128,0,105916:0:0:0:0:
36,192,105916,1,0,0:0:0:0:
256,192,105916,128,0,106150:0:0:0:0:
329,192,106150,128,0,106384:0:0:0:0:
109,192,106384,1,0,0:0:0:0:
402,192,106384,1,0,0:0:0:0:
329,192,106853,1,0,0:0:0:0:
182,192,106853,1,0,0:0:0:0:
182,192,107087,1,0,0:0:0:0:
329,192,107087,1,0,0:0:0:0:
475,192,107322,1,0,0:0:0:0:
36,192,107322,1,0,0:0:0:0:
109,192,107791,1,0,0:0:0:0:
402,192,107791,1,0,0:0:0:0:
402,192,108025,1,0,0:0:0:0:
109,192,108025,1,0,0:0:0:0:
402,192,108259,1,0,0:0:0:0:
256,192,108259,1,0,0:0:0:0:
36,192,108494,128,0,108904:0:0:0:0:
475,192,108494,128,0,108904:0:0:0:0:
36,192,108962,1,0,0:0:0:0:
475,192,108962,1,0,0:0:0:0:
182,192,109080,1,0,0:0:0:0:
402,192,109197,128,0,109314:0:0:0:0:
256,192,109314,128,0,109431:0:0:0:0:
109,192,109431,128,0,109548:0:0:0:0:
329,192,109548,128,0,109666:0:0:0:0:
182,192,109666,1,0,0:0:0:0:
402,192,109666,1,0,0:0:0:0:
402,192,109900,1,0,0:0:0:0:
256,192,109900,1,0,0:0:0:0:
109,192,110134,1,0,0:0:0:0:
402,192,110251,1,0,0:0:0:0:
182,192,110369,1,0,0:0:0:0:
329,192,110486,1,0,0:0:0:0:
182,192,110603,1,0,0:0:0:0:
36,192,110603,1,0,0:0:0:0:
182,192,110837,1,0,0:0:0:0:
36,192,110837,1,0,0:0:0:0:
475,192,111072,1,0,0:0:0:0:
109,192,111189,1,0,0:0:0:0:
402,192,111306,1,0,0:0:0:0:
182,192,111423,1,0,0:0:0:0:
329,192,111541,1,0,0:0:0:0:
109,192,111775,1,0,0:0:0:0:
402,192,111775,1,0,0:0:0:0:
329,192,112009,1,0,0:0:0:0:
36,192,112009,1,0,0:0:0:0:
182,192,112244,128,0,112947:0:0:0:0:
402,192,112244,128,0,112947:0:0:0:0:
36,192,112947,128,0,113416:0:0:0:0:
475,192,112947,128,0,113416:0:0:0:0:
256,192,112947,1,0,0:0:0:0:
182,192,113416,1,0,0:0:0:0:
109,192,113416,1,0,0:0:0:0:
329,192,113650,1,0,0:0:0:0:
36,192,113884,1,0,0:0:0:0:
182,192,113884,1,0,0:0:0:0:
475,192,114119,1,0,0:0:0:0:
182,192,114353,1,0,0:0:0:0:
109,192,114353,1,0,0:0:0:0:
329,192,114587,1,0,0:0:0:0:
475,192,114822,1,0,0:0:0:0:
109,192,115056,1,0,0:0:0:0:
402,192,115056,1,0,0:0:0:0:
109,192,115173,1,0,0:0:0:0:
402,192,115173,1,0,0:0:0:0:
329,192,115291,1,0,0:0:0:0:
182,192,115525,1,0,0:0:0:0:
329,192,115759,1,0,0:0:0:0:
475,192,115759,1,0,0:0:0:0:
256,192,115994,128,0,116404:0:0:0:0:
256,192,116462,1,0,0:0:0:0:
256,192,116697,128,0,117166:0:0:0:0:
329,192,116814,128,0,117166:0:0:0:0:
182,192,116931,128,0,117166:0:0:0:0:
109,192,117048,128,0,117166:0:0:0:0:
402,192,117048,128,0,117166:0:0:0:0:
36,192,117166,128,0,117869:0:0:0:0:
475,192,117166,128,0,117869:0:0:0:0:
109,192,117869,128,0,120916:0:0:0:0:
475,192,118337,128,0,120916:0:0:0:0:
182,192,118806,128,0,120916:0:0:0:0:
36,192,120916,1,0,0:0:0:0:
329,192,120916,1,0,0:0:0:0:
36,192,121619,1,0,0:0:0:0:
329,192,121619,1,0,0:0:0:0:
182,192,121619,1,0,0:0:0:0:
402,192,122087,1,0,0:0:0:0:
109,192,122791,1,0,0:0:0:0:
329,192,122791,1,0,0:0:0:0:
329,192,123494,1,0,0:0:0:0:
109,192,123494,1,0,0:0:0:0:
402,192,124197,1,0,0:0:0:0:
182,192,124197,1,0,0:0:0:0:
109,192,124666,1,0,0:0:0:0:
329,192,124666,1,0,0:0:0:0:
329,192,125369,1,0,0:0:0:0:
475,192,125369,1,0,0:0:0:0:
182,192,125369,1,0,0:0:0:0:
36,192,125837,1,0,0:0:0:0:
36,192,126541,1,0,0:0:0:0:
182,192,126541,128,0,126775:0:0:0:0:
402,192,126775,128,0,127009:0:0:0:0:
109,192,127009,128,0,127244:0:0:0:0:
329,192,127244,128,0,127478:0:0:0:0:
475,192,127244,1,0,0:0:0:0:
182,192,127478,128,0,127712:0:0:0:0:
36,192,127712,128,0,127947:0:0:0:0:
402,192,127947,128,0,128181:0:0:0:0:
256,192,127947,1,0,0:0:0:0:
182,192,128181,128,0,128416:0:0:0:0:
256,192,128416,1,0,0:0:0:0:
329,192,128416,1,0,0:0:0:0:
329,192,129119,1,0,0:0:0:0:
475,192,129119,1,0,0:0:0:0:
402,192,129119,1,0,0:0:0:0:
36,192,129353,128,0,129587:0:0:0:0:
182,192,129587,1,0,0:0:0:0:
402,192,129822,128,0,130056:0:0:0:0:
109,192,129822,128,0,130056:0:0:0:0:
256,192,130056,1,0,0:0:0:0:
402,192,130291,1,0,0:0:0:0:
182,192,130447,1,0,0:0:0:0:
402,192,130603,1,0,0:0:0:0:
182,192,130759,128,0,130994:0:0:0:0:
402,192,130994,1,0,0:0:0:0:
36,192,131228,1,0,0:0:0:0:
182,192,131228,128,0,131462:0:0:0:0:
329,192,131462,1,0,0:0:0:0:
475,192,131697,1,0,0:0:0:0:
182,192,131697,128,0,131931:0:0:0:0:
329,192,131931,128,0,132166:0:0:0:0:
109,192,132166,128,0,132400:0:0:0:0:
402,192,132400,128,0,132634:0:0:0:0:
256,192,132634,128,0,132869:0:0:0:0:
329,192,132869,128,0,133103:0:0:0:0:
182,192,133103,128,0,133337:0:0:0:0:
475,192,133337,128,0,133572:0:0:0:0:
36,192,133572,128,0,133806:0:0:0:0:
402,192,133806,128,0,134041:0:0:0:0:
109,192,134041,128,0,134275:0:0:0:0:
329,192,134275,128,0,134509:0:0:0:0:
182,192,134509,128,0,134744:0:0:0:0:
256,192,134744,128,0,134978:0:0:0:0:
182,192,134978,1,0,0:0:0:0:
329,192,134978,1,0,0:0:0:0:
402,192,135447,1,0,0:0:0:0:
475,192,135447,128,0,135916:0:0:0:0:
36,192,135447,128,0,135916:0:0:0:0:
182,192,135916,128,0,136853:0:0:0:0:
329,192,135916,128,0,136853:0:0:0:0:
402,192,136853,1,0,0:0:0:0:
109,192,136853,128,0,137087:0:0:0:0:
402,192,137087,128,0,137322:0:0:0:0:
182,192,137322,128,0,137556:0:0:0:0:
329,192,137556,128,0,137791:0:0:0:0:
36,192,137791,128,0,138728:0:0:0:0:
256,192,137791,128,0,138025:0:0:0:0:
329,192,138025,128,0,138259:0:0:0:0:
109,192,138259,1,0,0:0:0:0:
256,192,138259,128,0,138494:0:0:0:0:
402,192,138494,128,0,138728:0:0:0:0:
182,192,138728,128,0,138962:0:0:0:0:
475,192,138728,1,0,0:0:0:0:
256,192,138962,128,0,139666:0:0:0:0:
475,192,139197,128,0,139431:0:0:0:0:
402,192,139431,128,0,139666:0:0:0:0:
329,192,139548,128,0,139666:0:0:0:0:
182,192,139666,128,0,140603:0:0:0:0:
36,192,139666,128,0,140603:0:0:0:0:
402,192,140603,1,0,0:0:0:0:
109,192,140837,128,0,140896:0:0:0:0:
475,192,140955,128,0,141013:0:0:0:0:
329,192,141072,128,0,141130:0:0:0:0:
36,192,141189,128,0,141248:0:0:0:0:
182,192,141306,128,0,141541:0:0:0:0:
402,192,141541,128,0,142244:0:0:0:0:
109,192,142009,128,0,142244:0:0:0:0:
182,192,142244,1,0,0:0:0:0:
475,192,142361,1,0,0:0:0:0:
329,192,142478,1,0,0:0:0:0:
256,192,142478,1,0,0:0:0:0:
182,192,142595,1,0,0:0:0:0:
36,192,142712,1,0,0:0:0:0:
329,192,142830,1,0,0:0:0:0:
256,192,142947,1,0,0:0:0:0:
402,192,142947,1,0,0:0:0:0:
475,192,143064,1,0,0:0:0:0:
182,192,143064,1,0,0:0:0:0:
329,192,143181,1,0,0:0:0:0:
36,192,143416,128,0,144353:0:0:0:0:
256,192,143416,128,0,144353:0:0:0:0:
475,192,144353,128,0,145291:0:0:0:0:
109,192,144587,128,0,145291:0:0:0:0:
402,192,144822,128,0,145291:0:0:0:0:
182,192,145056,128,0,145291:0:0:0:0:
329,192,145291,128,0,146228:0:0:0:0:
256,192,145525,128,0,146228:0:0:0:0:
182,192,145759,128,0,146228:0:0:0:0:
109,192,145994,128,0,146228:0:0:0:0:
475,192,146228,128,0,146697:0:0:0:0:
182,192,146697,1,0,0:0:0:0:
109,192,146697,1,0,0:0:0:0:
36,192,146697,128,0,147166:0:0:0:0:
402,192,146697,128,0,146931:0:0:0:0:
182,192,147166,128,0,148103:0:0:0:0:
329,192,147166,128,0,148103:0:0:0:0:
256,192,147166,1,0,0:0:0:0:
402,192,148103,1,0,0:0:0:0:
36,192,148103,1,0,0:0:0:0:
109,192,148103,1,0,0:0:0:0:
402,192,148337,128,0,148572:0:0:0:0:
109,192,148572,128,0,148806:0:0:0:0:
329,192,148806,128,0,149041:0:0:0:0:
182,192,149041,128,0,149509:0:0:0:0:
36,192,149041,128,0,149509:0:0:0:0:
329,192,149509,128,0,149744:0:0:0:0:
109,192,149744,1,0,0:0:0:0:
475,192,149861,1,0,0:0:0:0:
182,192,149978,1,0,0:0:0:0:
329,192,149978,1,0,0:0:0:0:
402,192,150095,1,0,0:0:0:0:
109,192,150212,1,0,0:0:0:0:
329,192,150330,1,0,0:0:0:0:
182,192,150447,1,0,0:0:0:0:
475,192,150447,1,0,0:0:0:0:
36,192,150564,1,0,0:0:0:0:
402,192,150564,1,0,0:0:0:0:
109,192,150681,1,0,0:0:0:0:
182,192,150916,128,0,151853:0:0:0:0:
36,192,150916,128,0,151853:0:0:0:0:
256,192,151853,128,0,152791:0:0:0:0:
475,192,151853,1,0,0:0:0:0:
329,192,152087,128,0,152322:0:0:0:0:
182,192,152322,128,0,152556:0:0:0:0:
402,192,152556,128,0,152791:0:0:0:0:
109,192,152791,128,0,153494:0:0:0:0:
182,192,153494,1,0,0:0:0:0:
329,192,153494,128,0,153728:0:0:0:0:
475,192,153728,128,0,153962:0:0:0:0:
402,192,153728,1,0,0:0:0:0:
182,192,153962,1,0,0:0:0:0:
36,192,153962,128,0,154197:0:0:0:0:
475,192,154197,128,0,154666:0:0:0:0:
402,192,154197,128,0,154431:0:0:0:0:
109,192,154666,128,0,155603:0:0:0:0:
256,192,154666,1,0,0:0:0:0:
402,192,155603,128,0,155837:0:0:0:0:
182,192,155603,1,0,0:0:0:0:
329,192,155603,1,0,0:0:0:0:
109,192,155837,128,0,156072:0:0:0:0:
329,192,156072,1,0,0:0:0:0:
182,192,156072,128,0,156541:0:0:0:0:
402,192,156306,128,0,156541:0:0:0:0:
36,192,156541,1,0,0:0:0:0:
329,192,156541,128,0,157009:0:0:0:0:
475,192,156775,128,0,157009:0:0:0:0:
109,192,157009,128,0,157478:0:0:0:0:
402,192,157009,128,0,157244:0:0:0:0:
256,192,157244,128,0,157478:0:0:0:0:
329,192,157478,1,0,0:0:0:0:
402,192,157595,1,0,0:0:0:0:
182,192,157712,1,0,0:0:0:0:
109,192,157830,1,0,0:0:0:0:
329,192,157947,1,0,0:0:0:0:
475,192,157947,128,0,158416:0:0:0:0:
402,192,158064,1,0,0:0:0:0:
182,192,158181,1,0,0:0:0:0:
329,192,158416,128,0,159353:0:0:0:0:
182,192,158416,128,0,158884:0:0:0:0:
36,192,158416,128,0,159353:0:0:0:0:
402,192,159353,1,0,0:0:0:0:
402,192,159587,128,0,159646:0:0:0:0:
182,192,159705,128,0,159763:0:0:0:0:
329,192,159822,128,0,159880:0:0:0:0:
36,192,159939,128,0,159998:0:0:0:0:
182,192,160056,128,0,160291:0:0:0:0:
402,192,160056,1,0,0:0:0:0:
256,192,160291,128,0,161228:0:0:0:0:
475,192,160291,1,0,0:0:0:0:
109,192,160994,128,0,161228:0:0:0:0:
329,192,161228,128,0,161697:0:0:0:0:
182,192,161462,128,0,161697:0:0:0:0:
475,192,161697,128,0,162166:0:0:0:0:
182,192,162166,128,0,163103:0:0:0:0:
36,192,162166,128,0,163103:0:0:0:0:
402,192,163103,128,0,163337:0:0:0:0:
109,192,163337,128,0,163572:0:0:0:0:
329,192,163572,128,0,163806:0:0:0:0:
182,192,163806,128,0,164041:0:0:0:0:
256,192,164041,128,0,164509:0:0:0:0:
475,192,164275,128,0,164509:0:0:0:0:
182,192,164509,128,0,164744:0:0:0:0:
402,192,164744,128,0,164978:0:0:0:0:
36,192,164978,1,0,0:0:0:0:
256,192,164978,128,0,165916:0:0:0:0:
109,192,165095,1,0,0:0:0:0:
182,192,165212,1,0,0:0:0:0:
36,192,165330,1,0,0:0:0:0:
475,192,165447,1,0,0:0:0:0:
402,192,165564,1,0,0:0:0:0:
329,192,165681,1,0,0:0:0:0:
402,192,165916,1,0,0:0:0:0:
109,192,165916,1,0,0:0:0:0:
36,192,165916,128,0,167673:0:0:0:0:
475,192,165916,128,0,167673:0:0:0:0:
182,192,166033,1,0,0:0:0:0:
402,192,166619,1,0,0:0:0:0:
109,192,166619,1,0,0:0:0:0:
329,192,166853,1,0,0:0:0:0:
182,192,166853,1,0,0:0:0:0:
109,192,167205,1,0,0:0:0:0:
402,192,167205,1,0,0:0:0:0:
182,192,167556,1,0,0:0:0:0:
329,192,167556,1,0,0:0:0:0:
109,192,167791,1,0,0:0:0:0:
402,192,167791,1,0,0:0:0:0:
256,192,167791,128,0,169548:0:0:0:0:
329,192,167908,1,0,0:0:0:0:
182,192,168494,1,0,0:0:0:0:
36,192,168494,1,0,0:0:0:0:
475,192,168728,1,0,0:0:0:0:
329,192,168728,1,0,0:0:0:0:
182,192,169080,1,0,0:0:0:0:
36,192,169080,1,0,0:0:0:0:
402,192,169431,1,0,0:0:0:0:
475,192,169431,1,0,0:0:0:0:
256,192,169666,1,0,0:0:0:0:
109,192,169666,128,0,171423:0:0:0:0:
182,192,169666,1,0,0:0:0:0:
329,192,169783,1,0,0:0:0:0:
475,192,170369,1,0,0:0:0:0:
402,192,170369,1,0,0:0:0:0:
402,192,170603,1,0,0:0:0:0:
475,192,170603,1,0,0:0:0:0:
402,192,170955,1,0,0:0:0:0:
475,192,170955,1,0,0:0:0:0:
402,192,171306,1,0,0:0:0:0:
475,192,171306,1,0,0:0:0:0:
182,192,171541,128,0,172419:0:0:0:0:
36,192,171541,128,0,172419:0:0:0:0:
329,192,171541,1,0,0:0:0:0:
475,192,171658,1,0,0:0:0:0:
402,192,172244,1,0,0:0:0:0:
402,192,172478,128,0,172654:0:0:0:0:
109,192,172478,1,0,0:0:0:0:
402,192,172712,128,0,173416:0:0:0:0:
109,192,172830,1,0,0:0:0:0:
109,192,173181,1,0,0:0:0:0:
36,192,173416,1,0,0:0:0:0:
475,192,173416,1,0,0:0:0:0:
182,192,173650,1,0,0:0:0:0:
329,192,173650,1,0,0:0:0:0:
402,192,173884,1,0,0:0:0:0:
109,192,173884,1,0,0:0:0:0:
182,192,174119,1,0,0:0:0:0:
329,192,174119,1,0,0:0:0:0:
36,192,174353,1,0,0:0:0:0:
475,192,174353,1,0,0:0:0:0:
182,192,174587,1,0,0:0:0:0:
329,192,174587,1,0,0:0:0:0:
109,192,174822,1,0,0:0:0:0:
402,192,174822,1,0,0:0:0:0:
256,192,175056,1,0,0:0:0:0:
329,192,175291,1,0,0:0:0:0:
182,192,175291,1,0,0:0:0:0:
256,192,175525,1,0,0:0:0:0:
109,192,175759,1,0,0:0:0:0:
402,192,175759,1,0,0:0:0:0:
182,192,175994,1,0,0:0:0:0:
36,192,176228,1,0,0:0:0:0:
182,192,176228,1,0,0:0:0:0:
329,192,176462,1,0,0:0:0:0:
109,192,176697,1,0,0:0:0:0:
256,192,176697,1,0,0:0:0:0:
475,192,176931,1,0,0:0:0:0:
256,192,177166,1,0,0:0:0:0:
182,192,177166,1,0,0:0:0:0:
402,192,177400,1,0,0:0:0:0:
475,192,177400,1,0,0:0:0:0:
182,192,177634,1,0,0:0:0:0:
109,192,177634,1,0,0:0:0:0:
329,192,177869,1,0,0:0:0:0:
402,192,177869,1,0,0:0:0:0:
109,192,178103,1,0,0:0:0:0:
36,192,178103,1,0,0:0:0:0:
329,192,178337,1,0,0:0:0:0:
256,192,178337,1,0,0:0:0:0:
36,192,178572,1,0,0:0:0:0:
109,192,178572,1,0,0:0:0:0:
402,192,178806,1,0,0:0:0:0:
329,192,178806,1,0,0:0:0:0:
109,192,179041,1,0,0:0:0:0:
475,192,179158,1,0,0:0:0:0:
182,192,179275,1,0,0:0:0:0:
402,192,179392,1,0,0:0:0:0:
109,192,179509,1,0,0:0:0:0:
329,192,179626,1,0,0:0:0:0:
182,192,179744,1,0,0:0:0:0:
475,192,179861,1,0,0:0:0:0:
36,192,179978,1,0,0:0:0:0:
402,192,180037,1,0,0:0:0:0:
109,192,180095,1,0,0:0:0:0:
329,192,180154,1,0,0:0:0:0:
182,192,180212,1,0,0:0:0:0:
475,192,180271,1,0,0:0:0:0:
256,192,180330,1,0,0:0:0:0:
36,192,180388,1,0,0:0:0:0:
402,192,180447,1,0,0:0:0:0:
109,192,180447,1,0,0:0:0:0:
182,192,180681,128,0,180916:0:0:0:0:
329,192,180681,128,0,180916:0:0:0:0:
256,192,180916,1,0,0:0:0:0:
402,192,180916,128,0,181150:0:0:0:0:
36,192,180916,128,0,181150:0:0:0:0:
109,192,181150,128,0,181384:0:0:0:0:
329,192,181150,128,0,181384:0:0:0:0:
475,192,181384,1,0,0:0:0:0:
329,192,181853,1,0,0:0:0:0:
109,192,181853,128,0,182087:0:0:0:0:
329,192,182087,128,0,182322:0:0:0:0:
182,192,182087,1,0,0:0:0:0:
475,192,182322,1,0,0:0:0:0:
256,192,182791,1,0,0:0:0:0:
256,192,183025,1,0,0:0:0:0:
256,192,183259,1,0,0:0:0:0:
36,192,183494,1,0,0:0:0:0:
475,192,183494,1,0,0:0:0:0:
329,192,183728,1,0,0:0:0:0:
475,192,183962,1,0,0:0:0:0:
475,192,184197,1,0,0:0:0:0:
182,192,184314,1,0,0:0:0:0:
402,192,184431,1,0,0:0:0:0:
109,192,184548,1,0,0:0:0:0:
329,192,184666,1,0,0:0:0:0:
329,192,184900,1,0,0:0:0:0:
256,192,185134,1,0,0:0:0:0:
36,192,185134,1,0,0:0:0:0:
402,192,185369,1,0,0:0:0:0:
182,192,185603,1,0,0:0:0:0:
109,192,185603,1,0,0:0:0:0:
182,192,185837,1,0,0:0:0:0:
109,192,185837,1,0,0:0:0:0:
402,192,186072,1,0,0:0:0:0:
475,192,186072,1,0,0:0:0:0:
182,192,186306,1,0,0:0:0:0:
109,192,186541,128,0,186892:0:0:0:0:
329,192,186541,128,0,186892:0:0:0:0:
182,192,186892,1,0,0:0:0:0:
475,192,186892,128,0,187009:0:0:0:0:
36,192,187244,1,0,0:0:0:0:
182,192,187244,128,0,187947:0:0:0:0:
402,192,187244,128,0,187947:0:0:0:0:
256,192,187947,1,0,0:0:0:0:
36,192,187947,128,0,188181:0:0:0:0:
329,192,188181,1,0,0:0:0:0:
109,192,188181,128,0,188416:0:0:0:0:
475,192,188416,1,0,0:0:0:0:
402,192,188416,1,0,0:0:0:0:
475,192,188650,1,0,0:0:0:0:
402,192,188650,1,0,0:0:0:0:
36,192,188884,1,0,0:0:0:0:
109,192,188884,1,0,0:0:0:0:
182,192,189353,1,0,0:0:0:0:
475,192,189353,1,0,0:0:0:0:
475,192,189587,1,0,0:0:0:0:
182,192,189587,1,0,0:0:0:0:
256,192,189822,1,0,0:0:0:0:
329,192,189822,1,0,0:0:0:0:
109,192,190056,1,0,0:0:0:0:
402,192,190056,128,0,190291:0:0:0:0:
182,192,190291,1,0,0:0:0:0:
475,192,190291,128,0,190525:0:0:0:0:
329,192,190525,128,0,190759:0:0:0:0:
402,192,190759,128,0,190994:0:0:0:0:
109,192,190759,1,0,0:0:0:0:
36,192,190759,1,0,0:0:0:0:
475,192,190994,128,0,191462:0:0:0:0:
182,192,191228,1,0,0:0:0:0:
402,192,191462,128,0,191697:0:0:0:0:
109,192,191697,1,0,0:0:0:0:
36,192,191697,1,0,0:0:0:0:
182,192,191814,1,0,0:0:0:0:
402,192,191931,1,0,0:0:0:0:
329,192,192048,1,0,0:0:0:0:
182,192,192166,1,0,0:0:0:0:
36,192,192166,1,0,0:0:0:0:
182,192,192400,128,0,192634:0:0:0:0:
36,192,192400,128,0,192634:0:0:0:0:
329,192,192634,1,0,0:0:0:0:
475,192,192634,1,0,0:0:0:0:
182,192,193103,1,0,0:0:0:0:
329,192,193103,1,0,0:0:0:0:
182,192,193337,128,0,193572:0:0:0:0:
329,192,193337,128,0,193572:0:0:0:0:
109,192,193572,1,0,0:0:0:0:
402,192,193572,1,0,0:0:0:0:
36,192,193806,1,0,0:0:0:0:
475,192,193806,128,0,194509:0:0:0:0:
402,192,194041,128,0,194509:0:0:0:0:
109,192,194041,1,0,0:0:0:0:
329,192,194275,128,0,194509:0:0:0:0:
182,192,194509,128,0,195447:0:0:0:0:
329,192,194744,128,0,195447:0:0:0:0:
109,192,194744,128,0,195447:0:0:0:0:
256,192,194978,1,0,0:0:0:0:
256,192,195447,128,0,195916:0:0:0:0:
475,192,195447,1,0,0:0:0:0:
402,192,195681,1,0,0:0:0:0:
329,192,195916,1,0,0:0:0:0:
182,192,195916,1,0,0:0:0:0:
329,192,196150,1,0,0:0:0:0:
182,192,196150,1,0,0:0:0:0:
402,192,196384,1,0,0:0:0:0:
329,192,196619,1,0,0:0:0:0:
109,192,196853,1,0,0:0:0:0:
256,192,196853,1,0,0:0:0:0:
109,192,197087,1,0,0:0:0:0:
256,192,197087,1,0,0:0:0:0:
402,192,197322,1,0,0:0:0:0:
329,192,197556,1,0,0:0:0:0:
182,192,197791,1,0,0:0:0:0:
36,192,197791,1,0,0:0:0:0:
329,192,198025,1,0,0:0:0:0:
475,192,198025,1,0,0:0:0:0:
182,192,198259,1,0,0:0:0:0:
36,192,198259,1,0,0:0:0:0:
402,192,198494,128,0,198845:0:0:0:0:
475,192,198494,128,0,198845:0:0:0:0:
475,192,198962,1,0,0:0:0:0:
36,192,199197,128,0,199666:0:0:0:0:
402,192,199314,128,0,199666:0:0:0:0:
109,192,199431,128,0,199666:0:0:0:0:
329,192,199548,128,0,199666:0:0:0:0:
182,192,199666,128,0,199900:0:0:0:0:
329,192,199900,128,0,200134:0:0:0:0:
256,192,200134,1,0,0:0:0:0:
182,192,200134,1,0,0:0:0:0:
109,192,200369,1,0,0:0:0:0:
36,192,200603,1,0,0:0:0:0:
329,192,200603,1,0,0:0:0:0:
329,192,200837,128,0,201072:0:0:0:0:
182,192,201072,1,0,0:0:0:0:
329,192,201306,1,0,0:0:0:0:
36,192,201306,1,0,0:0:0:0:
109,192,201541,128,0,202947:0:0:0:0:
402,192,201541,128,0,202947:0:0:0:0:
475,192,201892,128,0,202009:0:0:0:0:
36,192,201892,128,0,202009:0:0:0:0:
256,192,202009,1,0,0:0:0:0:
182,192,202244,128,0,202947:0:0:0:0:
329,192,202244,128,0,202947:0:0:0:0:
256,192,202947,1,0,0:0:0:0:
329,192,203181,1,0,0:0:0:0:
402,192,203416,1,0,0:0:0:0:
182,192,203416,1,0,0:0:0:0:
182,192,203650,1,0,0:0:0:0:
402,192,203650,1,0,0:0:0:0:
36,192,203884,1,0,0:0:0:0:
182,192,204119,1,0,0:0:0:0:
475,192,204353,1,0,0:0:0:0:
256,192,204353,1,0,0:0:0:0:
475,192,204587,1,0,0:0:0:0:
256,192,204587,1,0,0:0:0:0:
109,192,204822,1,0,0:0:0:0:
402,192,205056,1,0,0:0:0:0:
329,192,205056,1,0,0:0:0:0:
182,192,205291,1,0,0:0:0:0:
109,192,205291,1,0,0:0:0:0:
329,192,205525,1,0,0:0:0:0:
256,192,205525,1,0,0:0:0:0:
109,192,205759,1,0,0:0:0:0:
36,192,205759,1,0,0:0:0:0:
36,192,205994,128,0,206462:0:0:0:0:
402,192,206462,1,0,0:0:0:0:
329,192,206697,1,0,0:0:0:0:
182,192,206697,1,0,0:0:0:0:
402,192,206814,1,0,0:0:0:0:
475,192,206931,1,0,0:0:0:0:
402,192,207048,1,0,0:0:0:0:
329,192,207166,128,0,207869:0:0:0:0:
36,192,207166,1,0,0:0:0:0:
256,192,207869,128,0,208337:0:0:0:0:
36,192,208337,128,0,208806:0:0:0:0:
475,192,208337,128,0,208806:0:0:0:0:
109,192,208806,128,0,209978:0:0:0:0:
402,192,208806,128,0,209978:0:0:0:0:
36,192,209978,1,0,0:0:0:0:
256,192,209978,1,0,0:0:0:0:
329,192,210212,1,0,0:0:0:0:
256,192,210447,1,0,0:0:0:0:
36,192,210447,1,0,0:0:0:0:
329,192,210681,1,0,0:0:0:0:
109,192,210916,1,0,0:0:0:0:
475,192,211150,1,0,0:0:0:0:
36,192,211384,1,0,0:0:0:0:
182,192,211384,1,0,0:0:0:0:
402,192,211619,1,0,0:0:0:0:
329,192,211853,1,0,0:0:0:0:
109,192,211853,1,0,0:0:0:0:
329,192,212087,1,0,0:0:0:0:
182,192,212205,1,0,0:0:0:0:
36,192,212322,1,0,0:0:0:0:
475,192,212439,1,0,0:0:0:0:
402,192,212673,1,0,0:0:0:0:
109,192,212791,1,0,0:0:0:0:
329,192,212908,1,0,0:0:0:0:
182,192,213025,1,0,0:0:0:0:
329,192,213259,1,0,0:0:0:0:
475,192,213259,1,0,0:0:0:0:
109,192,213494,1,0,0:0:0:0:
475,192,213728,1,0,0:0:0:0:
182,192,213728,1,0,0:0:0:0:
402,192,213845,1,0,0:0:0:0:
329,192,214080,1,0,0:0:0:0:
36,192,214197,1,0,0:0:0:0:
109,192,214197,1,0,0:0:0:0:
329,192,214314,1,0,0:0:0:0:
182,192,214431,1,0,0:0:0:0:
329,192,214548,1,0,0:0:0:0:
256,192,214666,1,0,0:0:0:0:
36,192,214900,1,0,0:0:0:0:
475,192,215134,1,0,0:0:0:0:
402,192,215134,1,0,0:0:0:0:
329,192,215369,1,0,0:0:0:0:
182,192,215603,1,0,0:0:0:0:
36,192,215603,1,0,0:0:0:0:
182,192,215837,1,0,0:0:0:0:
329,192,215955,1,0,0:0:0:0:
109,192,216072,1,0,0:0:0:0:
36,192,216072,1,0,0:0:0:0:
402,192,216189,1,0,0:0:0:0:
475,192,216423,1,0,0:0:0:0:
182,192,216541,1,0,0:0:0:0:
402,192,216775,1,0,0:0:0:0:
329,192,217009,1,0,0:0:0:0:
109,192,217009,1,0,0:0:0:0:
402,192,217244,1,0,0:0:0:0:
475,192,217361,1,0,0:0:0:0:
36,192,217478,1,0,0:0:0:0:
256,192,217595,1,0,0:0:0:0:
402,192,217712,1,0,0:0:0:0:
182,192,217830,1,0,0:0:0:0:
402,192,217947,1,0,0:0:0:0:
182,192,218064,1,0,0:0:0:0:
329,192,218181,1,0,0:0:0:0:
182,192,218298,1,0,0:0:0:0:
329,192,218416,1,0,0:0:0:0:
475,192,218650,1,0,0:0:0:0:
402,192,218884,1,0,0:0:0:0:
182,192,218884,1,0,0:0:0:0:
329,192,219119,1,0,0:0:0:0:
109,192,219353,1,0,0:0:0:0:
256,192,219353,1,0,0:0:0:0:
329,192,219587,1,0,0:0:0:0:
402,192,219705,1,0,0:0:0:0:
256,192,219822,1,0,0:0:0:0:
36,192,219822,1,0,0:0:0:0:
475,192,219939,1,0,0:0:0:0:
402,192,220173,1,0,0:0:0:0:
182,192,220291,1,0,0:0:0:0:
329,192,220408,1,0,0:0:0:0:
182,192,220525,1,0,0:0:0:0:
475,192,220759,1,0,0:0:0:0:
36,192,220759,1,0,0:0:0:0:
329,192,220994,1,0,0:0:0:0:
36,192,221228,128,0,221462:0:0:0:0:
402,192,221228,1,0,0:0:0:0:
109,192,221462,1,0,0:0:0:0:
182,192,221580,1,0,0:0:0:0:
475,192,221697,1,0,0:0:0:0:
329,192,221697,1,0,0:0:0:0:
36,192,221814,1,0,0:0:0:0:
182,192,221931,1,0,0:0:0:0:
329,192,222048,1,0,0:0:0:0:
182,192,222166,1,0,0:0:0:0:
256,192,222283,1,0,0:0:0:0:
475,192,222400,1,0,0:0:0:0:
402,192,222634,1,0,0:0:0:0:
36,192,222634,1,0,0:0:0:0:
109,192,222869,1,0,0:0:0:0:
329,192,223103,1,0,0:0:0:0:
475,192,223103,1,0,0:0:0:0:
182,192,223337,1,0,0:0:0:0:
402,192,223572,1,0,0:0:0:0:
256,192,223572,1,0,0:0:0:0:
109,192,223806,1,0,0:0:0:0:
329,192,224041,1,0,0:0:0:0:
182,192,224041,1,0,0:0:0:0:
36,192,224275,1,0,0:0:0:0:
329,192,224509,1,0,0:0:0:0:
475,192,224509,1,0,0:0:0:0:
109,192,224626,1,0,0:0:0:0:
182,192,224744,1,0,0:0:0:0:
402,192,224861,1,0,0:0:0:0:
36,192,224978,1,0,0:0:0:0:
109,192,225447,1,0,0:0:0:0:
475,192,225447,1,0,0:0:0:0:
256,192,225564,128,0,225916:0:0:0:0:
402,192,225681,1,0,0:0:0:0:
36,192,225916,1,0,0:0:0:0:
182,192,225916,1,0,0:0:0:0:
475,192,226150,1,0,0:0:0:0:
402,192,226384,1,0,0:0:0:0:
109,192,226384,1,0,0:0:0:0:
329,192,226619,1,0,0:0:0:0:
182,192,226853,1,0,0:0:0:0:
36,192,226853,1,0,0:0:0:0:
329,192,227087,1,0,0:0:0:0:
182,192,227205,1,0,0:0:0:0:
109,192,227322,1,0,0:0:0:0:
475,192,227439,1,0,0:0:0:0:
402,192,227673,1,0,0:0:0:0:
36,192,227791,1,0,0:0:0:0:
329,192,227908,1,0,0:0:0:0:
182,192,228025,1,0,0:0:0:0:
329,192,228259,1,0,0:0:0:0:
109,192,228259,1,0,0:0:0:0:
182,192,228494,1,0,0:0:0:0:
475,192,228728,1,0,0:0:0:0:
36,192,228728,1,0,0:0:0:0:
402,192,228845,1,0,0:0:0:0:
329,192,229080,1,0,0:0:0:0:
109,192,229197,1,0,0:0:0:0:
329,192,229314,1,0,0:0:0:0:
256,192,229431,1,0,0:0:0:0:
329,192,229548,1,0,0:0:0:0:
182,192,229666,1,0,0:0:0:0:
36,192,229783,1,0,0:0:0:0:
475,192,229900,1,0,0:0:0:0:
256,192,230134,1,0,0:0:0:0:
109,192,230134,1,0,0:0:0:0:
329,192,230369,1,0,0:0:0:0:
256,192,230603,1,0,0:0:0:0:
475,192,230603,1,0,0:0:0:0:
182,192,230837,1,0,0:0:0:0:
36,192,230955,1,0,0:0:0:0:
256,192,231072,1,0,0:0:0:0:
402,192,231189,1,0,0:0:0:0:
475,192,231423,1,0,0:0:0:0:
36,192,231541,1,0,0:0:0:0:
256,192,231775,1,0,0:0:0:0:
182,192,232009,1,0,0:0:0:0:
475,192,232009,1,0,0:0:0:0:
256,192,232244,1,0,0:0:0:0:
402,192,232361,1,0,0:0:0:0:
36,192,232478,1,0,0:0:0:0:
182,192,232712,1,0,0:0:0:0:
402,192,232830,1,0,0:0:0:0:
182,192,232947,1,0,0:0:0:0:
329,192,233064,1,0,0:0:0:0:
36,192,233181,1,0,0:0:0:0:
402,192,233298,1,0,0:0:0:0:
182,192,233416,1,0,0:0:0:0:
256,192,233650,1,0,0:0:0:0:
182,192,233884,1,0,0:0:0:0:
402,192,233884,1,0,0:0:0:0:
109,192,234119,1,0,0:0:0:0:
475,192,234353,1,0,0:0:0:0:
36,192,234353,1,0,0:0:0:0:
182,192,234587,1,0,0:0:0:0:
402,192,234705,1,0,0:0:0:0:
256,192,234939,1,0,0:0:0:0:
36,192,235056,128,0,235291:0:0:0:0:
329,192,235173,1,0,0:0:0:0:
182,192,235291,1,0,0:0:0:0:
402,192,235408,1,0,0:0:0:0:
329,192,235525,1,0,0:0:0:0:
109,192,235642,1,0,0:0:0:0:
256,192,235759,1,0,0:0:0:0:
402,192,235876,1,0,0:0:0:0:
182,192,235994,1,0,0:0:0:0:
475,192,236228,1,0,0:0:0:0:
36,192,236228,1,0,0:0:0:0:
402,192,236462,1,0,0:0:0:0:
329,192,236580,1,0,0:0:0:0:
109,192,236697,1,0,0:0:0:0:
402,192,236814,1,0,0:0:0:0:
182,192,236931,1,0,0:0:0:0:
475,192,237048,1,0,0:0:0:0:
182,192,237166,1,0,0:0:0:0:
36,192,237166,128,0,237869:0:0:0:0:
402,192,237400,1,0,0:0:0:0:
256,192,237869,128,0,238337:0:0:0:0:
329,192,237869,1,0,0:0:0:0:
182,192,238337,128,0,238806:0:0:0:0:
402,192,238337,1,0,0:0:0:0:
109,192,238455,1,0,0:0:0:0:
256,192,238689,1,0,0:0:0:0:
475,192,238806,128,0,239978:0:0:0:0:
36,192,238806,128,0,239978:0:0:0:0:
329,192,238923,1,0,0:0:0:0:
182,192,239978,128,0,240212:0:0:0:0:
329,192,240212,128,0,240447:0:0:0:0:
475,192,240212,128,0,240447:0:0:0:0:
36,192,240447,128,0,240681:0:0:0:0:
182,192,240681,128,0,240916:0:0:0:0:
402,192,240681,128,0,240916:0:0:0:0:
