osu file format v14

[General]
AudioFilename: audio.mp3
AudioLeadIn: 0
PreviewTime: 73496
Countdown: 0
SampleSet: Normal
StackLeniency: 0.7
Mode: 1
LetterboxInBreaks: 0
WidescreenStoryboard: 1

[Editor]
DistanceSpacing: 1.5
BeatDivisor: 4
GridSize: 4
TimelineZoom: 0.6999993

[Metadata]
Title:BAMF
TitleUnicode:BAMF
Artist:Pegboard Nerds
ArtistUnicode:Pegboard Nerds
Creator:Dargin
Version:Kantan
Source:
Tags:Monstercat Ayyri Nerds By Nature EP MCEP109
BeatmapID:1112587
BeatmapSetID:517687

[Difficulty]
HPDrainRate:7
CircleSize:2
OverallDifficulty:3
ApproachRate:10
SliderMultiplier:1.4
SliderTickRate:1

[Events]
//Background and Video events
0,0,"pegNerds768p.jpg",0,0
//Break Periods
2,133696,145046
//Storyboard Layer 0 (Background)
//Storyboard Layer 1 (Fail)
//Storyboard Layer 2 (Pass)
//Storyboard Layer 3 (Foreground)
//Storyboard Sound Samples

[TimingPoints]
13496.3854379998,375,4,1,0,100,1,0
73472,-100,4,1,0,100,0,1
96840,-100,4,1,0,100,0,0
109496,-100,4,1,0,100,0,1
131340,-100,4,1,0,70,0,1
132090,-100,4,1,0,50,0,1
132465,-100,4,1,0,40,0,1
132652,-100,4,1,0,30,0,1
132840,-100,4,1,0,20,0,1
133027,-100,4,1,0,10,0,1
133215,-100,4,1,0,5,0,1
133496,-100,4,1,0,100,0,0
181121,-100,4,1,0,100,0,1
205496,-100,4,1,0,100,0,0

[HitObjects]
256,192,13496,5,8,0:0:0:0:
256,192,14621,1,0,0:0:0:0:
256,192,15746,1,0,0:0:0:0:
256,192,16121,1,0,0:0:0:0:
256,192,16496,1,8,0:0:0:0:
256,192,17246,1,0,0:0:0:0:
256,192,17996,1,0,0:0:0:0:
256,192,18746,1,0,0:0:0:0:
256,192,19121,1,8,0:0:0:0:
256,192,19496,1,8,0:0:0:0:
256,192,20621,1,0,0:0:0:0:
256,192,21746,1,0,0:0:0:0:
256,192,22121,1,0,0:0:0:0:
256,192,22496,1,8,0:0:0:0:
256,192,23246,1,0,0:0:0:0:
256,192,23996,1,0,0:0:0:0:
256,192,24746,1,0,0:0:0:0:
256,192,25121,1,8,0:0:0:0:
256,192,25496,1,8,0:0:0:0:
256,192,26058,1,0,0:0:0:0:
256,192,26621,1,0,0:0:0:0:
256,192,27746,1,0,0:0:0:0:
256,192,28121,1,0,0:0:0:0:
256,192,28496,1,0,0:0:0:0:
256,192,29058,1,0,0:0:0:0:
256,192,29621,1,0,0:0:0:0:
256,192,30746,1,8,0:0:0:0:
256,192,31121,1,0,0:0:0:0:
256,192,31496,1,8,0:0:0:0:
256,192,32058,1,0,0:0:0:0:
256,192,32621,1,0,0:0:0:0:
256,192,33183,1,0,0:0:0:0:
256,192,33746,1,0,0:0:0:0:
256,192,34121,1,0,0:0:0:0:
256,192,34496,2,0,L|396:192,4,139.999993157386
256,192,36371,1,8,0:0:0:0:
256,192,36933,1,8,0:0:0:0:
256,192,37496,1,4,0:0:0:0:
256,192,38996,1,4,0:0:0:0:
256,192,40496,1,12,0:0:0:0:
256,192,41246,12,0,43121,0:0:0:0:
256,192,43496,5,4,0:0:0:0:
256,192,44996,1,12,0:0:0:0:
256,192,46496,1,4,0:0:0:0:
256,192,47246,12,0,48746,0:0:0:0:
256,192,49496,5,4,0:0:0:0:
256,192,50996,1,4,0:0:0:0:
256,192,52496,1,12,0:0:0:0:
256,192,53246,12,0,55121,0:0:0:0:
256,192,55496,5,12,0:0:0:0:
256,192,56996,1,12,0:0:0:0:
256,192,58496,1,4,0:0:0:0:
256,192,58871,12,0,60746,0:0:0:0:
256,192,61496,5,8,0:0:0:0:
256,192,62246,1,8,0:0:0:0:
256,192,62996,1,8,0:0:0:0:
256,192,63746,1,8,0:0:0:0:
256,192,64121,1,8,0:0:0:0:
256,192,64496,1,8,0:0:0:0:
256,192,65246,1,8,0:0:0:0:
256,192,65996,1,8,0:0:0:0:
256,192,66746,1,8,0:0:0:0:
256,192,67496,1,8,0:0:0:0:
256,192,67871,1,0,0:0:0:0:
256,192,68246,1,8,0:0:0:0:
256,192,68996,1,8,0:0:0:0:
256,192,69371,1,0,0:0:0:0:
256,192,69746,1,8,0:0:0:0:
256,192,70496,1,8,0:0:0:0:
256,192,70871,1,8,0:0:0:0:
256,192,71246,1,8,0:0:0:0:
256,192,71621,1,8,0:0:0:0:
256,192,71996,1,0,0:0:0:0:
256,192,73121,1,8,0:0:0:0:
256,192,73496,1,0,0:0:0:0:
256,192,74246,1,8,0:0:0:0:
256,192,74996,1,0,0:0:0:0:
256,192,75746,1,8,0:0:0:0:
256,192,76496,1,0,0:0:0:0:
256,192,77246,1,8,0:0:0:0:
256,192,77996,1,0,0:0:0:0:
256,192,78746,1,8,0:0:0:0:
256,192,79121,1,8,0:0:0:0:
256,192,79496,1,0,0:0:0:0:
256,192,80246,1,8,0:0:0:0:
256,192,80996,1,0,0:0:0:0:
256,192,81746,1,8,0:0:0:0:
256,192,82121,1,0,0:0:0:0:
256,192,82496,1,12,0:0:0:0:
256,192,83246,1,8,0:0:0:0:
256,192,83996,1,0,0:0:0:0:
256,192,84371,1,0,0:0:0:0:
256,192,84746,1,8,0:0:0:0:
256,192,85121,1,0,0:0:0:0:
256,192,85496,1,0,0:0:0:0:
256,192,87746,1,0,0:0:0:0:
256,192,88121,1,8,0:0:0:0:
256,192,88496,1,0,0:0:0:0:
256,192,89246,1,8,0:0:0:0:
256,192,89996,1,0,0:0:0:0:
256,192,90746,1,8,0:0:0:0:
256,192,91121,1,8,0:0:0:0:
256,192,91496,1,0,0:0:0:0:
256,192,92246,1,8,0:0:0:0:
256,192,92996,1,0,0:0:0:0:
256,192,93746,1,8,0:0:0:0:
256,192,94121,1,0,0:0:0:0:
256,192,94496,1,12,0:0:0:0:
256,192,95246,1,8,0:0:0:0:
256,192,95996,1,0,0:0:0:0:
256,192,96746,1,8,0:0:0:0:
256,192,97496,1,0,0:0:0:0:
256,192,98246,1,8,0:0:0:0:
256,192,98996,1,8,0:0:0:0:
256,192,99746,1,8,0:0:0:0:
256,192,100121,1,8,0:0:0:0:
256,192,100496,1,8,0:0:0:0:
256,192,101246,1,8,0:0:0:0:
256,192,101996,1,8,0:0:0:0:
256,192,102746,1,8,0:0:0:0:
256,192,103121,1,0,0:0:0:0:
256,192,103496,1,8,0:0:0:0:
256,192,104246,1,8,0:0:0:0:
256,192,104621,1,0,0:0:0:0:
256,192,104996,1,8,0:0:0:0:
256,192,105746,1,8,0:0:0:0:
256,192,106121,1,8,0:0:0:0:
256,192,106496,1,8,0:0:0:0:
256,192,107246,1,8,0:0:0:0:
256,192,107621,1,8,0:0:0:0:
256,192,107996,1,0,0:0:0:0:
256,192,109121,1,8,0:0:0:0:
256,192,109496,1,0,0:0:0:0:
256,192,110246,1,8,0:0:0:0:
256,192,110808,1,0,0:0:0:0:
256,192,111371,1,0,0:0:0:0:
256,192,111746,1,8,0:0:0:0:
256,192,112496,1,0,0:0:0:0:
256,192,113246,1,8,0:0:0:0:
256,192,113808,1,0,0:0:0:0:
256,192,114371,1,0,0:0:0:0:
256,192,114746,1,8,0:0:0:0:
256,192,115496,1,0,0:0:0:0:
256,192,116246,1,8,0:0:0:0:
256,192,116621,1,0,0:0:0:0:
256,192,117371,1,0,0:0:0:0:
256,192,117746,1,8,0:0:0:0:
256,192,118496,1,8,0:0:0:0:
256,192,119246,1,8,0:0:0:0:
256,192,119996,1,0,0:0:0:0:
256,192,120371,1,0,0:0:0:0:
256,192,120746,1,8,0:0:0:0:
256,192,121496,1,0,0:0:0:0:
256,192,122246,1,8,0:0:0:0:
256,192,122808,1,0,0:0:0:0:
256,192,123371,1,0,0:0:0:0:
256,192,123746,1,8,0:0:0:0:
256,192,124496,1,0,0:0:0:0:
256,192,125246,1,8,0:0:0:0:
256,192,125808,1,0,0:0:0:0:
256,192,126371,1,0,0:0:0:0:
256,192,126746,1,8,0:0:0:0:
256,192,127121,1,0,0:0:0:0:
256,192,127496,1,8,0:0:0:0:
256,192,128246,1,8,0:0:0:0:
256,192,128808,1,0,0:0:0:0:
256,192,129371,1,0,0:0:0:0:
256,192,129746,1,8,0:0:0:0:
256,192,130496,1,0,0:0:0:0:
256,192,131246,1,8,0:0:0:0:
256,192,131996,12,0,133496,0:0:0:0:
256,192,145496,5,8,0:0:0:0:
256,192,146058,1,0,0:0:0:0:
256,192,146621,1,0,0:0:0:0:
256,192,147183,1,0,0:0:0:0:
256,192,147746,1,8,0:0:0:0:
256,192,148121,1,0,0:0:0:0:
256,192,148496,1,0,0:0:0:0:
256,192,149058,1,0,0:0:0:0:
256,192,149621,1,0,0:0:0:0:
256,192,150183,1,8,0:0:0:0:
256,192,150746,1,0,0:0:0:0:
256,192,151121,1,0,0:0:0:0:
256,192,151496,1,8,0:0:0:0:
256,192,152058,1,8,0:0:0:0:
256,192,152621,1,8,0:0:0:0:
256,192,153183,1,0,0:0:0:0:
256,192,153746,1,8,0:0:0:0:
256,192,154496,2,0,L|396:192,4,139.999993157386
256,192,156371,1,8,0:0:0:0:
256,192,156933,1,8,0:0:0:0:
256,192,157496,1,4,0:0:0:0:
256,192,158996,1,4,0:0:0:0:
256,192,160496,1,12,0:0:0:0:
256,192,161246,12,0,163121,0:0:0:0:
256,192,163496,5,4,0:0:0:0:
256,192,164996,1,12,0:0:0:0:
256,192,166496,1,4,0:0:0:0:
256,192,167246,12,0,168746,0:0:0:0:
256,192,169871,5,8,0:0:0:0:
256,192,170621,1,8,0:0:0:0:
256,192,171371,1,8,0:0:0:0:
256,192,172121,1,8,0:0:0:0:
256,192,172496,1,8,0:0:0:0:
256,192,172871,1,8,0:0:0:0:
256,192,173621,1,8,0:0:0:0:
256,192,174371,1,8,0:0:0:0:
256,192,175121,1,8,0:0:0:0:
256,192,175871,1,8,0:0:0:0:
256,192,176246,1,0,0:0:0:0:
256,192,176621,1,8,0:0:0:0:
256,192,177371,1,8,0:0:0:0:
256,192,177746,1,0,0:0:0:0:
256,192,178121,1,8,0:0:0:0:
256,192,178496,2,0,L|336:192,8,69.999998748302
256,192,181121,1,8,0:0:0:0:
256,192,181496,1,0,0:0:0:0:
256,192,182246,1,8,0:0:0:0:
256,192,182996,1,0,0:0:0:0:
256,192,183746,1,8,0:0:0:0:
256,192,184496,1,0,0:0:0:0:
256,192,185246,1,8,0:0:0:0:
256,192,185996,1,0,0:0:0:0:
256,192,186746,1,8,0:0:0:0:
256,192,187496,1,0,0:0:0:0:
256,192,188246,1,8,0:0:0:0:
256,192,188996,1,0,0:0:0:0:
256,192,189746,1,8,0:0:0:0:
256,192,190121,1,0,0:0:0:0:
256,192,190496,1,12,0:0:0:0:
256,192,191246,1,8,0:0:0:0:
256,192,191996,1,0,0:0:0:0:
256,192,192371,1,0,0:0:0:0:
256,192,192746,1,8,0:0:0:0:
256,192,193496,1,0,0:0:0:0:
256,192,194246,1,8,0:0:0:0:
256,192,194996,1,0,0:0:0:0:
256,192,195746,1,8,0:0:0:0:
256,192,196496,1,0,0:0:0:0:
256,192,197246,1,8,0:0:0:0:
256,192,197996,1,0,0:0:0:0:
256,192,198746,1,8,0:0:0:0:
256,192,199121,1,0,0:0:0:0:
256,192,199496,1,0,0:0:0:0:
256,192,200246,1,8,0:0:0:0:
256,192,200996,1,0,0:0:0:0:
256,192,201746,1,8,0:0:0:0:
256,192,202496,1,0,0:0:0:0:
256,192,203246,1,8,0:0:0:0:
256,192,203996,1,0,0:0:0:0:
256,192,204746,1,8,0:0:0:0:
256,192,205496,1,0,0:0:0:0:
