osu file format v14

[General]
AudioFilename: audio.mp3
AudioLeadIn: 0
PreviewTime: 73496
Countdown: 0
SampleSet: Normal
StackLeniency: 0.7
Mode: 1
LetterboxInBreaks: 0
WidescreenStoryboard: 0

[Editor]
DistanceSpacing: 2.6
BeatDivisor: 4
GridSize: 32
TimelineZoom: 2

[Metadata]
Title:BAMF
TitleUnicode:BAMF
Artist:Pegboard Nerds
ArtistUnicode:Pegboard Nerds
Creator:Dargin
Version:Oni
Source:
Tags:Monstercat Ayyri Nerds By Nature EP MCEP109
BeatmapID:1099907
BeatmapSetID:517687

[Difficulty]
HPDrainRate:6
CircleSize:2
OverallDifficulty:6
ApproachRate:10
SliderMultiplier:1.4
SliderTickRate:1

[Events]
//Background and Video events
0,0,"pegNerds768p.jpg",0,0
//Break Periods
//Storyboard Layer 0 (Background)
//Storyboard Layer 1 (Fail)
//Storyboard Layer 2 (Pass)
//Storyboard Layer 3 (Foreground)
//Storyboard Sound Samples

[TimingPoints]
13496.3854379998,375,4,1,0,100,1,0
34472,-100,4,1,0,100,0,0
43215,-100,4,1,0,100,0,0
48558,-100,4,1,0,100,0,0
55215,-100,4,1,0,100,0,0
60933,-100,4,1,0,100,0,0
73472,-80,4,1,0,100,0,1
96840,-100,4,1,0,100,0,0
109496,-80,4,1,0,100,0,1
131340,-80,4,1,0,70,0,1
132090,-80,4,1,0,50,0,1
132465,-80,4,1,0,40,0,1
132652,-80,4,1,0,30,0,1
132840,-80,4,1,0,20,0,1
133027,-80,4,1,0,10,0,1
133215,-80,4,1,0,5,0,1
133496,-133.333333333333,4,1,0,100,0,0
151215,-100,4,1,0,100,0,0
157777,-100,4,1,0,65,0,0
158715,-100,4,1,0,100,0,0
159465,-100,4,1,0,65,0,0
160402,-100,4,1,0,100,0,0
163777,-100,4,1,0,65,0,0
164902,-100,4,1,0,100,0,0
165121,-100,4,1,0,65,0,0
166371,-100,4,1,0,100,0,0
181496,-80,4,1,0,100,0,1
205496,-80,4,1,0,100,0,0

[HitObjects]
256,192,13496,5,8,0:0:0:0:
256,192,13683,1,0,0:0:0:0:
256,192,13871,1,8,0:0:0:0:
256,192,14058,1,0,0:0:0:0:
256,192,14246,1,8,0:0:0:0:
256,192,14433,1,0,0:0:0:0:
256,192,14621,1,8,0:0:0:0:
256,192,14808,1,0,0:0:0:0:
256,192,14902,1,8,0:0:0:0:
256,192,14996,1,8,0:0:0:0:
256,192,15371,1,8,0:0:0:0:
256,192,15558,1,0,0:0:0:0:
256,192,15746,1,8,0:0:0:0:
256,192,15933,1,0,0:0:0:0:
256,192,16121,1,8,0:0:0:0:
256,192,16215,1,8,0:0:0:0:
256,192,16308,1,0,0:0:0:0:
256,192,16402,1,8,0:0:0:0:
256,192,16496,1,8,0:0:0:0:
256,192,16871,1,8,0:0:0:0:
256,192,17058,1,0,0:0:0:0:
256,192,17246,1,8,0:0:0:0:
256,192,17433,1,0,0:0:0:0:
256,192,17621,1,8,0:0:0:0:
256,192,17808,1,0,0:0:0:0:
256,192,17902,1,8,0:0:0:0:
256,192,17996,1,8,0:0:0:0:
256,192,18371,1,8,0:0:0:0:
256,192,18558,1,0,0:0:0:0:
256,192,18746,1,8,0:0:0:0:
256,192,18933,1,0,0:0:0:0:
256,192,19121,1,8,0:0:0:0:
256,192,19308,1,0,0:0:0:0:
256,192,19402,1,0,0:0:0:0:
256,192,19496,1,8,0:0:0:0:
256,192,19871,1,8,0:0:0:0:
256,192,20058,1,0,0:0:0:0:
256,192,20246,1,8,0:0:0:0:
256,192,20433,1,0,0:0:0:0:
256,192,20621,1,8,0:0:0:0:
256,192,20715,1,0,0:0:0:0:
256,192,20808,1,0,0:0:0:0:
256,192,20902,1,8,0:0:0:0:
256,192,20996,1,8,0:0:0:0:
256,192,21371,1,8,0:0:0:0:
256,192,21558,1,0,0:0:0:0:
256,192,21746,1,8,0:0:0:0:
256,192,21933,1,0,0:0:0:0:
256,192,22121,1,8,0:0:0:0:
256,192,22308,1,0,0:0:0:0:
256,192,22402,1,0,0:0:0:0:
256,192,22496,1,8,0:0:0:0:
256,192,22871,1,8,0:0:0:0:
256,192,23058,1,0,0:0:0:0:
256,192,23246,1,8,0:0:0:0:
256,192,23433,1,0,0:0:0:0:
256,192,23621,1,8,0:0:0:0:
256,192,23715,1,8,0:0:0:0:
256,192,23808,1,0,0:0:0:0:
256,192,23902,1,0,0:0:0:0:
256,192,23996,1,8,0:0:0:0:
256,192,24371,1,8,0:0:0:0:
256,192,24558,1,0,0:0:0:0:
256,192,24746,1,8,0:0:0:0:
256,192,24933,1,0,0:0:0:0:
256,192,25121,1,0,0:0:0:0:
256,192,25215,1,0,0:0:0:0:
256,192,25308,1,0,0:0:0:0:
256,192,25402,1,0,0:0:0:0:
256,192,25496,5,8,0:0:0:0:
256,192,26058,1,0,0:0:0:0:
256,192,26621,1,0,0:0:0:0:
256,192,27183,1,0,0:0:0:0:
256,192,27746,1,0,0:0:0:0:
256,192,28121,1,0,0:0:0:0:
256,192,28496,1,0,0:0:0:0:
256,192,29058,1,0,0:0:0:0:
256,192,29621,1,0,0:0:0:0:
256,192,30183,1,0,0:0:0:0:
256,192,30746,1,8,0:0:0:0:
256,192,31121,1,0,0:0:0:0:
256,192,31496,1,8,0:0:0:0:
256,192,31683,1,0,0:0:0:0:
256,192,31871,1,0,0:0:0:0:
256,192,32058,1,8,0:0:0:0:
256,192,32246,1,0,0:0:0:0:
256,192,32433,1,0,0:0:0:0:
256,192,32621,1,8,0:0:0:0:
256,192,32808,1,0,0:0:0:0:
256,192,32996,1,0,0:0:0:0:
256,192,33183,1,8,0:0:0:0:
256,192,33371,1,0,0:0:0:0:
256,192,33558,1,0,0:0:0:0:
256,192,33746,1,8,0:0:0:0:
256,192,33933,1,0,0:0:0:0:
256,192,34121,1,8,0:0:0:0:
256,192,34308,1,0,0:0:0:0:
256,192,34496,1,8,0:0:0:0:
256,192,34683,1,0,0:0:0:0:
256,192,34777,1,0,0:0:0:0:
256,192,34871,1,8,0:0:0:0:
256,192,35058,1,0,0:0:0:0:
256,192,35152,1,0,0:0:0:0:
256,192,35246,1,8,0:0:0:0:
256,192,35433,1,0,0:0:0:0:
256,192,35527,1,0,0:0:0:0:
256,192,35621,1,8,0:0:0:0:
256,192,35715,1,0,0:0:0:0:
256,192,35808,1,8,0:0:0:0:
256,192,35902,1,8,0:0:0:0:
256,192,35996,1,0,0:0:0:0:
256,192,36183,1,8,0:0:0:0:
256,192,36277,1,8,0:0:0:0:
256,192,36371,1,0,0:0:0:0:
256,192,36558,1,0,0:0:0:0:
256,192,36652,1,8,0:0:0:0:
256,192,36840,1,8,0:0:0:0:
256,192,36933,1,8,0:0:0:0:
256,192,37121,1,0,0:0:0:0:
256,192,37308,1,8,0:0:0:0:
256,192,37496,1,4,0:0:0:0:
256,192,38996,1,4,0:0:0:0:
256,192,40496,1,12,0:0:0:0:
256,192,41246,12,0,43121,0:0:0:0:
256,192,43496,5,4,0:0:0:0:
256,192,44996,1,12,0:0:0:0:
256,192,46496,1,4,0:0:0:0:
256,192,47246,12,0,48558,0:0:0:0:
256,192,49027,5,8,0:0:0:0:
256,192,49121,1,8,0:0:0:0:
256,192,49215,1,0,0:0:0:0:
256,192,49308,1,0,0:0:0:0:
256,192,49496,1,4,0:0:0:0:
256,192,49871,1,8,0:0:0:0:
256,192,50246,1,8,0:0:0:0:
256,192,50433,1,0,0:0:0:0:
256,192,50527,1,0,0:0:0:0:
256,192,50621,1,8,0:0:0:0:
256,192,50808,1,0,0:0:0:0:
256,192,50996,1,12,0:0:0:0:
256,192,51558,1,0,0:0:0:0:
256,192,51652,1,0,0:0:0:0:
256,192,51746,1,8,0:0:0:0:
256,192,51840,1,0,0:0:0:0:
256,192,51933,1,8,0:0:0:0:
256,192,52121,1,8,0:0:0:0:
256,192,52308,1,0,0:0:0:0:
256,192,52496,1,12,0:0:0:0:
256,192,53058,12,0,55121,0:0:0:0:
256,192,55496,5,4,0:0:0:0:
256,192,55871,1,8,0:0:0:0:
256,192,56246,1,8,0:0:0:0:
256,192,56433,1,0,0:0:0:0:
256,192,56527,1,0,0:0:0:0:
256,192,56621,1,8,0:0:0:0:
256,192,56808,1,0,0:0:0:0:
256,192,56996,1,12,0:0:0:0:
256,192,57183,1,0,0:0:0:0:
256,192,57277,1,0,0:0:0:0:
256,192,57371,1,8,0:0:0:0:
256,192,57558,1,8,0:0:0:0:
256,192,57652,1,0,0:0:0:0:
256,192,57746,1,8,0:0:0:0:
256,192,57840,1,0,0:0:0:0:
256,192,57933,1,8,0:0:0:0:
256,192,58121,1,8,0:0:0:0:
256,192,58308,1,0,0:0:0:0:
256,192,58496,1,4,0:0:0:0:
256,192,58683,12,0,60746,0:0:0:0:
256,192,61027,5,8,0:0:0:0:
256,192,61121,1,0,0:0:0:0:
256,192,61308,1,0,0:0:0:0:
256,192,61496,1,12,0:0:0:0:
256,192,61683,1,0,0:0:0:0:
256,192,61777,1,0,0:0:0:0:
256,192,61871,1,8,0:0:0:0:
256,192,62058,1,0,0:0:0:0:
256,192,62246,1,8,0:0:0:0:
256,192,62433,1,0,0:0:0:0:
256,192,62621,1,8,0:0:0:0:
256,192,62715,1,8,0:0:0:0:
256,192,62808,1,0,0:0:0:0:
256,192,62902,1,0,0:0:0:0:
256,192,62996,1,8,0:0:0:0:
256,192,63183,1,0,0:0:0:0:
256,192,63277,1,0,0:0:0:0:
256,192,63371,1,8,0:0:0:0:
256,192,63558,1,0,0:0:0:0:
256,192,63746,1,8,0:0:0:0:
256,192,63933,1,0,0:0:0:0:
256,192,64027,1,0,0:0:0:0:
256,192,64121,1,8,0:0:0:0:
256,192,64308,1,8,0:0:0:0:
256,192,64496,1,8,0:0:0:0:
256,192,64683,1,0,0:0:0:0:
256,192,64777,1,0,0:0:0:0:
256,192,64871,1,8,0:0:0:0:
256,192,65058,1,0,0:0:0:0:
256,192,65246,1,8,0:0:0:0:
256,192,65433,1,0,0:0:0:0:
256,192,65621,1,8,0:0:0:0:
256,192,65715,1,0,0:0:0:0:
256,192,65808,1,0,0:0:0:0:
256,192,65902,1,0,0:0:0:0:
256,192,65996,1,8,0:0:0:0:
256,192,66183,1,0,0:0:0:0:
256,192,66277,1,0,0:0:0:0:
256,192,66371,1,8,0:0:0:0:
256,192,66558,1,0,0:0:0:0:
256,192,66746,1,8,0:0:0:0:
256,192,66933,1,0,0:0:0:0:
256,192,67027,1,0,0:0:0:0:
256,192,67121,1,8,0:0:0:0:
256,192,67308,1,8,0:0:0:0:
256,192,67496,1,0,0:0:0:0:
256,192,67683,1,8,0:0:0:0:
256,192,67777,1,8,0:0:0:0:
256,192,67871,1,0,0:0:0:0:
256,192,68058,1,8,0:0:0:0:
256,192,68246,1,0,0:0:0:0:
256,192,68433,1,8,0:0:0:0:
256,192,68527,1,8,0:0:0:0:
256,192,68621,1,0,0:0:0:0:
256,192,68808,1,8,0:0:0:0:
256,192,68996,1,0,0:0:0:0:
256,192,69183,1,8,0:0:0:0:
256,192,69277,1,8,0:0:0:0:
256,192,69371,1,0,0:0:0:0:
256,192,69558,1,8,0:0:0:0:
256,192,69746,1,0,0:0:0:0:
256,192,69933,1,8,0:0:0:0:
256,192,70027,1,8,0:0:0:0:
256,192,70121,1,0,0:0:0:0:
256,192,70308,1,8,0:0:0:0:
256,192,70496,1,8,0:0:0:0:
256,192,70590,1,8,0:0:0:0:
256,192,70683,1,0,0:0:0:0:
256,192,70777,1,0,0:0:0:0:
256,192,70871,1,8,0:0:0:0:
256,192,71058,1,0,0:0:0:0:
256,192,71152,1,0,0:0:0:0:
256,192,71246,1,8,0:0:0:0:
256,192,71340,1,8,0:0:0:0:
256,192,71433,1,0,0:0:0:0:
256,192,71527,1,0,0:0:0:0:
256,192,71621,1,8,0:0:0:0:
256,192,71808,1,0,0:0:0:0:
256,192,71996,1,8,0:0:0:0:
256,192,72183,5,0,0:0:0:0:
256,192,72277,1,0,0:0:0:0:
256,192,72371,1,8,0:0:0:0:
256,192,72558,1,8,0:0:0:0:
256,192,72652,1,0,0:0:0:0:
256,192,72746,1,8,0:0:0:0:
256,192,72840,1,0,0:0:0:0:
256,192,72933,1,8,0:0:0:0:
256,192,73121,1,12,0:0:0:0:
256,192,73496,1,4,0:0:0:0:
256,192,73871,1,8,0:0:0:0:
256,192,74246,1,4,0:0:0:0:
256,192,74433,1,8,0:0:0:0:
256,192,74527,1,0,0:0:0:0:
256,192,74621,1,8,0:0:0:0:
256,192,74996,1,4,0:0:0:0:
256,192,75183,1,8,0:0:0:0:
256,192,75277,1,0,0:0:0:0:
256,192,75371,1,8,0:0:0:0:
256,192,75558,1,8,0:0:0:0:
256,192,75652,1,0,0:0:0:0:
256,192,75746,1,8,0:0:0:0:
256,192,75840,1,8,0:0:0:0:
256,192,75933,1,8,0:0:0:0:
256,192,76121,1,8,0:0:0:0:
256,192,76308,1,0,0:0:0:0:
256,192,76496,1,4,0:0:0:0:
256,192,76871,1,8,0:0:0:0:
256,192,77058,1,8,0:0:0:0:
256,192,77152,1,0,0:0:0:0:
256,192,77246,1,8,0:0:0:0:
256,192,77433,1,8,0:0:0:0:
256,192,77527,1,0,0:0:0:0:
256,192,77621,1,8,0:0:0:0:
256,192,77996,1,4,0:0:0:0:
256,192,78183,1,8,0:0:0:0:
256,192,78277,1,0,0:0:0:0:
256,192,78371,1,8,0:0:0:0:
256,192,78558,1,8,0:0:0:0:
256,192,78652,1,0,0:0:0:0:
256,192,78746,1,12,0:0:0:0:
256,192,79121,1,12,0:0:0:0:
256,192,79496,1,4,0:0:0:0:
256,192,79871,1,8,0:0:0:0:
256,192,80246,1,4,0:0:0:0:
256,192,80433,1,8,0:0:0:0:
256,192,80527,1,0,0:0:0:0:
256,192,80621,1,8,0:0:0:0:
256,192,80996,1,4,0:0:0:0:
256,192,81183,1,8,0:0:0:0:
256,192,81277,1,0,0:0:0:0:
256,192,81371,1,8,0:0:0:0:
256,192,81558,1,8,0:0:0:0:
256,192,81652,1,0,0:0:0:0:
256,192,81746,1,8,0:0:0:0:
256,192,81840,1,8,0:0:0:0:
256,192,81933,1,8,0:0:0:0:
256,192,82121,1,8,0:0:0:0:
256,192,82308,1,0,0:0:0:0:
256,192,82496,1,12,0:0:0:0:
256,192,82683,1,0,0:0:0:0:
256,192,82871,1,0,0:0:0:0:
256,192,83058,1,0,0:0:0:0:
256,192,83246,1,12,0:0:0:0:
256,192,83433,1,0,0:0:0:0:
256,192,83621,1,0,0:0:0:0:
256,192,83808,1,0,0:0:0:0:
256,192,83996,1,12,0:0:0:0:
256,192,84183,1,0,0:0:0:0:
256,192,84371,1,4,0:0:0:0:
256,192,84558,1,4,0:0:0:0:
256,192,84746,1,12,0:0:0:0:
256,192,85121,5,4,0:0:0:0:
256,192,85496,1,4,0:0:0:0:
256,192,85871,1,8,0:0:0:0:
256,192,85965,1,8,0:0:0:0:
256,192,86058,1,8,0:0:0:0:
256,192,86152,1,8,0:0:0:0:
256,192,86246,1,0,0:0:0:0:
256,192,86340,1,0,0:0:0:0:
256,192,86433,1,0,0:0:0:0:
256,192,86527,1,0,0:0:0:0:
256,192,86621,1,8,0:0:0:0:
256,192,86996,1,8,0:0:0:0:
256,192,87090,1,0,0:0:0:0:
256,192,87183,1,0,0:0:0:0:
256,192,87277,1,0,0:0:0:0:
256,192,87371,1,0,0:0:0:0:
256,192,87465,1,8,0:0:0:0:
256,192,87558,1,8,0:0:0:0:
256,192,87652,1,8,0:0:0:0:
256,192,87746,1,8,0:0:0:0:
256,192,87933,1,8,0:0:0:0:
256,192,88027,1,8,0:0:0:0:
256,192,88121,1,0,0:0:0:0:
256,192,88215,1,0,0:0:0:0:
256,192,88308,1,0,0:0:0:0:
256,192,88496,1,4,0:0:0:0:
256,192,88871,1,8,0:0:0:0:
256,192,88965,1,8,0:0:0:0:
256,192,89058,1,0,0:0:0:0:
256,192,89152,1,8,0:0:0:0:
256,192,89246,1,8,0:0:0:0:
256,192,89340,1,0,0:0:0:0:
256,192,89433,1,8,0:0:0:0:
256,192,89527,1,8,0:0:0:0:
256,192,89621,1,8,0:0:0:0:
256,192,89996,1,0,0:0:0:0:
256,192,90090,1,8,0:0:0:0:
256,192,90183,1,8,0:0:0:0:
256,192,90277,1,0,0:0:0:0:
256,192,90371,1,0,0:0:0:0:
256,192,90465,1,8,0:0:0:0:
256,192,90558,1,8,0:0:0:0:
256,192,90652,1,8,0:0:0:0:
256,192,90746,1,4,0:0:0:0:
256,192,91121,1,12,0:0:0:0:
256,192,91496,1,4,0:0:0:0:
256,192,91871,1,8,0:0:0:0:
256,192,92058,1,8,0:0:0:0:
256,192,92152,1,0,0:0:0:0:
256,192,92246,1,8,0:0:0:0:
256,192,92433,1,8,0:0:0:0:
256,192,92527,1,8,0:0:0:0:
256,192,92621,1,8,0:0:0:0:
256,192,92996,1,0,0:0:0:0:
256,192,93183,1,8,0:0:0:0:
256,192,93277,1,0,0:0:0:0:
256,192,93371,1,8,0:0:0:0:
256,192,93558,1,8,0:0:0:0:
256,192,93652,1,0,0:0:0:0:
256,192,93746,1,8,0:0:0:0:
256,192,93840,1,8,0:0:0:0:
256,192,93933,1,8,0:0:0:0:
256,192,94027,1,0,0:0:0:0:
256,192,94121,1,8,0:0:0:0:
256,192,94308,1,0,0:0:0:0:
256,192,94496,1,12,0:0:0:0:
256,192,94683,1,0,0:0:0:0:
256,192,94871,1,0,0:0:0:0:
256,192,95058,1,0,0:0:0:0:
256,192,95246,1,12,0:0:0:0:
256,192,95433,1,0,0:0:0:0:
256,192,95621,1,0,0:0:0:0:
256,192,95808,1,0,0:0:0:0:
256,192,95996,1,4,0:0:0:0:
256,192,96183,1,0,0:0:0:0:
256,192,96371,1,0,0:0:0:0:
256,192,96558,1,0,0:0:0:0:
256,192,96746,1,12,0:0:0:0:
256,192,97496,1,12,0:0:0:0:
256,192,97683,1,0,0:0:0:0:
256,192,97777,1,0,0:0:0:0:
256,192,97871,1,8,0:0:0:0:
256,192,98058,1,0,0:0:0:0:
256,192,98246,1,8,0:0:0:0:
256,192,98433,1,0,0:0:0:0:
256,192,98621,1,8,0:0:0:0:
256,192,98715,1,8,0:0:0:0:
256,192,98808,1,0,0:0:0:0:
256,192,98902,1,0,0:0:0:0:
256,192,98996,1,8,0:0:0:0:
256,192,99183,1,0,0:0:0:0:
256,192,99277,1,0,0:0:0:0:
256,192,99371,1,8,0:0:0:0:
256,192,99558,1,0,0:0:0:0:
256,192,99746,1,8,0:0:0:0:
256,192,99933,1,0,0:0:0:0:
256,192,100027,1,0,0:0:0:0:
256,192,100121,1,8,0:0:0:0:
256,192,100308,1,8,0:0:0:0:
256,192,100496,1,8,0:0:0:0:
256,192,100683,1,0,0:0:0:0:
256,192,100777,1,0,0:0:0:0:
256,192,100871,1,8,0:0:0:0:
256,192,101058,1,0,0:0:0:0:
256,192,101246,1,8,0:0:0:0:
256,192,101433,1,0,0:0:0:0:
256,192,101621,1,8,0:0:0:0:
256,192,101715,1,0,0:0:0:0:
256,192,101808,1,0,0:0:0:0:
256,192,101902,1,0,0:0:0:0:
256,192,101996,1,8,0:0:0:0:
256,192,102183,1,0,0:0:0:0:
256,192,102277,1,0,0:0:0:0:
256,192,102371,1,8,0:0:0:0:
256,192,102558,1,0,0:0:0:0:
256,192,102746,1,8,0:0:0:0:
256,192,102933,1,0,0:0:0:0:
256,192,103027,1,0,0:0:0:0:
256,192,103121,1,8,0:0:0:0:
256,192,103308,5,8,0:0:0:0:
256,192,103496,1,0,0:0:0:0:
256,192,103683,5,8,0:0:0:0:
256,192,103777,1,8,0:0:0:0:
256,192,103871,1,0,0:0:0:0:
256,192,104058,1,8,0:0:0:0:
256,192,104246,1,0,0:0:0:0:
256,192,104433,1,8,0:0:0:0:
256,192,104527,1,8,0:0:0:0:
256,192,104621,1,0,0:0:0:0:
256,192,104808,1,8,0:0:0:0:
256,192,104996,1,0,0:0:0:0:
256,192,105183,1,8,0:0:0:0:
256,192,105277,1,0,0:0:0:0:
256,192,105371,1,8,0:0:0:0:
256,192,105558,1,8,0:0:0:0:
256,192,105746,1,0,0:0:0:0:
256,192,105933,1,8,0:0:0:0:
256,192,106027,1,0,0:0:0:0:
256,192,106121,1,8,0:0:0:0:
256,192,106308,1,8,0:0:0:0:
256,192,106496,1,8,0:0:0:0:
256,192,106590,1,0,0:0:0:0:
256,192,106683,1,8,0:0:0:0:
256,192,106777,1,8,0:0:0:0:
256,192,106871,1,8,0:0:0:0:
256,192,107058,1,8,0:0:0:0:
256,192,107152,1,0,0:0:0:0:
256,192,107246,1,8,0:0:0:0:
256,192,107340,1,8,0:0:0:0:
256,192,107433,1,0,0:0:0:0:
256,192,107527,1,0,0:0:0:0:
256,192,107621,1,8,0:0:0:0:
256,192,107808,5,0,0:0:0:0:
256,192,107996,1,8,0:0:0:0:
256,192,108183,5,8,0:0:0:0:
256,192,108277,1,0,0:0:0:0:
256,192,108371,1,8,0:0:0:0:
256,192,108558,1,8,0:0:0:0:
256,192,108652,1,0,0:0:0:0:
256,192,108746,1,8,0:0:0:0:
256,192,108840,1,0,0:0:0:0:
256,192,108933,1,8,0:0:0:0:
256,192,109121,1,12,0:0:0:0:
256,192,109496,1,4,0:0:0:0:
256,192,109871,1,8,0:0:0:0:
256,192,110058,1,0,0:0:0:0:
256,192,110246,1,8,0:0:0:0:
256,192,110433,1,0,0:0:0:0:
256,192,110621,1,8,0:0:0:0:
256,192,110715,1,8,0:0:0:0:
256,192,110996,1,8,0:0:0:0:
256,192,111183,1,8,0:0:0:0:
256,192,111371,1,0,0:0:0:0:
256,192,111558,1,8,0:0:0:0:
256,192,111746,1,8,0:0:0:0:
256,192,111933,1,8,0:0:0:0:
256,192,112121,1,8,0:0:0:0:
256,192,112215,1,8,0:0:0:0:
256,192,112402,1,8,0:0:0:0:
256,192,112496,1,4,0:0:0:0:
256,192,112871,1,8,0:0:0:0:
256,192,113058,1,0,0:0:0:0:
256,192,113246,1,8,0:0:0:0:
256,192,113433,1,0,0:0:0:0:
256,192,113621,1,8,0:0:0:0:
256,192,113715,1,0,0:0:0:0:
256,192,113902,1,8,0:0:0:0:
256,192,113996,1,0,0:0:0:0:
256,192,114090,1,8,0:0:0:0:
256,192,114183,1,0,0:0:0:0:
256,192,114371,1,8,0:0:0:0:
256,192,114465,1,8,0:0:0:0:
256,192,114652,1,8,0:0:0:0:
256,192,114746,1,0,0:0:0:0:
256,192,114933,1,0,0:0:0:0:
256,192,115121,1,8,0:0:0:0:
256,192,115215,1,8,0:0:0:0:
256,192,115402,1,8,0:0:0:0:
256,192,115496,1,4,0:0:0:0:
256,192,115871,1,0,0:0:0:0:
256,192,116058,1,0,0:0:0:0:
256,192,116246,1,8,0:0:0:0:
256,192,116433,1,0,0:0:0:0:
256,192,116621,1,8,0:0:0:0:
256,192,116715,1,0,0:0:0:0:
256,192,116996,1,8,0:0:0:0:
256,192,117183,1,0,0:0:0:0:
256,192,117371,1,0,0:0:0:0:
256,192,117558,1,0,0:0:0:0:
256,192,117746,1,8,0:0:0:0:
256,192,117933,1,0,0:0:0:0:
256,192,118121,1,0,0:0:0:0:
256,192,118215,1,0,0:0:0:0:
256,192,118402,1,0,0:0:0:0:
256,192,118496,1,12,0:0:0:0:
256,192,118683,1,0,0:0:0:0:
256,192,118871,1,0,0:0:0:0:
256,192,119058,1,0,0:0:0:0:
256,192,119246,1,12,0:0:0:0:
256,192,119433,1,0,0:0:0:0:
256,192,119621,1,0,0:0:0:0:
256,192,119808,1,0,0:0:0:0:
256,192,119996,1,4,0:0:0:0:
256,192,120183,1,0,0:0:0:0:
256,192,120371,1,4,0:0:0:0:
256,192,120558,1,4,0:0:0:0:
256,192,120746,1,12,0:0:0:0:
256,192,120933,1,8,0:0:0:0:
256,192,121027,1,8,0:0:0:0:
256,192,121121,1,0,0:0:0:0:
256,192,121308,1,0,0:0:0:0:
256,192,121496,1,4,0:0:0:0:
256,192,122246,1,8,0:0:0:0:
256,192,122496,1,0,0:0:0:0:
256,192,122621,1,8,0:0:0:0:
256,192,122871,1,0,0:0:0:0:
256,192,122996,1,8,0:0:0:0:
256,192,123246,1,0,0:0:0:0:
256,192,123371,1,8,0:0:0:0:
256,192,123621,1,8,0:0:0:0:
256,192,123746,1,8,0:0:0:0:
256,192,123996,1,8,0:0:0:0:
256,192,124121,1,8,0:0:0:0:
256,192,124371,1,8,0:0:0:0:
256,192,124496,1,4,0:0:0:0:
256,192,124871,1,8,0:0:0:0:
256,192,125121,1,0,0:0:0:0:
256,192,125246,1,8,0:0:0:0:
256,192,125496,1,0,0:0:0:0:
256,192,125621,1,8,0:0:0:0:
256,192,125871,1,8,0:0:0:0:
256,192,125996,1,8,0:0:0:0:
256,192,126246,1,8,0:0:0:0:
256,192,126371,1,8,0:0:0:0:
256,192,126621,1,8,0:0:0:0:
256,192,126746,1,4,0:0:0:0:
256,192,127121,1,8,0:0:0:0:
256,192,127246,1,8,0:0:0:0:
256,192,127371,1,8,0:0:0:0:
256,192,127496,1,4,0:0:0:0:
256,192,127871,1,0,0:0:0:0:
256,192,128121,1,0,0:0:0:0:
256,192,128246,1,8,0:0:0:0:
256,192,128496,1,8,0:0:0:0:
256,192,128621,1,0,0:0:0:0:
256,192,128871,1,8,0:0:0:0:
256,192,128996,1,0,0:0:0:0:
256,192,129246,1,8,0:0:0:0:
256,192,129371,1,0,0:0:0:0:
256,192,129621,1,8,0:0:0:0:
256,192,129746,1,0,0:0:0:0:
256,192,129996,1,0,0:0:0:0:
256,192,130121,1,8,0:0:0:0:
256,192,130371,1,8,0:0:0:0:
256,192,130496,1,4,0:0:0:0:
256,192,130683,1,0,0:0:0:0:
256,192,130871,1,0,0:0:0:0:
256,192,131058,1,0,0:0:0:0:
256,192,131246,1,12,0:0:0:0:
256,192,131433,1,0,0:0:0:0:
256,192,131621,1,0,0:0:0:0:
256,192,131808,1,0,0:0:0:0:
256,192,131996,1,8,0:0:0:0:
256,192,132183,1,0,0:0:0:0:
256,192,132371,1,0,0:0:0:0:
256,192,132558,1,0,0:0:0:0:
256,192,132746,1,0,0:0:0:0:
256,192,132933,1,0,0:0:0:0:
256,192,133121,1,0,0:0:0:0:
256,192,133308,1,0,0:0:0:0:
256,192,133496,12,0,145121,0:0:0:0:
256,192,145496,5,12,0:0:0:0:
256,192,146058,1,0,0:0:0:0:
256,192,146621,1,0,0:0:0:0:
256,192,147183,1,8,0:0:0:0:
256,192,147746,1,8,0:0:0:0:
256,192,148121,1,8,0:0:0:0:
256,192,148496,1,0,0:0:0:0:
256,192,149058,1,0,0:0:0:0:
256,192,149621,1,0,0:0:0:0:
256,192,150183,1,8,0:0:0:0:
256,192,150746,1,0,0:0:0:0:
256,192,151121,1,0,0:0:0:0:
256,192,151496,1,8,0:0:0:0:
256,192,151683,1,0,0:0:0:0:
256,192,151871,1,0,0:0:0:0:
256,192,152058,1,8,0:0:0:0:
256,192,152246,1,0,0:0:0:0:
256,192,152433,1,0,0:0:0:0:
256,192,152621,1,8,0:0:0:0:
256,192,152808,1,0,0:0:0:0:
256,192,152996,1,0,0:0:0:0:
256,192,153183,1,0,0:0:0:0:
256,192,153371,1,0,0:0:0:0:
256,192,153558,1,0,0:0:0:0:
256,192,153746,1,8,0:0:0:0:
256,192,153933,1,8,0:0:0:0:
256,192,154121,1,8,0:0:0:0:
256,192,154308,1,8,0:0:0:0:
256,192,154496,1,8,0:0:0:0:
256,192,154683,1,0,0:0:0:0:
256,192,154777,1,0,0:0:0:0:
256,192,154871,1,8,0:0:0:0:
256,192,155058,1,0,0:0:0:0:
256,192,155152,1,0,0:0:0:0:
256,192,155246,1,8,0:0:0:0:
256,192,155433,1,0,0:0:0:0:
256,192,155527,1,0,0:0:0:0:
256,192,155621,1,8,0:0:0:0:
256,192,155715,1,0,0:0:0:0:
256,192,155808,1,8,0:0:0:0:
256,192,155902,1,8,0:0:0:0:
256,192,155996,1,0,0:0:0:0:
256,192,156183,1,8,0:0:0:0:
256,192,156277,1,8,0:0:0:0:
256,192,156371,1,0,0:0:0:0:
256,192,156558,1,0,0:0:0:0:
256,192,156652,1,8,0:0:0:0:
256,192,156840,1,8,0:0:0:0:
256,192,156933,1,8,0:0:0:0:
256,192,157121,1,0,0:0:0:0:
256,192,157308,1,8,0:0:0:0:
256,192,157496,5,4,0:0:0:0:
256,192,157871,5,8,0:0:0:0:
256,192,158246,1,8,0:0:0:0:
256,192,158433,1,8,0:0:0:0:
256,192,158527,1,0,0:0:0:0:
256,192,158621,1,8,0:0:0:0:
256,192,158996,1,4,0:0:0:0:
256,192,159558,1,8,0:0:0:0:
256,192,159652,1,0,0:0:0:0:
256,192,159746,1,8,0:0:0:0:
256,192,159840,1,0,0:0:0:0:
256,192,159933,1,8,0:0:0:0:
256,192,160121,1,8,0:0:0:0:
256,192,160308,1,0,0:0:0:0:
256,192,160496,1,12,0:0:0:0:
256,192,161246,12,0,163121,0:0:0:0:
256,192,163496,5,4,0:0:0:0:
256,192,163871,1,8,0:0:0:0:
256,192,164246,1,8,0:0:0:0:
256,192,164433,1,8,0:0:0:0:
256,192,164527,1,8,0:0:0:0:
256,192,164621,1,8,0:0:0:0:
256,192,164808,1,0,0:0:0:0:
256,192,164996,1,12,0:0:0:0:
256,192,165183,1,8,0:0:0:0:
256,192,165277,1,0,0:0:0:0:
256,192,165371,1,8,0:0:0:0:
256,192,165558,1,8,0:0:0:0:
256,192,165652,1,0,0:0:0:0:
256,192,165746,1,8,0:0:0:0:
256,192,165840,1,0,0:0:0:0:
256,192,165933,1,8,0:0:0:0:
256,192,166121,1,8,0:0:0:0:
256,192,166308,1,0,0:0:0:0:
256,192,166496,1,4,0:0:0:0:
256,192,167246,12,0,168746,0:0:0:0:
256,192,169027,5,8,0:0:0:0:
256,192,169121,1,0,0:0:0:0:
256,192,169308,1,0,0:0:0:0:
256,192,169496,1,12,0:0:0:0:
256,192,169683,1,0,0:0:0:0:
256,192,169777,1,0,0:0:0:0:
256,192,169871,1,8,0:0:0:0:
256,192,170058,1,0,0:0:0:0:
256,192,170246,1,8,0:0:0:0:
256,192,170433,1,0,0:0:0:0:
256,192,170621,1,8,0:0:0:0:
256,192,170715,1,8,0:0:0:0:
256,192,170808,1,0,0:0:0:0:
256,192,170902,1,0,0:0:0:0:
256,192,170996,1,8,0:0:0:0:
256,192,171183,1,0,0:0:0:0:
256,192,171277,1,0,0:0:0:0:
256,192,171371,1,8,0:0:0:0:
256,192,171558,1,0,0:0:0:0:
256,192,171746,1,8,0:0:0:0:
256,192,171933,1,0,0:0:0:0:
256,192,172027,1,0,0:0:0:0:
256,192,172121,1,8,0:0:0:0:
256,192,172215,1,0,0:0:0:0:
256,192,172308,1,8,0:0:0:0:
256,192,172496,1,8,0:0:0:0:
256,192,172683,1,0,0:0:0:0:
256,192,172777,1,0,0:0:0:0:
256,192,172871,1,8,0:0:0:0:
256,192,173058,1,0,0:0:0:0:
256,192,173246,1,8,0:0:0:0:
256,192,173433,1,0,0:0:0:0:
256,192,173621,1,8,0:0:0:0:
256,192,173715,1,0,0:0:0:0:
256,192,173808,1,0,0:0:0:0:
256,192,173902,1,0,0:0:0:0:
256,192,173996,1,8,0:0:0:0:
256,192,174183,1,0,0:0:0:0:
256,192,174277,1,0,0:0:0:0:
256,192,174371,1,8,0:0:0:0:
256,192,174558,1,0,0:0:0:0:
256,192,174746,1,8,0:0:0:0:
256,192,174933,1,0,0:0:0:0:
256,192,175027,1,8,0:0:0:0:
256,192,175121,5,8,0:0:0:0:
256,192,175215,1,0,0:0:0:0:
256,192,175308,5,8,0:0:0:0:
256,192,175496,1,0,0:0:0:0:
256,192,175621,1,0,0:0:0:0:
256,192,175746,1,8,0:0:0:0:
256,192,175871,1,8,0:0:0:0:
256,192,176121,1,8,0:0:0:0:
256,192,176246,1,8,0:0:0:0:
256,192,176371,1,0,0:0:0:0:
256,192,176496,1,8,0:0:0:0:
256,192,176621,1,8,0:0:0:0:
256,192,176871,1,8,0:0:0:0:
256,192,176996,1,8,0:0:0:0:
256,192,177121,1,0,0:0:0:0:
256,192,177246,1,8,0:0:0:0:
256,192,177371,1,8,0:0:0:0:
256,192,177621,1,8,0:0:0:0:
256,192,177746,1,8,0:0:0:0:
256,192,177871,1,0,0:0:0:0:
256,192,177996,1,0,0:0:0:0:
256,192,178121,1,8,0:0:0:0:
256,192,178371,1,0,0:0:0:0:
256,192,178496,1,8,0:0:0:0:
256,192,178621,1,8,0:0:0:0:
256,192,178746,1,8,0:0:0:0:
256,192,178871,1,8,0:0:0:0:
256,192,178996,1,8,0:0:0:0:
256,192,179121,1,8,0:0:0:0:
256,192,179246,1,8,0:0:0:0:
256,192,179371,1,8,0:0:0:0:
256,192,179496,1,8,0:0:0:0:
256,192,179621,1,8,0:0:0:0:
256,192,179746,1,8,0:0:0:0:
256,192,179871,1,8,0:0:0:0:
256,192,179996,1,0,0:0:0:0:
256,192,180246,1,0,0:0:0:0:
256,192,180371,1,8,0:0:0:0:
256,192,180496,1,8,0:0:0:0:
256,192,180621,1,0,0:0:0:0:
256,192,180746,1,8,0:0:0:0:
256,192,180996,1,0,0:0:0:0:
256,192,181121,1,12,0:0:0:0:
256,192,181496,1,4,0:0:0:0:
256,192,181871,1,8,0:0:0:0:
256,192,182246,1,8,0:0:0:0:
256,192,182371,1,0,0:0:0:0:
256,192,182496,1,0,0:0:0:0:
256,192,182621,1,8,0:0:0:0:
256,192,182996,1,8,0:0:0:0:
256,192,183121,1,8,0:0:0:0:
256,192,183246,1,0,0:0:0:0:
256,192,183371,1,8,0:0:0:0:
256,192,183496,1,8,0:0:0:0:
256,192,183621,1,0,0:0:0:0:
256,192,183746,1,8,0:0:0:0:
256,192,183871,1,8,0:0:0:0:
256,192,183996,1,0,0:0:0:0:
256,192,184121,1,0,0:0:0:0:
256,192,184246,1,8,0:0:0:0:
256,192,184371,1,8,0:0:0:0:
256,192,184496,1,4,0:0:0:0:
256,192,184871,1,8,0:0:0:0:
256,192,184996,1,8,0:0:0:0:
256,192,185121,1,0,0:0:0:0:
256,192,185246,1,8,0:0:0:0:
256,192,185371,1,8,0:0:0:0:
256,192,185496,1,0,0:0:0:0:
256,192,185621,1,8,0:0:0:0:
256,192,185996,1,8,0:0:0:0:
256,192,186121,1,0,0:0:0:0:
256,192,186246,1,0,0:0:0:0:
256,192,186371,1,8,0:0:0:0:
256,192,186496,1,0,0:0:0:0:
256,192,186621,1,8,0:0:0:0:
256,192,186746,1,4,0:0:0:0:
256,192,187496,1,4,0:0:0:0:
256,192,187871,1,8,0:0:0:0:
256,192,188246,1,8,0:0:0:0:
256,192,188371,1,0,0:0:0:0:
256,192,188496,1,0,0:0:0:0:
256,192,188621,1,8,0:0:0:0:
256,192,188996,1,8,0:0:0:0:
256,192,189121,1,8,0:0:0:0:
256,192,189246,1,0,0:0:0:0:
256,192,189371,1,8,0:0:0:0:
256,192,189496,1,8,0:0:0:0:
256,192,189621,1,0,0:0:0:0:
256,192,189746,1,8,0:0:0:0:
256,192,189871,1,8,0:0:0:0:
256,192,189996,1,0,0:0:0:0:
256,192,190121,1,8,0:0:0:0:
256,192,190371,1,0,0:0:0:0:
256,192,190496,1,12,0:0:0:0:
256,192,190746,1,8,0:0:0:0:
256,192,190996,1,8,0:0:0:0:
256,192,191246,1,12,0:0:0:0:
256,192,191496,1,8,0:0:0:0:
256,192,191746,1,8,0:0:0:0:
256,192,191996,1,4,0:0:0:0:
256,192,192371,1,4,0:0:0:0:
256,192,192746,1,12,0:0:0:0:
256,192,193121,1,8,0:0:0:0:
256,192,193246,1,0,0:0:0:0:
256,192,193371,1,0,0:0:0:0:
256,192,193496,1,4,0:0:0:0:
256,192,193871,1,8,0:0:0:0:
256,192,193996,1,8,0:0:0:0:
256,192,194121,1,0,0:0:0:0:
256,192,194246,1,0,0:0:0:0:
256,192,194371,1,0,0:0:0:0:
256,192,194496,1,8,0:0:0:0:
256,192,194621,1,8,0:0:0:0:
256,192,194996,1,0,0:0:0:0:
256,192,195121,1,8,0:0:0:0:
256,192,195246,1,8,0:0:0:0:
256,192,195371,1,0,0:0:0:0:
256,192,195496,1,0,0:0:0:0:
256,192,195621,1,8,0:0:0:0:
256,192,195746,1,12,0:0:0:0:
256,192,195996,1,0,0:0:0:0:
256,192,196371,1,0,0:0:0:0:
256,192,196496,1,12,0:0:0:0:
256,192,196746,1,8,0:0:0:0:
256,192,196808,1,8,0:0:0:0:
256,192,196871,1,8,0:0:0:0:
256,192,196996,1,8,0:0:0:0:
256,192,197121,1,0,0:0:0:0:
256,192,197246,1,0,0:0:0:0:
256,192,197371,1,0,0:0:0:0:
256,192,197496,1,8,0:0:0:0:
256,192,197621,1,8,0:0:0:0:
256,192,197996,1,8,0:0:0:0:
256,192,198121,1,0,0:0:0:0:
256,192,198246,1,0,0:0:0:0:
256,192,198371,1,8,0:0:0:0:
256,192,198496,1,0,0:0:0:0:
256,192,198621,1,0,0:0:0:0:
256,192,198746,1,12,0:0:0:0:
256,192,199121,1,4,0:0:0:0:
256,192,199496,1,4,0:0:0:0:
256,192,199871,1,8,0:0:0:0:
256,192,200246,1,0,0:0:0:0:
256,192,200371,1,8,0:0:0:0:
256,192,200496,1,0,0:0:0:0:
256,192,200621,1,8,0:0:0:0:
256,192,200996,1,8,0:0:0:0:
256,192,201121,1,8,0:0:0:0:
256,192,201246,1,0,0:0:0:0:
256,192,201371,1,8,0:0:0:0:
256,192,201496,1,8,0:0:0:0:
256,192,201621,1,0,0:0:0:0:
256,192,201746,1,8,0:0:0:0:
256,192,201871,1,8,0:0:0:0:
256,192,201996,1,0,0:0:0:0:
256,192,202121,1,8,0:0:0:0:
256,192,202402,1,0,0:0:0:0:
256,192,202496,1,12,0:0:0:0:
256,192,202683,1,0,0:0:0:0:
256,192,202871,1,0,0:0:0:0:
256,192,203058,1,0,0:0:0:0:
256,192,203246,1,12,0:0:0:0:
256,192,203433,1,0,0:0:0:0:
256,192,203621,1,0,0:0:0:0:
256,192,203808,1,0,0:0:0:0:
256,192,203996,1,4,0:0:0:0:
256,192,204183,1,0,0:0:0:0:
256,192,204371,1,0,0:0:0:0:
256,192,204558,1,0,0:0:0:0:
256,192,204746,1,12,0:0:0:0:
256,192,204933,1,0,0:0:0:0:
256,192,205121,1,0,0:0:0:0:
256,192,205308,1,0,0:0:0:0:
256,192,205496,1,4,0:0:0:0:
