osu file format v14

[General]
AudioFilename: audio.mp3
AudioLeadIn: 0
PreviewTime: 73496
Countdown: 0
SampleSet: Normal
StackLeniency: 0.7
Mode: 1
LetterboxInBreaks: 0
WidescreenStoryboard: 1

[Editor]
DistanceSpacing: 2.3
BeatDivisor: 4
GridSize: 4
TimelineZoom: 1.199999

[Metadata]
Title:BAMF
TitleUnicode:BAMF
Artist:Pegboard Nerds
ArtistUnicode:Pegboard Nerds
Creator:Dargin
Version:Futsuu
Source:
Tags:Monstercat Ayyri Nerds By Nature EP MCEP109
BeatmapID:1112524
BeatmapSetID:517687

[Difficulty]
HPDrainRate:6
CircleSize:2
OverallDifficulty:4
ApproachRate:10
SliderMultiplier:1.4
SliderTickRate:1

[Events]
//Background and Video events
0,0,"pegNerds768p.jpg",0,0
//Break Periods
2,133696,145046
//Storyboard Layer 0 (Background)
//Storyboard Layer 1 (Fail)
//Storyboard Layer 2 (Pass)
//Storyboard Layer 3 (Foreground)
//Storyboard Sound Samples

[TimingPoints]
13496.3854379998,375,4,1,0,100,1,0
73472,-100,4,1,0,100,0,1
96840,-100,4,1,0,100,0,0
109496,-100,4,1,0,100,0,1
131340,-100,4,1,0,70,0,1
132090,-100,4,1,0,50,0,1
132465,-100,4,1,0,40,0,1
132652,-100,4,1,0,30,0,1
132840,-100,4,1,0,20,0,1
133027,-100,4,1,0,10,0,1
133215,-100,4,1,0,5,0,1
133496,-100,4,1,0,100,0,0
181058,-100,4,1,0,100,0,1
205496,-100,4,1,0,100,0,0

[HitObjects]
256,192,13496,5,0,0:0:0:0:
256,192,14246,1,8,0:0:0:0:
256,192,14621,1,8,0:0:0:0:
256,192,14808,1,0,0:0:0:0:
256,192,14996,1,8,0:0:0:0:
256,192,15746,1,8,0:0:0:0:
256,192,16121,1,8,0:0:0:0:
256,192,16308,1,0,0:0:0:0:
256,192,16496,1,8,0:0:0:0:
256,192,17246,1,8,0:0:0:0:
256,192,17621,1,8,0:0:0:0:
256,192,17808,1,0,0:0:0:0:
256,192,17996,1,8,0:0:0:0:
256,192,18746,1,8,0:0:0:0:
256,192,19121,1,8,0:0:0:0:
256,192,19308,1,0,0:0:0:0:
256,192,19496,1,8,0:0:0:0:
256,192,19871,1,8,0:0:0:0:
256,192,20621,1,8,0:0:0:0:
256,192,20808,1,0,0:0:0:0:
256,192,20996,1,8,0:0:0:0:
256,192,21371,1,8,0:0:0:0:
256,192,22121,1,8,0:0:0:0:
256,192,22308,1,0,0:0:0:0:
256,192,22496,1,8,0:0:0:0:
256,192,22871,1,8,0:0:0:0:
256,192,23621,1,8,0:0:0:0:
256,192,23808,1,0,0:0:0:0:
256,192,23996,1,8,0:0:0:0:
256,192,24371,1,8,0:0:0:0:
256,192,25121,1,8,0:0:0:0:
256,192,25308,1,0,0:0:0:0:
256,192,25496,1,8,0:0:0:0:
256,192,26058,1,0,0:0:0:0:
256,192,26621,1,0,0:0:0:0:
256,192,27183,1,0,0:0:0:0:
256,192,27746,1,0,0:0:0:0:
256,192,28121,1,0,0:0:0:0:
256,192,28496,1,0,0:0:0:0:
256,192,29058,1,0,0:0:0:0:
256,192,29621,1,0,0:0:0:0:
256,192,30183,1,0,0:0:0:0:
256,192,30746,1,8,0:0:0:0:
256,192,31121,1,0,0:0:0:0:
256,192,31496,1,8,0:0:0:0:
256,192,31683,1,0,0:0:0:0:
256,192,32058,1,8,0:0:0:0:
256,192,32246,1,0,0:0:0:0:
256,192,32621,1,8,0:0:0:0:
256,192,32808,1,0,0:0:0:0:
256,192,33183,1,8,0:0:0:0:
256,192,33371,1,0,0:0:0:0:
256,192,33746,1,8,0:0:0:0:
256,192,33933,1,0,0:0:0:0:
256,192,34121,1,8,0:0:0:0:
256,192,34496,2,0,L|336:192,6,69.999998748302
256,192,35996,1,0,0:0:0:0:
256,192,36371,1,8,0:0:0:0:
256,192,36652,1,8,0:0:0:0:
256,192,36933,1,8,0:0:0:0:
256,192,37308,1,8,0:0:0:0:
256,192,37496,1,4,0:0:0:0:
256,192,38996,1,4,0:0:0:0:
256,192,40496,1,12,0:0:0:0:
256,192,41246,12,0,43121,0:0:0:0:
256,192,43496,5,4,0:0:0:0:
256,192,44996,1,12,0:0:0:0:
256,192,46496,1,4,0:0:0:0:
256,192,47246,12,0,48746,0:0:0:0:
256,192,49027,5,8,0:0:0:0:
256,192,49496,1,4,0:0:0:0:
256,192,49871,1,8,0:0:0:0:
256,192,50246,1,8,0:0:0:0:
256,192,50433,1,0,0:0:0:0:
256,192,50621,1,8,0:0:0:0:
256,192,50996,1,12,0:0:0:0:
256,192,51558,1,0,0:0:0:0:
256,192,51746,1,8,0:0:0:0:
256,192,51933,1,8,0:0:0:0:
256,192,52121,1,0,0:0:0:0:
256,192,52496,1,12,0:0:0:0:
256,192,53246,12,0,55215,0:0:0:0:
256,192,55496,5,12,0:0:0:0:
256,192,55871,1,8,0:0:0:0:
256,192,56246,1,8,0:0:0:0:
256,192,56433,1,0,0:0:0:0:
256,192,56621,1,8,0:0:0:0:
256,192,56996,1,12,0:0:0:0:
256,192,57371,1,8,0:0:0:0:
256,192,57746,1,8,0:0:0:0:
256,192,57933,1,8,0:0:0:0:
256,192,58121,1,0,0:0:0:0:
256,192,58496,1,4,0:0:0:0:
256,192,61027,1,0,0:0:0:0:
256,192,61308,1,0,0:0:0:0:
256,192,61496,1,12,0:0:0:0:
256,192,61871,1,0,0:0:0:0:
256,192,62246,1,0,0:0:0:0:
256,192,62621,1,0,0:0:0:0:
256,192,62996,1,8,0:0:0:0:
256,192,63371,1,0,0:0:0:0:
256,192,63746,1,0,0:0:0:0:
256,192,64121,1,8,0:0:0:0:
256,192,64308,1,8,0:0:0:0:
256,192,64496,1,8,0:0:0:0:
256,192,64871,1,0,0:0:0:0:
256,192,65246,1,0,0:0:0:0:
256,192,65621,1,0,0:0:0:0:
256,192,65996,1,8,0:0:0:0:
256,192,66371,1,0,0:0:0:0:
256,192,66746,1,0,0:0:0:0:
256,192,67121,1,0,0:0:0:0:
256,192,67496,1,8,0:0:0:0:
256,192,67871,1,0,0:0:0:0:
256,192,68246,1,8,0:0:0:0:
256,192,68621,1,0,0:0:0:0:
256,192,68996,1,8,0:0:0:0:
256,192,69371,1,0,0:0:0:0:
256,192,69746,1,8,0:0:0:0:
256,192,70121,1,0,0:0:0:0:
256,192,70496,2,0,L|328:188,8,69.999998748302
256,192,73121,1,12,0:0:0:0:
256,192,73496,1,4,0:0:0:0:
256,192,73871,1,8,0:0:0:0:
256,192,74246,1,4,0:0:0:0:
256,192,74433,1,0,0:0:0:0:
256,192,74621,1,8,0:0:0:0:
256,192,74996,1,4,0:0:0:0:
256,192,75183,1,0,0:0:0:0:
256,192,75371,1,8,0:0:0:0:
256,192,75558,1,0,0:0:0:0:
256,192,75746,1,8,0:0:0:0:
256,192,76121,1,8,0:0:0:0:
256,192,76496,1,4,0:0:0:0:
256,192,76871,1,8,0:0:0:0:
256,192,77058,1,0,0:0:0:0:
256,192,77246,1,8,0:0:0:0:
256,192,77433,1,0,0:0:0:0:
256,192,77621,1,8,0:0:0:0:
256,192,77996,1,0,0:0:0:0:
256,192,78183,1,0,0:0:0:0:
256,192,78371,1,8,0:0:0:0:
256,192,78558,1,0,0:0:0:0:
256,192,78746,1,8,0:0:0:0:
256,192,79121,1,12,0:0:0:0:
256,192,79496,1,4,0:0:0:0:
256,192,79871,1,8,0:0:0:0:
256,192,80246,1,4,0:0:0:0:
256,192,80621,1,8,0:0:0:0:
256,192,80996,1,4,0:0:0:0:
256,192,81183,1,8,0:0:0:0:
256,192,81371,1,8,0:0:0:0:
256,192,81558,1,8,0:0:0:0:
256,192,81746,1,0,0:0:0:0:
256,192,82121,1,8,0:0:0:0:
256,192,82496,1,12,0:0:0:0:
256,192,83246,1,8,0:0:0:0:
256,192,83621,1,0,0:0:0:0:
256,192,83996,1,8,0:0:0:0:
256,192,84746,1,8,0:0:0:0:
256,192,85121,5,0,0:0:0:0:
256,192,85496,1,4,0:0:0:0:
256,192,85871,1,8,0:0:0:0:
256,192,86058,1,0,0:0:0:0:
256,192,86246,1,0,0:0:0:0:
256,192,86433,1,0,0:0:0:0:
256,192,86621,1,8,0:0:0:0:
256,192,86996,1,8,0:0:0:0:
256,192,87183,1,8,0:0:0:0:
256,192,87371,1,0,0:0:0:0:
256,192,87558,1,0,0:0:0:0:
256,192,87746,1,8,0:0:0:0:
256,192,88121,1,8,0:0:0:0:
256,192,88496,1,4,0:0:0:0:
256,192,88871,1,8,0:0:0:0:
256,192,89058,1,8,0:0:0:0:
256,192,89246,1,0,0:0:0:0:
256,192,89433,1,8,0:0:0:0:
256,192,89621,1,8,0:0:0:0:
256,192,89996,1,8,0:0:0:0:
256,192,90183,1,8,0:0:0:0:
256,192,90371,1,0,0:0:0:0:
256,192,90558,1,0,0:0:0:0:
256,192,90746,1,8,0:0:0:0:
256,192,91121,1,12,0:0:0:0:
256,192,91496,1,4,0:0:0:0:
256,192,91871,1,8,0:0:0:0:
256,192,92058,1,0,0:0:0:0:
256,192,92246,1,8,0:0:0:0:
256,192,92433,1,0,0:0:0:0:
256,192,92621,1,8,0:0:0:0:
256,192,92996,1,8,0:0:0:0:
256,192,93183,1,0,0:0:0:0:
256,192,93371,1,8,0:0:0:0:
256,192,93746,1,8,0:0:0:0:
256,192,93933,1,8,0:0:0:0:
256,192,94121,1,8,0:0:0:0:
256,192,94496,1,8,0:0:0:0:
256,192,95246,1,8,0:0:0:0:
256,192,95621,1,0,0:0:0:0:
256,192,95996,1,8,0:0:0:0:
256,192,96746,1,12,0:0:0:0:
256,192,97496,1,4,0:0:0:0:
256,192,97871,1,0,0:0:0:0:
256,192,98246,1,8,0:0:0:0:
256,192,98621,1,8,0:0:0:0:
256,192,98996,1,8,0:0:0:0:
256,192,99371,1,8,0:0:0:0:
256,192,99746,1,8,0:0:0:0:
256,192,100121,1,8,0:0:0:0:
256,192,100308,1,8,0:0:0:0:
256,192,100496,1,8,0:0:0:0:
256,192,100871,1,8,0:0:0:0:
256,192,101246,1,8,0:0:0:0:
256,192,101621,1,8,0:0:0:0:
256,192,101996,1,8,0:0:0:0:
256,192,102371,1,8,0:0:0:0:
256,192,102746,1,8,0:0:0:0:
256,192,103121,1,8,0:0:0:0:
256,192,103496,1,8,0:0:0:0:
256,192,103683,1,0,0:0:0:0:
256,192,103871,1,8,0:0:0:0:
256,192,104246,1,8,0:0:0:0:
256,192,104433,1,0,0:0:0:0:
256,192,104621,1,8,0:0:0:0:
256,192,104996,1,8,0:0:0:0:
256,192,105183,1,0,0:0:0:0:
256,192,105371,1,8,0:0:0:0:
256,192,105746,1,8,0:0:0:0:
256,192,105933,1,0,0:0:0:0:
256,192,106121,1,8,0:0:0:0:
256,192,106496,2,0,L|336:192,8,69.999998748302
256,192,109121,1,8,0:0:0:0:
256,192,109496,1,4,0:0:0:0:
256,192,109871,1,8,0:0:0:0:
256,192,110246,1,0,0:0:0:0:
256,192,110621,1,8,0:0:0:0:
256,192,110996,1,8,0:0:0:0:
256,192,111371,1,8,0:0:0:0:
256,192,111746,1,8,0:0:0:0:
256,192,111933,1,8,0:0:0:0:
256,192,112121,1,8,0:0:0:0:
256,192,112871,1,8,0:0:0:0:
256,192,113246,1,0,0:0:0:0:
256,192,113621,1,8,0:0:0:0:
256,192,113996,1,0,0:0:0:0:
256,192,114183,1,8,0:0:0:0:
256,192,114371,1,0,0:0:0:0:
256,192,114746,1,8,0:0:0:0:
256,192,115121,1,0,0:0:0:0:
256,192,115308,1,0,0:0:0:0:
256,192,115496,1,8,0:0:0:0:
256,192,115871,1,0,0:0:0:0:
256,192,116246,1,0,0:0:0:0:
256,192,116433,1,8,0:0:0:0:
256,192,116621,1,0,0:0:0:0:
256,192,116996,1,8,0:0:0:0:
256,192,117183,1,8,0:0:0:0:
256,192,117371,1,8,0:0:0:0:
256,192,117746,1,0,0:0:0:0:
256,192,118121,1,0,0:0:0:0:
256,192,118496,1,12,0:0:0:0:
256,192,118683,1,0,0:0:0:0:
256,192,118871,1,0,0:0:0:0:
256,192,119246,1,8,0:0:0:0:
256,192,119433,1,0,0:0:0:0:
256,192,119621,1,0,0:0:0:0:
256,192,119996,1,8,0:0:0:0:
256,192,120371,1,0,0:0:0:0:
256,192,120558,1,0,0:0:0:0:
256,192,120746,1,8,0:0:0:0:
256,192,120933,1,0,0:0:0:0:
256,192,121121,1,0,0:0:0:0:
256,192,121496,1,4,0:0:0:0:
256,192,122246,1,12,0:0:0:0:
256,192,122621,1,8,0:0:0:0:
256,192,122996,1,8,0:0:0:0:
256,192,123371,1,8,0:0:0:0:
256,192,123746,1,8,0:0:0:0:
256,192,124121,1,8,0:0:0:0:
256,192,124496,1,0,0:0:0:0:
256,192,125246,1,8,0:0:0:0:
256,192,125621,1,8,0:0:0:0:
256,192,125996,1,8,0:0:0:0:
256,192,126371,1,8,0:0:0:0:
256,192,126746,1,0,0:0:0:0:
256,192,127121,1,8,0:0:0:0:
256,192,127496,1,4,0:0:0:0:
256,192,128246,1,8,0:0:0:0:
256,192,128621,1,8,0:0:0:0:
256,192,128996,1,8,0:0:0:0:
256,192,129371,1,8,0:0:0:0:
256,192,129746,1,8,0:0:0:0:
256,192,130121,1,12,0:0:0:0:
256,192,130496,1,8,0:0:0:0:
256,192,130871,1,0,0:0:0:0:
256,192,131058,1,0,0:0:0:0:
256,192,131246,1,8,0:0:0:0:
256,192,131621,1,0,0:0:0:0:
256,192,131808,1,0,0:0:0:0:
256,192,131996,1,8,0:0:0:0:
256,192,132371,1,0,0:0:0:0:
256,192,132558,1,0,0:0:0:0:
256,192,132746,1,0,0:0:0:0:
256,192,133121,1,0,0:0:0:0:
256,192,133308,1,0,0:0:0:0:
256,192,133496,1,0,0:0:0:0:
256,192,145496,5,12,0:0:0:0:
256,192,146058,1,0,0:0:0:0:
256,192,146621,1,0,0:0:0:0:
256,192,147183,1,8,0:0:0:0:
256,192,147746,1,8,0:0:0:0:
256,192,148121,1,8,0:0:0:0:
256,192,148496,1,0,0:0:0:0:
256,192,149058,1,0,0:0:0:0:
256,192,149621,1,0,0:0:0:0:
256,192,150183,1,8,0:0:0:0:
256,192,150746,1,0,0:0:0:0:
256,192,151121,1,0,0:0:0:0:
256,192,151496,1,8,0:0:0:0:
256,192,151871,1,0,0:0:0:0:
256,192,152058,1,8,0:0:0:0:
256,192,152433,1,0,0:0:0:0:
256,192,152621,1,8,0:0:0:0:
256,192,152996,1,0,0:0:0:0:
256,192,153183,1,0,0:0:0:0:
256,192,153558,1,0,0:0:0:0:
256,192,153746,1,8,0:0:0:0:
256,192,154121,1,8,0:0:0:0:
256,192,154308,1,8,0:0:0:0:
256,192,154496,1,8,0:0:0:0:
256,192,154871,1,8,0:0:0:0:
256,192,155246,1,8,0:0:0:0:
256,192,155433,1,8,0:0:0:0:
256,192,155621,1,8,0:0:0:0:
256,192,155808,1,8,0:0:0:0:
256,192,155996,1,0,0:0:0:0:
256,192,156371,1,8,0:0:0:0:
256,192,156652,1,0,0:0:0:0:
256,192,156933,1,8,0:0:0:0:
256,192,157308,1,8,0:0:0:0:
256,192,157496,1,4,0:0:0:0:
256,192,158996,1,4,0:0:0:0:
256,192,160496,1,12,0:0:0:0:
256,192,161246,12,0,163121,0:0:0:0:
256,192,163496,5,4,0:0:0:0:
256,192,164996,1,12,0:0:0:0:
256,192,166496,1,4,0:0:0:0:
256,192,167246,12,0,168746,0:0:0:0:
256,192,169027,5,8,0:0:0:0:
256,192,169308,1,0,0:0:0:0:
256,192,169496,1,12,0:0:0:0:
256,192,169871,1,0,0:0:0:0:
256,192,170246,1,8,0:0:0:0:
256,192,170621,1,0,0:0:0:0:
256,192,170996,1,8,0:0:0:0:
256,192,171371,1,0,0:0:0:0:
256,192,171746,1,8,0:0:0:0:
256,192,172121,1,8,0:0:0:0:
256,192,172308,1,8,0:0:0:0:
256,192,172496,1,8,0:0:0:0:
256,192,172871,1,0,0:0:0:0:
256,192,173246,1,8,0:0:0:0:
256,192,173621,1,0,0:0:0:0:
256,192,173996,1,8,0:0:0:0:
256,192,174371,1,0,0:0:0:0:
256,192,174746,1,8,0:0:0:0:
256,192,175121,1,8,0:0:0:0:
256,192,175308,1,8,0:0:0:0:
256,192,175496,1,0,0:0:0:0:
256,192,175871,1,8,0:0:0:0:
256,192,176246,1,0,0:0:0:0:
256,192,176621,1,8,0:0:0:0:
256,192,176996,1,0,0:0:0:0:
256,192,177371,1,8,0:0:0:0:
256,192,177746,1,0,0:0:0:0:
256,192,178121,1,8,0:0:0:0:
256,192,178496,2,0,L|336:192,8,69.999998748302
256,192,181121,1,12,0:0:0:0:
256,192,181496,1,4,0:0:0:0:
256,192,181871,1,0,0:0:0:0:
256,192,182246,1,8,0:0:0:0:
256,192,182996,1,0,0:0:0:0:
256,192,183371,1,0,0:0:0:0:
256,192,183746,1,8,0:0:0:0:
256,192,184496,1,4,0:0:0:0:
256,192,184871,1,8,0:0:0:0:
256,192,185246,1,0,0:0:0:0:
256,192,185996,1,8,0:0:0:0:
256,192,186371,1,0,0:0:0:0:
256,192,186746,1,8,0:0:0:0:
256,192,187496,1,4,0:0:0:0:
256,192,187871,1,0,0:0:0:0:
256,192,188246,1,8,0:0:0:0:
256,192,188996,1,8,0:0:0:0:
256,192,189371,1,0,0:0:0:0:
256,192,189746,1,8,0:0:0:0:
256,192,190121,1,0,0:0:0:0:
256,192,190496,1,0,0:0:0:0:
256,192,191996,1,4,0:0:0:0:
256,192,192371,1,4,0:0:0:0:
256,192,192746,1,12,0:0:0:0:
256,192,193496,1,4,0:0:0:0:
256,192,193871,1,8,0:0:0:0:
256,192,194246,1,0,0:0:0:0:
256,192,194996,1,8,0:0:0:0:
256,192,195371,1,0,0:0:0:0:
256,192,195746,1,8,0:0:0:0:
256,192,196746,1,8,0:0:0:0:
256,192,197246,1,0,0:0:0:0:
256,192,197621,1,8,0:0:0:0:
256,192,197996,1,8,0:0:0:0:
256,192,198371,1,0,0:0:0:0:
256,192,198746,1,12,0:0:0:0:
256,192,199496,1,4,0:0:0:0:
256,192,199871,1,8,0:0:0:0:
256,192,200246,1,0,0:0:0:0:
256,192,200621,1,8,0:0:0:0:
256,192,200996,1,0,0:0:0:0:
256,192,201371,1,0,0:0:0:0:
256,192,201746,1,8,0:0:0:0:
256,192,202121,1,0,0:0:0:0:
256,192,202496,1,12,0:0:0:0:
256,192,202683,1,0,0:0:0:0:
256,192,203058,1,0,0:0:0:0:
256,192,203246,1,8,0:0:0:0:
256,192,203433,1,0,0:0:0:0:
256,192,203808,1,0,0:0:0:0:
256,192,203996,1,8,0:0:0:0:
256,192,204183,1,0,0:0:0:0:
256,192,204558,1,0,0:0:0:0:
256,192,204746,1,8,0:0:0:0:
256,192,204933,1,0,0:0:0:0:
256,192,205496,1,8,0:0:0:0:
