osu file format v14

[General]
AudioFilename: audio.mp3
AudioLeadIn: 0
PreviewTime: -1
Countdown: 0
SampleSet: Normal
StackLeniency: 0.7
Mode: 0
LetterboxInBreaks: 0
WidescreenStoryboard: 0

[Editor]
DistanceSpacing: 0.8
BeatDivisor: 4
GridSize: 16
TimelineZoom: 1

[Metadata]
Title:Deep In The Night (Original Mix)
TitleUnicode:Deep In The Night (Original Mix)
Artist:Pegboard Nerds & Snails
ArtistUnicode:Pegboard Nerds & Snails
Creator:Jack566
Version:Insane
Source:
Tags:
BeatmapID:1233467
BeatmapSetID:582850

[Difficulty]
HPDrainRate:7
CircleSize:4
OverallDifficulty:5
ApproachRate:9
SliderMultiplier:1.4
SliderTickRate:1

[Events]
//Background and Video events
0,0,"maxresdefault.jpg",0,0
//Break Periods
2,3400,5800
//Storyboard Layer 0 (Background)
//Storyboard Layer 1 (Fail)
//Storyboard Layer 2 (Pass)
//Storyboard Layer 3 (Foreground)
//Storyboard Sound Samples

[TimingPoints]
0,400,4,2,0,100,1,0
25400,-100,4,3,0,100,0,0
51200,-100,4,1,0,100,0,0
64000,-66.6666666666667,4,1,0,100,0,1
70591,-66.6666666666667,4,1,0,100,0,0
102391,-66.6666666666667,4,1,0,100,0,1
108800,-66.6666666666667,4,1,0,100,0,0
131300,-66.6666666666667,4,1,0,30,0,0
140100,-66.6666666666667,4,1,0,100,0,0
153600,-100,4,3,0,100,0,0
164600,-100,4,1,0,100,0,0
179200,-100,4,1,0,100,0,1
192000,-100,4,1,0,100,0,0
229500,-100,4,1,0,70,0,0
230300,-66.6666666666667,4,1,0,100,0,0

[Colours]
Combo1 : 128,255,0
Combo2 : 14,143,137
Combo3 : 192,192,192

[HitObjects]
256,192,200,12,0,3200,0:0:0:0:
140,124,6400,5,0,0:0:0:0:
200,180,7000,1,0,0:0:0:0:
260,328,7600,2,0,P|340:292|356:224,1,140
108,128,8600,5,0,0:0:0:0:
180,232,9200,2,0,L|196:236,11,8.75
256,240,9600,5,2,0:0:0:0:
352,132,10200,1,0,0:0:0:0:
192,112,10800,1,0,0:0:0:0:
104,200,11200,1,0,0:0:0:0:
248,148,11800,5,0,0:0:0:0:
180,232,12400,2,0,L|196:236,11,8.75
352,100,13200,5,0,0:0:0:0:
304,176,13400,1,0,0:0:0:0:
216,108,13800,1,0,0:0:0:0:
96,152,14000,1,0,0:0:0:0:
116,276,14200,1,0,0:0:0:0:
228,188,14400,1,0,0:0:0:0:
312,252,14800,6,0,L|364:204,1,70
252,156,15200,1,0,0:0:0:0:
220,280,15400,1,0,0:0:0:0:
408,96,15600,1,0,0:0:0:0:
352,208,16000,5,0,0:0:0:0:
208,288,16400,1,0,0:0:0:0:
188,152,16600,1,0,0:0:0:0:
296,132,16800,2,0,P|336:160|356:176,1,70
412,224,17200,1,0,0:0:0:0:
120,128,17600,5,0,0:0:0:0:
296,132,18000,1,0,0:0:0:0:
220,224,18200,1,0,0:0:0:0:
316,228,18400,1,0,0:0:0:0:
248,280,18600,2,0,P|188:308|156:304,1,70
96,88,19200,5,0,0:0:0:0:
96,88,19400,1,0,0:0:0:0:
164,200,19800,2,0,P|176:240|204:264,1,70
292,264,20200,2,0,P|336:260|344:240,1,70
128,96,20800,5,0,0:0:0:0:
160,256,21000,1,0,0:0:0:0:
344,72,21400,1,0,0:0:0:0:
212,184,21600,1,0,0:0:0:0:
336,312,21800,1,0,0:0:0:0:
208,176,22000,1,0,0:0:0:0:
128,104,22400,5,0,1:0:0:0:
420,148,22800,1,0,0:0:0:0:
340,240,23000,1,0,0:0:0:0:
248,200,23200,2,0,P|208:152|180:136,1,70
136,112,23600,6,0,P|200:64|260:80,1,140
336,128,24400,1,0,0:0:0:0:
144,128,24600,1,0,0:0:0:0:
336,304,24800,1,0,0:0:0:0:
136,300,25000,1,0,0:0:0:0:
256,144,25200,1,0,0:0:0:0:
104,96,25600,5,0,3:0:0:0:
176,240,25800,1,0,3:0:0:0:
332,316,26100,1,0,3:0:0:0:
408,196,26400,2,0,B|392:144|360:140|288:128|288:112,1,140,0|0,3:0|3:0,3:0:0:0:
176,80,27200,5,0,0:0:0:0:
304,184,27500,1,0,0:0:0:0:
144,200,27800,1,0,0:0:0:0:
164,292,28000,2,0,P|260:312|296:280,1,140
112,156,28800,5,0,0:0:0:0:
276,168,29100,1,0,0:0:0:0:
272,304,29400,1,0,0:0:0:0:
172,240,29600,2,0,B|148:204|168:192|200:188|208:188|232:184|240:168|196:124,1,140
176,68,30400,5,0,0:0:0:0:
244,144,30600,1,0,0:0:0:0:
144,128,31000,2,0,L|112:208,1,70
356,300,32000,5,4,0:0:0:0:
208,280,32200,1,0,0:0:0:0:
264,128,32600,1,0,0:0:0:0:
180,208,32800,2,0,B|164:264|164:264|168:272|188:288|248:292,1,140
392,104,33600,5,0,0:0:0:0:
256,192,33800,1,0,0:0:0:0:
140,288,34200,1,0,0:0:0:0:
104,184,34400,2,0,B|144:148|232:172|252:156|240:140,1,140
372,296,35200,5,4,0:0:0:0:
244,304,35500,1,0,0:0:0:0:
380,168,35800,1,0,0:0:0:0:
308,156,36000,2,0,B|288:120|312:104|372:104|276:40,1,140
128,128,36800,1,0,0:0:0:0:
176,112,36900,1,0,0:0:0:0:
224,112,37000,1,0,0:0:0:0:
304,200,37400,1,0,0:0:0:0:
408,288,37600,1,0,0:0:0:0:
132,288,38400,5,4,3:3:0:0:
284,248,38600,1,0,3:0:0:0:
276,148,38800,2,8,B|224:152|200:136|196:128|156:136|120:156|120:156,2,140,8|8|8,1:1|1:1|1:1,1:1:0:0:
456,68,40000,5,4,0:0:0:0:
304,72,40200,1,0,0:0:0:0:
292,184,40400,2,8,B|324:168|332:192|344:200|376:204|440:196|448:176,2,140,8|8|8,1:1|1:1|1:1,1:1:0:0:
416,276,41400,1,4,0:0:0:0:
336,320,41600,5,4,3:0:0:0:
200,232,41800,1,0,3:0:0:0:
296,168,42000,2,8,B|288:128|268:120|256:104|248:84|288:40,2,140,8|8|8,1:1|1:1|1:1,1:1:0:0:
200,152,43200,1,4,0:0:0:0:
336,240,43400,1,0,0:0:0:0:
296,172,43800,2,0,P|236:168|208:164,1,70
256,176,44400,1,0,0:0:0:0:
80,192,44600,5,4,0:0:0:0:
88,300,44800,1,4,3:0:0:0:
280,224,45000,1,0,3:0:0:0:
456,140,45200,2,8,B|408:132|304:100|304:120,2,140,8|8|8,1:1|1:1|1:1,1:1:0:0:
384,56,46400,5,4,3:0:0:0:
172,192,46600,1,0,3:0:0:0:
264,276,46800,2,8,B|296:256|276:228|252:204|236:160|252:128,2,140,8|8|8,1:1|1:1|1:1,1:1:0:0:
80,132,47800,5,4,0:0:0:0:
244,96,48000,1,4,0:0:0:0:
392,144,48200,1,0,0:0:0:0:
340,252,48400,2,8,B|284:244|232:276|204:288|188:268,2,140,8|8|8,1:1|1:1|1:1,1:1:0:0:
336,272,49600,1,0,0:0:0:0:
288,256,49700,1,0,0:0:0:0:
240,256,49800,1,0,0:0:0:0:
232,128,50200,1,0,0:0:0:0:
136,160,50400,1,0,0:0:0:0:
436,120,51200,5,0,0:0:0:0:
264,136,51400,1,0,0:0:0:0:
220,156,51500,1,0,0:0:0:0:
180,184,51600,1,0,0:0:0:0:
100,248,51800,1,0,0:0:0:0:
232,264,52000,1,0,0:0:0:0:
272,280,52100,1,0,0:0:0:0:
308,288,52200,1,0,0:0:0:0:
344,284,52300,1,0,0:0:0:0:
384,272,52400,1,0,0:0:0:0:
416,252,52500,1,0,0:0:0:0:
96,104,52800,5,0,0:0:0:0:
172,208,53000,2,0,L|216:224,2,35
172,140,53400,1,0,0:0:0:0:
272,88,53600,1,0,0:0:0:0:
316,92,53700,1,0,0:0:0:0:
352,104,53800,1,0,0:0:0:0:
392,136,53900,1,0,0:0:0:0:
432,176,54000,1,0,0:0:0:0:
452,212,54100,1,0,0:0:0:0:
256,60,54400,5,0,0:0:0:0:
200,168,54600,1,0,0:0:0:0:
256,196,54700,1,0,0:0:0:0:
308,168,54800,1,0,0:0:0:0:
260,248,55000,1,0,0:0:0:0:
160,304,55200,1,0,0:0:0:0:
188,336,55300,1,0,0:0:0:0:
236,344,55400,1,0,0:0:0:0:
288,344,55500,1,0,0:0:0:0:
320,328,55600,1,0,0:0:0:0:
352,296,55700,1,0,0:0:0:0:
448,88,56000,5,0,0:0:0:0:
376,152,56200,2,0,L|328:180,2,35
228,120,56600,1,0,0:0:0:0:
252,44,56800,1,0,0:0:0:0:
304,48,56900,1,0,0:0:0:0:
352,64,57000,1,0,0:0:0:0:
380,88,57100,1,0,0:0:0:0:
408,116,57200,1,0,0:0:0:0:
432,160,57300,1,0,0:0:0:0:
432,192,57400,5,4,3:3:0:0:
416,224,57500,1,4,3:3:0:0:
384,256,57600,1,4,3:3:0:0:
140,280,57800,5,0,0:0:0:0:
140,280,58000,1,0,0:0:0:0:
328,124,58200,1,0,0:0:0:0:
328,124,58400,1,0,0:0:0:0:
136,196,58600,1,0,0:0:0:0:
136,196,58800,1,0,0:0:0:0:
400,176,59000,1,4,0:3:0:0:
384,224,59100,1,4,0:3:0:0:
352,256,59200,1,4,0:3:0:0:
84,76,59400,5,0,0:0:0:0:
176,180,59600,1,0,0:0:0:0:
64,312,59800,1,0,0:0:0:0:
236,232,60000,1,0,0:0:0:0:
376,320,60200,1,0,0:0:0:0:
212,108,60400,1,0,0:0:0:0:
376,140,60600,5,0,0:0:0:0:
352,188,60700,1,0,0:0:0:0:
324,232,60800,1,0,0:0:0:0:
280,268,60900,1,0,0:0:0:0:
228,276,61000,1,0,0:0:0:0:
176,268,61100,1,0,0:0:0:0:
120,244,61200,1,0,0:0:0:0:
92,208,61300,1,0,0:0:0:0:
76,168,61400,5,0,0:0:0:0:
76,128,61500,1,0,0:0:0:0:
104,104,61600,1,0,0:0:0:0:
152,100,61700,1,0,0:0:0:0:
192,132,61800,1,0,0:0:0:0:
212,184,61900,1,0,0:0:0:0:
212,232,62000,1,0,0:0:0:0:
240,264,62100,5,0,0:0:0:0:
284,292,62200,1,0,0:0:0:0:
324,304,62300,1,0,0:0:0:0:
336,260,62400,6,0,B|356:228|344:216|332:200|332:184|344:172|364:172|392:168|380:128,1,140
272,120,63000,1,0,0:0:0:0:
152,168,63200,1,0,0:0:0:0:
72,260,63400,5,2,0:1:0:0:
264,324,63600,1,2,0:0:0:0:
464,268,63800,1,2,0:0:0:0:
320,144,64000,6,2,P|268:192|176:192,1,157.500006008148,2|2,0:0|2:0,0:0:0:0:
104,120,64400,6,0,L|72:72,1,52.5000020027161,2|0,0:1|2:0,0:0:0:0:
176,120,64600,2,0,L|192:64,1,52.5000020027161,2|0,0:1|2:0,0:0:0:0:
240,144,64800,2,0,L|288:100,1,52.5000020027161,2|0,0:1|2:0,0:0:0:0:
264,208,65000,2,0,L|332:220,1,52.5000020027161,2|0,0:1|2:0,0:0:0:0:
228,272,65200,2,0,L|304:328,1,52.5000020027161,2|0,0:1|2:0,0:0:0:0:
160,296,65400,2,0,L|188:344,1,52.5000020027161,2|0,0:1|2:1,0:0:0:0:
128,176,65600,1,0,1:0:0:0:
128,176,65700,1,0,1:0:0:0:
128,176,65800,6,0,L|224:176,1,52.5000020027161,2|0,0:1|2:0,0:0:0:0:
352,176,66000,2,0,L|432:176,1,52.5000020027161,2|0,0:1|2:0,0:0:0:0:
192,304,66200,2,0,P|132:304|132:304,1,52.5000020027161,2|0,0:1|2:0,0:0:0:0:
400,96,66400,2,0,L|336:96,1,52.5000020027161,2|0,0:1|2:0,0:0:0:0:
192,160,66600,2,0,L|128:160,1,52.5000020027161,2|0,0:1|2:0,0:0:0:0:
304,256,66800,2,0,L|368:256,1,52.5000020027161,2|0,0:1|2:0,0:0:0:0:
192,336,67000,2,0,L|112:336,1,52.5000020027161,2|0,0:1|2:0,0:0:0:0:
112,288,67200,5,0,0:0:0:0:
112,288,67300,1,0,0:0:0:0:
112,128,67600,6,0,L|112:64,1,52.5000020027161,2|0,0:1|2:0,0:0:0:0:
384,240,67800,2,0,L|384:304,1,52.5000020027161,2|0,0:1|2:0,0:0:0:0:
112,240,68000,2,0,L|112:320,1,52.5000020027161,2|0,0:1|2:0,0:0:0:0:
384,80,68200,2,0,L|384:160,1,52.5000020027161,2|0,0:1|2:0,0:0:0:0:
192,96,68400,2,0,L|272:96,1,52.5000020027161,2|0,0:1|2:0,0:0:0:0:
240,256,68600,2,0,L|176:256,1,52.5000020027161,2|0,0:1|2:0,0:0:0:0:
368,304,68800,6,0,L|416:240,1,52.5000020027161,2|0,0:1|2:0,0:0:0:0:
400,80,69000,2,0,L|336:32,1,52.5000020027161,2|0,0:1|2:0,0:0:0:0:
256,96,69200,2,0,L|208:128,1,52.5000020027161,2|0,0:1|2:0,0:0:0:0:
272,304,69400,2,0,L|256:240,1,52.5000020027161,2|0,0:1|2:0,0:0:0:0:
96,128,69600,2,0,L|144:176,1,52.5000020027161,2|0,0:1|2:0,0:0:0:0:
464,112,69800,2,0,L|400:144,1,52.5000020027161,2|0,2:1|2:0,2:0:0:0:
384,192,70000,2,0,L|352:192,14,17.500000667572
144,48,70800,5,2,0:0:0:0:
336,320,71000,1,2,0:0:0:0:
160,208,71200,1,2,0:0:0:0:
448,160,71400,1,2,0:0:0:0:
448,160,71600,1,2,0:0:0:0:
224,288,71800,1,2,0:0:0:0:
384,144,72000,6,0,L|416:176,2,26.2500010013581
368,80,72200,5,2,0:0:0:0:
144,64,72400,1,2,0:0:0:0:
368,80,72600,1,2,0:0:0:0:
160,176,72800,1,2,0:0:0:0:
368,80,73000,1,2,0:0:0:0:
224,272,73200,1,2,0:0:0:0:
384,288,73400,1,2,0:0:0:0:
192,80,73600,6,0,L|208:112,2,26.2500010013581
112,128,74000,5,2,0:0:0:0:
160,272,74200,1,2,0:0:0:0:
256,144,74400,1,2,0:0:0:0:
256,144,74600,1,2,0:0:0:0:
304,176,74700,1,2,0:0:0:0:
336,208,74800,1,2,0:0:0:0:
144,96,75000,1,2,0:0:0:0:
432,224,75200,5,0,0:0:0:0:
288,272,75400,1,0,0:0:0:0:
240,272,75500,1,0,0:0:0:0:
192,272,75600,1,0,0:0:0:0:
112,176,75800,1,0,0:0:0:0:
432,96,76000,6,2,L|304:224,1,157.500006008148,2|0,0:0|2:0,0:0:0:0:
64,64,76400,2,2,L|208:208,1,157.500006008148,2|0,0:0|2:0,0:0:0:0:
256,192,76800,6,0,L|272:208,10,17.500000667572,0|0|0|0|0|0|0|0|0|0|0,3:0|3:0|3:0|3:0|3:0|3:0|3:0|3:0|3:0|3:0|3:0,3:0:0:0:
304,240,77200,5,0,0:0:0:0:
416,192,77400,1,0,0:0:0:0:
432,160,77500,1,0,0:0:0:0:
416,128,77600,1,0,0:0:0:0:
304,64,77800,1,0,0:0:0:0:
256,64,77900,1,0,0:0:0:0:
224,80,78000,1,0,0:0:0:0:
176,96,78100,1,0,0:0:0:0:
128,112,78200,1,0,0:0:0:0:
240,192,78400,6,0,L|256:208,7,17.500000667572,0|0|0|0|0|0|0|0,3:0|3:0|3:0|3:0|3:0|3:0|3:0|3:0,3:0:0:0:
416,176,78800,5,0,0:0:0:0:
400,192,78900,1,0,0:0:0:0:
384,224,79000,1,0,0:0:0:0:
256,144,79200,1,0,0:0:0:0:
208,128,79300,1,0,0:0:0:0:
160,144,79400,1,0,0:0:0:0:
288,96,79600,1,0,0:0:0:0:
400,224,79800,1,0,0:0:0:0:
176,192,80000,6,0,L|160:208,7,17.500000667572,0|0|0|0|0|0|0|0,3:0|3:0|3:0|3:0|3:0|3:0|3:0|3:0,3:0:0:0:
448,128,80400,5,0,0:0:0:0:
240,80,80600,1,0,0:0:0:0:
112,256,80800,1,0,0:0:0:0:
336,304,81000,1,0,0:0:0:0:
240,160,81200,1,0,0:0:0:0:
384,64,81400,1,0,0:0:0:0:
112,80,81600,2,0,L|144:128,2,52.5000020027161
144,64,81900,1,0,0:0:0:0:
192,64,82000,1,0,0:0:0:0:
256,64,82200,1,0,0:0:0:0:
384,256,82400,6,0,B|336:224|336:224|336:240|336:240|320:224|320:224|336:208|320:208|320:208|304:224|304:224|304:208|288:208|288:208|272:208,1,157.500006008148,0|0,0:0|2:0,0:0:0:0:
192,144,82800,2,0,B|144:112|144:112|160:96|160:96|144:96|128:96|112:96|112:96|128:80|128:80|112:80|112:80,1,157.500006008148,0|0,0:0|2:0,0:0:0:0:
96,160,83200,2,0,L|96:224,2,52.5000020027161
208,256,83600,1,0,0:0:0:0:
400,224,83800,1,0,0:0:0:0:
304,112,84000,2,0,B|240:128|224:128|192:96,1,105.000004005432
128,160,84400,2,0,P|128:224|176:256,1,105.000004005432
400,288,85000,5,0,0:0:0:0:
128,96,85200,1,0,0:0:0:0:
224,304,85400,1,0,0:0:0:0:
352,112,85600,1,0,0:0:0:0:
96,208,85800,1,0,0:0:0:0:
320,272,86000,1,0,0:0:0:0:
208,96,86200,1,0,0:0:0:0:
240,288,86600,5,0,0:0:0:0:
384,208,86800,2,0,P|304:144|272:144,1,105.000004005432
112,256,87200,1,0,0:0:0:0:
64,128,87400,1,0,0:0:0:0:
224,176,87600,2,0,B|256:224|272:224|336:192,1,105.000004005432
160,288,88000,1,0,0:0:0:0:
160,112,88200,5,0,0:0:0:0:
352,192,88400,1,0,0:0:0:0:
160,304,88600,1,0,0:0:0:0:
352,288,88800,2,0,P|416:272|448:224,2,105.000004005432
96,160,89600,5,0,0:0:0:0:
320,96,90200,2,0,B|288:160|272:160|304:192,1,105.000004005432
192,128,91000,2,0,B|144:176|112:160|96:160,1,105.000004005432
368,128,91500,6,0,L|352:192,1,52.5000020027161
352,192,91700,2,0,L|320:256,1,52.5000020027161
320,256,91900,2,0,L|256:288,1,52.5000020027161
160,112,92600,2,0,B|176:176|160:192|128:224,1,105.000004005432
320,192,93400,2,0,B|336:256|352:272|368:288,1,105.000004005432
112,160,94200,2,0,B|144:112|160:112|176:112|208:112,1,105.000004005432
240,192,94700,2,0,L|272:240,1,52.5000020027161
288,256,94900,2,0,L|320:304,1,52.5000020027161
368,304,95100,2,0,L|432:304,1,52.5000020027161
128,272,95800,5,0,0:0:0:0:
176,304,95900,1,0,0:0:0:0:
224,320,96000,1,0,0:0:0:0:
400,160,96200,5,0,0:0:0:0:
400,160,96400,1,0,0:0:0:0:
240,96,96600,1,0,0:0:0:0:
240,96,96800,1,0,0:0:0:0:
80,240,97000,1,0,0:0:0:0:
80,240,97200,1,0,0:0:0:0:
320,256,97400,5,0,0:0:0:0:
336,192,97500,1,0,0:0:0:0:
304,144,97600,1,0,0:0:0:0:
128,288,97800,5,0,0:0:0:0:
128,288,98000,1,0,0:0:0:0:
352,128,98200,1,0,0:0:0:0:
352,128,98400,1,0,0:0:0:0:
64,96,98600,1,0,0:0:0:0:
64,96,98800,1,0,0:0:0:0:
352,64,99000,5,0,0:0:0:0:
336,96,99100,1,0,0:0:0:0:
320,128,99200,1,0,0:0:0:0:
304,176,99300,2,0,L|240:192,5,52.5000020027161
208,208,99900,1,0,0:0:0:0:
160,224,100000,1,0,0:0:0:0:
112,256,100100,1,0,0:0:0:0:
128,304,100200,1,0,0:0:0:0:
176,320,100300,1,0,0:0:0:0:
208,320,100400,1,0,0:0:0:0:
240,320,100500,1,0,0:0:0:0:
288,304,100600,1,0,0:0:0:0:
336,272,100700,1,0,0:0:0:0:
288,192,100800,6,0,B|192:160|144:144|144:64,1,210.000008010865
64,144,101400,1,0,0:0:0:0:
80,224,101600,1,0,0:0:0:0:
336,80,101800,5,2,0:0:0:0:
384,208,102000,1,2,0:0:0:0:
336,352,102200,1,2,0:0:0:0:
160,112,102400,6,2,B|128:160|128:160|144:176|144:176|160:208|192:224|192:256,1,157.500006008148,2|0,0:0|2:0,0:0:0:0:
288,272,102800,6,2,L|352:272,1,52.5000020027161,2|2,0:0|2:1,0:0:0:0:
352,192,103000,2,2,L|288:192,1,52.5000020027161,2|2,0:0|2:1,0:0:0:0:
304,112,103200,2,2,L|368:112,1,52.5000020027161,2|2,0:0|2:1,0:0:0:0:
208,112,103400,2,2,L|128:112,1,52.5000020027161,2|2,0:0|2:1,0:0:0:0:
144,208,103600,2,2,L|208:208,1,52.5000020027161,2|2,0:0|2:1,0:0:0:0:
144,112,103975,2,0,L|128:128,4,17.500000667572,0|0|0|0|0,2:0|2:0|2:0|2:0|2:0,2:0:0:0:
192,160,104200,5,2,0:0:0:0:
272,304,104400,1,2,0:0:0:0:
432,128,104600,1,2,0:0:0:0:
96,96,104800,1,2,0:0:0:0:
240,288,105000,1,2,0:0:0:0:
352,80,105200,1,2,0:0:0:0:
352,80,105400,1,2,0:0:0:0:
144,112,105600,2,0,L|128:128,4,17.500000667572,0|0|0|0|0,2:0|2:0|2:0|2:0|2:0,2:0:0:0:
112,128,106000,6,2,L|160:176,1,52.5000020027161,2|0,0:0|2:1,0:0:0:0:
80,208,106200,2,0,L|128:256,1,52.5000020027161,2|0,0:0|2:0,0:0:0:0:
192,96,106400,2,0,L|224:160,1,52.5000020027161,2|0,0:0|2:0,0:0:0:0:
272,192,106600,2,0,L|240:240,1,52.5000020027161,2|0,0:0|2:0,0:0:0:0:
368,128,106800,2,0,L|416:96,1,52.5000020027161,2|0,0:0|2:0,0:0:0:0:
288,112,107000,2,0,P|208:160|208:160,1,52.5000020027161,2|0,0:0|2:0,0:0:0:0:
160,240,107200,5,2,0:0:0:0:
256,304,107400,1,2,0:0:0:0:
256,304,107600,1,2,0:0:0:0:
256,304,107800,1,2,0:0:0:0:
160,112,108000,5,2,0:0:0:0:
112,256,108200,1,2,0:0:0:0:
112,256,108400,1,2,0:0:0:0:
112,256,108600,1,2,0:0:0:0:
224,192,108800,2,0,B|272:160|272:176|272:176|256:160|256:144|272:144|272:144|272:128|272:128|288:144|304:144|304:128|288:128|288:112,1,157.500006008148
320,320,109200,5,2,0:0:0:0:
208,224,109400,1,2,0:0:0:0:
320,160,109600,1,2,0:0:0:0:
320,160,109800,1,2,0:0:0:0:
208,112,110000,1,2,0:0:0:0:
128,224,110200,1,2,0:0:0:0:
384,112,110600,5,2,0:0:0:0:
256,272,110800,1,2,0:0:0:0:
144,96,111000,1,2,0:0:0:0:
64,288,111200,1,2,0:0:0:0:
208,160,111400,1,2,0:0:0:0:
352,288,111600,1,2,0:0:0:0:
352,112,111800,1,2,0:0:0:0:
224,144,112000,2,0,B|160:144|144:128|144:160|144:160|128:176|112:176|96:160|96:144|80:144,1,157.500006008148,0|0,2:0|2:0,2:0:0:0:
384,144,112400,5,2,0:0:0:0:
384,256,112600,1,2,0:0:0:0:
256,240,112800,2,0,B|208:208|176:160|176:160|144:144,1,105.000004005432,2|2,0:0|0:0,0:0:0:0:
80,272,113200,1,2,0:0:0:0:
336,112,113400,1,2,0:0:0:0:
112,112,113600,5,2,0:0:0:0:
112,112,113800,1,2,0:0:0:0:
112,112,114000,1,2,0:0:0:0:
112,112,114200,1,2,0:0:0:0:
352,192,114400,6,2,L|256:272,1,105.000004005432
176,240,114800,2,2,B|144:192|128:192|144:144,1,105.000004005432
128,80,115400,5,0,0:0:0:0:
368,192,115600,1,0,0:0:0:0:
224,304,115800,1,0,0:0:0:0:
112,160,116000,1,0,0:0:0:0:
224,80,116200,5,0,0:0:0:0:
256,80,116300,1,0,0:0:0:0:
288,96,116400,1,0,0:0:0:0:
368,224,116600,1,4,0:3:0:0:
144,240,116800,5,0,0:0:0:0:
224,176,117000,1,0,0:0:0:0:
112,176,117200,2,0,B|96:112|112:112|128:96|144:80|192:64|240:48|272:48,1,210.000008010865,4|4,0:3|0:3,0:3:0:0:
112,128,118000,1,0,0:0:0:0:
224,256,118200,1,0,0:0:0:0:
368,192,118400,1,0,0:0:0:0:
144,240,118600,1,0,0:0:0:0:
304,96,118800,2,4,B|240:64|224:64|192:64|176:80|160:80|96:128,1,210.000008010865,4|0,0:3|0:3,0:3:0:0:
64,192,119400,1,0,0:0:0:0:
176,320,119600,1,0,0:0:0:0:
352,256,119800,1,4,0:3:0:0:
320,96,120000,5,0,0:0:0:0:
272,96,120100,1,0,0:0:0:0:
224,96,120200,1,0,0:0:0:0:
160,176,120400,2,0,B|144:240|160:256|176:272|192:288|256:288|304:288,1,210.000008010865
368,160,121000,1,0,0:0:0:0:
368,160,121200,1,0,0:0:0:0:
368,160,121400,1,0,0:0:0:0:
176,192,121600,1,4,0:3:0:0:
128,112,122000,5,0,1:0:0:0:
176,240,122200,1,0,1:0:0:0:
272,320,122400,1,0,1:0:0:0:
272,320,122600,1,0,1:0:0:0:
272,320,122800,2,0,B|320:272|320:272|352:272|352:272|368:272|368:256,1,105.000004005432,0|0,1:0|1:0,1:0:0:0:
272,208,123200,6,0,L|240:192,3,26.2500010013581
192,176,123400,5,0,0:0:0:0:
96,112,123600,1,0,0:0:0:0:
256,80,123800,1,0,0:0:0:0:
384,144,124000,1,0,0:0:0:0:
384,144,124200,1,0,0:0:0:0:
128,144,124400,1,0,0:0:0:0:
128,144,124600,1,0,0:0:0:0:
272,208,124800,6,0,L|240:192,3,26.2500010013581
416,128,125200,5,0,0:0:0:0:
368,256,125400,1,0,0:0:0:0:
240,320,125600,1,0,0:0:0:0:
240,320,125800,1,0,0:0:0:0:
240,320,126000,2,0,B|176:272|176:272|160:240,1,105.000004005432
112,80,126400,5,0,0:0:0:0:
192,320,126600,1,0,0:0:0:0:
320,80,126800,1,0,0:0:0:0:
448,304,127000,1,0,0:0:0:0:
224,192,127200,1,0,0:0:0:0:
384,176,127400,1,4,0:3:0:0:
368,128,127500,1,4,0:3:0:0:
336,80,127600,1,4,0:3:0:0:
112,160,127800,1,0,0:0:0:0:
256,192,128000,5,0,0:0:0:0:
256,192,128100,12,0,131200,2:0:0:0:
144,112,131600,5,8,2:2:0:0:
208,256,132000,1,8,2:2:0:0:
384,256,132400,1,8,2:2:0:0:
192,128,132800,1,8,2:2:0:0:
368,256,133200,5,8,2:2:0:0:
224,112,133600,1,8,2:2:0:0:
112,288,134000,1,8,2:2:0:0:
80,144,134400,1,8,2:2:0:0:
224,192,134800,2,8,B|272:160|288:144|288:144|304:160|320:176|368:144|384:96|384:96,2,210.000008010865,8|8|8,2:2|2:2|2:2,2:2:0:0:
336,240,136000,5,8,2:2:0:0:
336,240,136400,1,8,2:2:0:0:
160,160,136800,1,8,2:2:0:0:
160,272,137200,1,8,2:2:0:0:
160,272,137600,1,8,2:2:0:0:
208,144,138000,1,8,2:2:0:0:
384,208,138400,5,8,2:2:0:0:
384,208,138800,1,8,2:2:0:0:
128,96,139200,1,8,2:2:0:0:
208,288,139600,1,8,2:2:0:0:
384,176,140000,1,8,2:2:0:0:
176,96,140200,5,4,3:3:0:0:
128,112,140300,1,4,3:3:0:0:
96,144,140400,1,4,3:3:0:0:
208,176,140600,1,4,3:3:0:0:
288,240,140800,5,6,3:1:0:0:
128,256,141200,1,8,2:0:0:0:
112,160,141400,1,2,2:1:0:0:
144,64,141600,1,8,2:0:0:0:
304,128,142000,2,8,B|336:176|320:208|256:224|240:256|320:304,1,210.000008010865,10|10,2:1|2:1,2:1:0:0:
384,80,142800,1,8,2:0:0:0:
400,176,143000,1,2,2:1:0:0:
384,272,143200,1,8,2:0:0:0:
128,256,143600,2,8,B|144:192|160:176|112:144|96:128|96:112|128:48,1,210.000008010865,10|10,2:1|2:1,2:1:0:0:
464,192,144400,5,8,2:0:0:0:
368,256,144600,1,2,2:1:0:0:
272,304,144800,1,8,2:0:0:0:
192,224,145200,2,8,B|224:176|208:160|160:128|128:96|256:48,1,210.000008010865,10|10,2:1|2:1,2:1:0:0:
432,176,146000,5,8,2:0:0:0:
384,256,146200,1,2,2:1:0:0:
304,304,146400,1,8,2:0:0:0:
96,224,146800,1,10,2:1:0:0:
192,128,147000,1,2,2:1:0:0:
304,96,147200,1,10,2:1:0:0:
128,128,147600,5,8,2:0:0:0:
208,176,147800,1,2,2:1:0:0:
240,272,148000,1,8,2:0:0:0:
368,320,148400,2,8,B|352:240|352:224|384:192|416:192|384:96,1,210.000008010865,10|10,2:1|2:1,2:0:0:0:
192,112,149200,1,8,2:0:0:0:
128,192,149400,1,2,2:1:0:0:
112,288,149600,1,8,2:0:0:0:
320,304,150000,5,10,2:1:0:0:
416,112,150400,1,10,2:1:0:0:
208,96,150800,1,8,2:0:0:0:
112,144,151000,1,2,2:1:0:0:
48,224,151200,1,8,2:0:0:0:
128,272,151600,2,8,B|208:288|256:288|320:208,1,210.000008010865,10|10,2:1|2:1,2:1:0:0:
304,80,152400,1,8,2:0:0:0:
208,96,152600,1,2,2:1:0:0:
128,160,152800,1,8,2:0:0:0:
400,304,153200,1,10,2:1:0:0:
128,160,153600,5,4,0:1:0:0:
224,272,153800,1,0,0:0:0:0:
352,208,154000,2,8,P|352:160|272:96,2,140,8|8|8,1:1|1:1|1:1,1:1:0:0:
352,288,155200,5,4,0:0:0:0:
160,288,155400,1,0,0:0:0:0:
96,160,155600,2,8,P|80:128|144:32,2,140,8|8|8,1:1|1:1|1:1,1:1:0:0:
208,240,156600,1,4,0:0:0:0:
352,240,156800,5,4,0:0:0:0:
400,112,157000,1,0,0:0:0:0:
240,96,157200,2,8,B|176:112|128:96|80:96,2,140,8|8|8,1:1|1:1|1:1,1:1:0:0:
336,208,158400,1,4,0:3:0:0:
208,272,158600,1,0,0:0:0:0:
352,240,159000,2,0,L|288:208,1,70,0|0,0:3|0:3,0:3:0:0:
208,176,159600,1,0,0:0:0:0:
112,144,159800,5,4,0:0:0:0:
256,112,160000,1,4,0:0:0:0:
368,224,160200,1,0,0:0:0:0:
256,288,160400,2,8,B|208:272|176:272|176:256|160:240|128:224|80:256|80:256,2,140,8|8|8,1:1|1:1|1:1,1:1:0:0:
336,96,161600,5,4,0:0:0:0:
320,256,161800,1,0,0:0:0:0:
208,304,162000,2,8,B|128:288|128:272|112:256|112:240|96:224|96:224,2,140,8|8|8,1:1|1:1|1:1,1:1:0:0:
272,192,163000,1,4,0:0:0:0:
160,128,163200,5,4,0:0:0:0:
128,272,163400,1,0,0:0:0:0:
272,288,163600,2,8,B|320:240|352:256|384:256|416:208,2,140,8|8|8,1:1|1:1|1:1,1:1:0:0:
144,144,164800,1,0,3:0:0:0:
128,112,164900,1,0,3:0:0:0:
112,80,165000,1,0,3:0:0:0:
320,256,165400,1,0,3:0:0:0:
352,160,165600,1,0,3:0:0:0:
144,272,166400,5,0,0:0:0:0:
224,176,166600,1,0,0:0:0:0:
272,160,166700,1,0,0:0:0:0:
320,160,166800,1,0,0:0:0:0:
384,272,167000,1,0,0:0:0:0:
128,256,167200,1,0,0:0:0:0:
112,224,167300,1,0,0:0:0:0:
96,192,167400,1,0,0:0:0:0:
96,160,167500,1,0,0:0:0:0:
96,128,167600,1,0,0:0:0:0:
112,112,167700,1,0,0:0:0:0:
368,240,168000,5,0,0:0:0:0:
352,128,168200,1,0,0:0:0:0:
320,80,168300,1,0,0:0:0:0:
272,48,168400,1,0,0:0:0:0:
272,144,168600,1,0,0:0:0:0:
176,240,168800,1,0,0:0:0:0:
224,256,168900,1,0,0:0:0:0:
272,272,169000,1,0,0:0:0:0:
320,256,169100,1,0,0:0:0:0:
352,240,169200,1,0,0:0:0:0:
400,224,169300,1,0,0:0:0:0:
304,144,169600,5,0,0:0:0:0:
256,224,169800,2,0,L|240:288,2,35
160,192,170200,1,0,0:0:0:0:
96,80,170400,1,0,0:0:0:0:
144,80,170500,1,0,0:0:0:0:
192,80,170600,1,0,0:0:0:0:
240,80,170700,1,0,0:0:0:0:
288,80,170800,1,0,0:0:0:0:
336,80,170900,1,0,0:0:0:0:
208,240,171200,5,0,0:0:0:0:
208,128,171400,1,0,0:0:0:0:
256,96,171500,1,0,0:0:0:0:
288,64,171600,1,0,0:0:0:0:
352,192,171800,1,0,0:0:0:0:
272,256,172000,2,0,P|224:272|224:272,2,35
256,208,172300,1,0,0:0:0:0:
224,176,172400,1,0,0:0:0:0:
368,112,172600,5,0,0:0:0:0:
384,160,172700,1,0,0:0:0:0:
400,208,172800,1,0,0:0:0:0:
112,256,173000,5,0,0:0:0:0:
112,256,173200,1,0,0:0:0:0:
304,96,173400,1,0,0:0:0:0:
304,96,173600,1,0,0:0:0:0:
80,176,173800,1,0,0:0:0:0:
80,176,174000,1,0,0:0:0:0:
288,144,174200,1,0,0:0:0:0:
336,176,174300,1,0,0:0:0:0:
368,208,174400,1,0,0:0:0:0:
240,288,174600,5,0,0:0:0:0:
240,288,174800,1,0,0:0:0:0:
160,112,175000,1,0,0:0:0:0:
160,112,175200,1,0,0:0:0:0:
384,128,175400,1,0,0:0:0:0:
384,128,175600,1,0,0:0:0:0:
224,240,175800,1,0,0:0:0:0:
176,256,175900,1,0,0:0:0:0:
128,256,176000,1,0,0:0:0:0:
80,240,176100,1,0,0:0:0:0:
64,192,176200,1,0,0:0:0:0:
80,144,176300,1,0,0:0:0:0:
112,112,176400,5,0,0:0:0:0:
144,80,176500,1,0,0:0:0:0:
192,80,176600,1,0,0:0:0:0:
240,80,176700,1,0,0:0:0:0:
288,80,176800,1,0,0:0:0:0:
336,96,176900,1,0,0:0:0:0:
368,128,177000,1,0,0:0:0:0:
368,176,177100,1,0,0:0:0:0:
336,208,177200,1,0,0:0:0:0:
304,240,177300,1,0,0:0:0:0:
272,256,177400,1,0,0:0:0:0:
240,272,177500,5,0,0:0:0:0:
192,272,177600,6,0,B|192:224|192:224|208:224|208:208|224:208|224:208|240:192|256:192|304:176,1,140
352,224,178200,1,0,0:0:0:0:
192,240,178400,1,0,0:0:0:0:
336,96,178600,5,2,0:0:0:0:
160,304,178800,1,2,0:0:0:0:
128,64,179000,1,2,0:0:0:0:
336,128,179200,6,2,B|352:160|336:176|320:176|304:176|256:176|224:160|208:176,1,140
80,96,179800,1,0,0:0:0:0:
192,288,180000,1,0,0:0:0:0:
240,96,180200,1,0,0:0:0:0:
64,272,180400,1,0,0:0:0:0:
128,80,180600,1,0,0:0:0:0:
192,192,180800,2,2,L|208:208,2,17.5,2|2|2,1:0|1:0|1:0,1:0:0:0:
160,128,181000,5,0,0:0:0:0:
368,128,181200,1,0,0:0:0:0:
368,272,181400,1,0,0:0:0:0:
96,192,181600,1,0,0:0:0:0:
416,96,181800,1,0,0:0:0:0:
192,256,182000,1,0,0:3:0:0:
192,256,182200,1,0,0:3:0:0:
192,256,182400,2,2,L|208:240,2,17.5,6|2|2,0:3|0:0|0:0,0:0:0:0:
176,80,182800,5,0,0:0:0:0:
80,288,183000,1,0,0:0:0:0:
176,80,183200,1,0,0:0:0:0:
224,320,183400,1,0,0:0:0:0:
176,80,183600,1,0,0:0:0:0:
352,320,183800,1,0,0:0:0:0:
368,80,184000,5,0,0:0:0:0:
176,224,184200,1,0,0:0:0:0:
176,224,184400,1,0,0:0:0:0:
368,80,184600,1,0,0:0:0:0:
112,112,184800,1,0,0:0:0:0:
240,224,185000,1,0,0:0:0:0:
384,272,185200,2,0,L|400:288,8,17.5
224,192,186000,5,0,0:0:0:0:
320,304,186200,1,0,0:0:0:0:
112,256,186400,1,0,0:0:0:0:
192,144,186600,1,0,0:0:0:0:
368,240,186800,1,0,0:0:0:0:
416,80,187000,1,0,0:0:0:0:
240,192,187200,2,0,L|224:208,3,17.5
192,144,187400,5,0,0:0:0:0:
336,64,187600,1,0,0:0:0:0:
400,256,187800,1,0,0:0:0:0:
400,256,188000,1,0,0:0:0:0:
176,224,188200,1,0,0:0:0:0:
96,144,188400,1,0,0:0:0:0:
352,112,188600,1,0,0:0:0:0:
160,240,188800,5,4,0:3:0:0:
160,240,189000,1,4,0:3:0:0:
352,128,189200,1,4,0:3:0:0:
352,128,189400,1,4,0:3:0:0:
128,128,189600,1,4,0:3:0:0:
128,128,189800,1,4,0:3:0:0:
288,288,190000,1,4,0:3:0:0:
288,288,190200,1,4,0:3:0:0:
96,96,190400,5,0,0:0:0:0:
144,96,190500,1,0,0:0:0:0:
192,128,190600,1,0,0:0:0:0:
224,176,190700,1,0,0:0:0:0:
224,224,190800,1,0,0:0:0:0:
176,256,190900,1,0,0:0:0:0:
128,256,191000,1,0,0:0:0:0:
96,224,191100,1,0,0:0:0:0:
112,96,191200,6,2,B|176:96|176:112|224:144,1,105,2|0,0:0|2:0,0:0:0:0:
240,176,191600,2,2,B|272:224|272:224|304:224|336:224,1,105,2|0,0:0|2:0,0:0:0:0:
368,192,192000,2,0,L|368:160,2,17.5,4|0|0,3:3|0:0|0:0,0:0:0:0:
336,96,192400,5,0,0:0:0:0:
128,112,192600,1,0,0:0:0:0:
96,144,192700,1,0,0:0:0:0:
64,176,192800,1,0,0:0:0:0:
128,288,193000,1,0,0:0:0:0:
160,304,193100,1,0,0:0:0:0:
192,320,193200,1,0,0:0:0:0:
224,304,193300,1,0,0:0:0:0:
256,272,193400,1,0,0:0:0:0:
128,224,193600,2,0,L|112:208,2,17.5
192,208,193800,5,0,0:0:0:0:
352,240,194000,1,0,0:0:0:0:
336,192,194100,1,0,0:0:0:0:
288,160,194200,1,0,0:0:0:0:
128,96,194400,1,0,0:0:0:0:
96,144,194500,1,0,0:0:0:0:
96,192,194600,1,0,0:0:0:0:
304,112,194800,1,0,0:0:0:0:
304,112,195000,1,0,0:0:0:0:
208,144,195200,2,0,L|192:160,2,17.5
288,112,195400,5,0,0:0:0:0:
400,224,195600,1,0,0:0:0:0:
400,224,195800,1,0,0:0:0:0:
160,256,196000,1,0,0:0:0:0:
160,256,196200,1,0,0:0:0:0:
96,128,196400,1,0,0:0:0:0:
320,96,196600,1,0,0:0:0:0:
416,256,196800,1,0,0:0:0:0:
384,272,196900,1,0,0:0:0:0:
336,288,197000,1,0,0:0:0:0:
288,288,197100,1,0,0:0:0:0:
240,288,197200,1,0,0:0:0:0:
304,160,197400,5,0,0:0:0:0:
240,112,197600,2,0,B|208:96|176:96|128:128,1,105,0|0,0:0|2:0,0:0:0:0:
80,208,198000,2,0,B|96:240|96:256|96:256|160:288,1,105,0|0,0:0|2:0,0:0:0:0:
208,272,198400,2,0,P|256:288|272:288,2,35
368,160,198800,5,0,0:0:0:0:
112,112,199000,1,0,0:0:0:0:
112,112,199200,1,0,0:0:0:0:
144,256,199400,1,0,0:0:0:0:
352,304,199600,1,0,0:0:0:0:
432,144,199800,1,0,0:0:0:0:
160,96,200200,5,0,0:0:0:0:
336,256,200400,1,0,0:0:0:0:
192,336,200600,1,0,0:0:0:0:
320,112,200800,1,0,0:0:0:0:
160,224,201000,1,0,0:0:0:0:
336,240,201200,1,0,0:0:0:0:
416,96,201400,1,0,0:0:0:0:
96,96,201800,5,0,0:0:0:0:
208,272,202000,1,0,0:0:0:0:
208,272,202200,1,0,0:0:0:0:
400,128,202400,1,0,0:0:0:0:
192,96,202600,1,0,0:0:0:0:
64,224,202800,1,0,0:0:0:0:
64,224,203000,1,0,0:0:0:0:
320,144,203200,5,0,0:0:0:0:
144,96,203400,1,0,0:0:0:0:
144,96,203600,1,0,0:0:0:0:
160,272,203800,1,0,0:0:0:0:
352,80,204000,1,0,0:0:0:0:
352,80,204200,1,0,0:0:0:0:
368,224,204400,1,4,0:3:0:0:
128,144,204600,1,4,0:3:0:0:
368,224,204800,1,4,0:3:0:0:
384,144,205400,6,0,B|352:176|336:192|320:224,1,70
112,112,206200,1,0,0:0:0:0:
112,112,206400,1,0,0:0:0:0:
336,272,206700,6,0,L|352:224,1,35
352,208,206900,2,0,L|368:160,1,35
368,144,207100,2,0,L|352:96,1,35
128,144,207800,1,0,0:0:0:0:
128,144,208000,1,0,0:0:0:0:
128,224,208600,2,0,L|208:272,1,70
336,128,209400,5,0,0:0:0:0:
240,256,209600,1,0,0:0:0:0:
416,208,209900,1,0,0:0:0:0:
320,80,210100,1,0,0:0:0:0:
160,96,210300,1,0,0:0:0:0:
160,288,211000,5,0,1:0:0:0:
192,240,211100,1,0,1:0:0:0:
224,192,211200,1,0,1:0:0:0:
384,96,211400,1,0,0:0:0:0:
144,112,211600,1,0,0:0:0:0:
384,96,211800,1,0,1:0:0:0:
144,240,212000,1,0,1:0:0:0:
384,96,212200,1,0,0:0:0:0:
384,304,212400,1,0,0:0:0:0:
160,304,212600,5,0,0:0:0:0:
128,256,212700,1,0,0:0:0:0:
112,208,212800,1,0,0:0:0:0:
352,112,213000,5,0,0:0:0:0:
176,272,213200,1,0,0:0:0:0:
352,112,213400,1,0,0:0:0:0:
128,320,213600,1,0,0:0:0:0:
368,256,213800,1,0,0:0:0:0:
192,144,214000,1,0,0:0:0:0:
112,288,214200,5,0,0:0:0:0:
128,240,214300,1,0,0:0:0:0:
144,192,214400,1,0,0:0:0:0:
160,160,214500,1,0,0:0:0:0:
192,128,214600,1,0,0:0:0:0:
240,112,214700,1,0,0:0:0:0:
288,112,214800,1,0,0:0:0:0:
336,144,214900,1,0,0:0:0:0:
352,192,215000,1,0,0:0:0:0:
320,240,215100,1,0,0:0:0:0:
272,256,215200,1,0,0:0:0:0:
224,240,215300,1,0,0:0:0:0:
208,192,215400,1,0,0:0:0:0:
208,144,215500,1,0,0:0:0:0:
224,96,215600,1,0,0:0:0:0:
256,80,215700,1,0,0:0:0:0:
304,64,215800,1,0,0:0:0:0:
352,64,215900,1,0,0:0:0:0:
368,144,216000,6,0,B|352:176|336:192|336:208|320:224|272:256,1,140
96,144,216600,1,0,0:0:0:0:
96,144,216800,1,0,0:0:0:0:
384,112,217000,5,2,0:0:0:0:
256,320,217200,1,2,0:0:0:0:
128,128,217400,1,2,0:0:0:0:
336,288,217600,6,0,B|368:256|352:240|352:224|336:224|320:224|320:224|336:208|352:208|352:208|352:192,1,140,0|2,0:0|0:0,0:0:0:0:
208,96,218200,1,2,0:0:0:0:
96,192,218400,1,2,0:0:0:0:
224,336,218600,1,2,0:0:0:0:
336,160,218800,1,2,0:0:0:0:
336,160,219000,1,2,0:0:0:0:
272,208,219200,6,0,L|240:192,3,26.2500010013581,0|0|0|2,0:0|0:0|0:0|0:0,0:0:0:0:
384,160,219600,1,2,0:0:0:0:
160,304,219800,1,2,0:0:0:0:
320,80,220000,1,2,0:0:0:0:
96,112,220200,1,2,0:0:0:0:
384,256,220400,1,2,0:0:0:0:
272,96,220600,1,2,0:0:0:0:
272,208,220800,6,0,L|240:192,3,26.2500010013581
112,80,221200,5,2,0:0:0:0:
224,304,221400,1,2,0:0:0:0:
400,112,221600,1,2,0:0:0:0:
432,304,221800,1,2,0:0:0:0:
432,304,222000,1,2,0:0:0:0:
320,144,222200,1,2,0:0:0:0:
112,240,222400,1,2,0:0:0:0:
112,240,222600,1,2,0:0:0:0:
144,80,222800,1,2,0:0:0:0:
384,96,223000,5,2,0:0:0:0:
352,240,223200,1,2,0:0:0:0:
192,272,223400,1,2,0:0:0:0:
192,272,223600,1,2,0:0:0:0:
144,112,223800,1,2,0:0:0:0:
176,192,224000,6,0,L|160:208,7,17.500000667572,0|0|0|0|0|0|0|0,1:0|1:0|1:0|1:0|1:0|1:0|1:0|1:0,1:0:0:0:
240,192,224400,5,2,0:0:0:0:
416,112,224600,1,2,0:0:0:0:
384,320,224800,1,2,0:0:0:0:
128,80,225000,1,2,0:0:0:0:
272,240,225200,2,0,B|256:288|256:288|224:304,1,70,2|2,0:0|0:0,0:0:0:0:
384,288,225800,5,2,0:0:0:0:
432,144,226000,1,2,0:0:0:0:
432,144,226200,1,2,0:0:0:0:
176,272,226400,1,2,0:0:0:0:
192,96,226600,1,2,0:0:0:0:
416,176,226800,1,2,0:0:0:0:
128,272,227000,1,2,0:0:0:0:
176,192,227200,6,0,L|160:208,5,17.500000667572,0|0|0|0|0|0,2:0|2:0|2:0|2:0|2:0|2:0,2:0:0:0:
384,272,227600,5,2,0:0:0:0:
304,96,227800,1,2,0:0:0:0:
64,256,228000,1,2,0:0:0:0:
368,256,228200,1,2,0:0:0:0:
144,96,228400,1,2,0:0:0:0:
144,96,228600,1,2,0:0:0:0:
384,304,228800,5,2,0:0:0:0:
400,160,229000,1,2,0:0:0:0:
368,32,229200,1,2,0:0:0:0:
112,80,229400,1,2,0:0:0:0:
352,80,229600,5,4,0:3:0:0:
128,240,229800,1,4,0:3:0:0:
352,80,230000,1,4,0:3:0:0:
128,240,230200,1,4,0:3:0:0:
432,80,230600,5,0,0:0:0:0:
384,256,230800,1,0,0:0:0:0:
208,112,231000,1,0,0:0:0:0:
304,320,231200,1,0,0:0:0:0:
400,160,231400,5,0,0:0:0:0:
368,112,231500,1,0,0:0:0:0:
320,80,231600,1,0,0:0:0:0:
368,224,231800,1,4,0:3:0:0:
416,80,232000,5,0,0:0:0:0:
176,160,232200,1,0,0:0:0:0:
336,96,232400,2,0,B|352:176|352:192|336:208|320:240|304:256|272:272|256:288,1,210.000008010865,4|4,0:3|0:3,0:0:0:0:
368,80,233200,1,0,0:0:0:0:
416,208,233400,1,0,0:0:0:0:
80,64,233600,1,0,0:0:0:0:
304,272,233800,1,0,0:0:0:0:
128,272,234000,2,4,B|112:208|112:192|112:192|128:176|160:128|208:96,1,210.000008010865
64,192,234600,5,0,0:0:0:0:
176,320,234800,1,0,0:0:0:0:
352,256,235000,1,4,0:3:0:0:
320,96,235200,1,0,0:0:0:0:
272,96,235300,1,0,0:0:0:0:
224,96,235400,1,0,0:0:0:0:
384,240,235600,2,0,B|320:272|240:272|208:272|160:240,1,210.000008010865,4|0,0:3|0:0,0:0:0:0:
368,160,236200,1,0,0:0:0:0:
368,160,236400,1,0,0:0:0:0:
368,160,236600,1,0,0:0:0:0:
176,192,236800,1,4,0:3:0:0:
144,112,237200,5,2,0:0:0:0:
224,240,237400,2,0,B|272:272|288:272|352:272,1,105.000004005432,2|2,0:0|0:0,0:0:0:0:
384,96,237800,1,2,0:0:0:0:
384,96,238000,1,2,0:0:0:0:
384,96,238200,1,2,0:0:0:0:
144,160,238400,2,0,L|160:176,5,17.500000667572,0|0|0|0|0|0,2:0|2:0|2:0|2:0|2:0|2:0,2:0:0:0:
224,112,238600,5,2,0:0:0:0:
368,272,238800,1,2,0:0:0:0:
128,256,239000,1,2,0:0:0:0:
192,80,239200,2,0,P|256:64|288:96,2,105.000004005432,2|2|2,0:0|0:0|0:0,0:0:0:0:
400,176,239800,1,2,0:0:0:0:
176,192,240000,6,0,L|160:208,7,17.500000667572,0|0|0|0|0|0|0|0,3:0|3:0|3:0|3:0|3:0|3:0|3:0|3:0,3:0:0:0:
192,80,240400,5,2,0:0:0:0:
224,288,240600,1,2,0:0:0:0:
368,96,240800,1,2,0:0:0:0:
320,272,241000,1,2,0:0:0:0:
112,96,241200,1,2,0:0:0:0:
112,96,241400,1,2,0:0:0:0:
320,80,241600,5,2,0:0:0:0:
112,272,241800,1,2,0:0:0:0:
112,272,242000,1,2,0:0:0:0:
128,80,242200,1,2,0:0:0:0:
320,288,242400,1,2,0:0:0:0:
400,160,242600,5,2,0:0:0:0:
368,112,242700,1,0,0:0:0:0:
320,80,242800,1,0,0:0:0:0:
128,112,243000,1,0,0:0:0:0:
208,144,243200,2,0,L|192:160,2,17.5
400,96,243600,5,0,0:0:0:0:
256,192,243800,1,0,0:0:0:0:
400,288,244000,1,0,0:0:0:0:
256,192,244200,1,0,0:0:0:0:
400,96,244400,1,0,0:0:0:0:
256,192,244600,1,0,0:0:0:0:
400,288,244800,2,0,L|384:304,2,17.5
240,256,245000,5,0,0:0:0:0:
144,144,245200,1,0,0:0:0:0:
320,48,245400,1,0,0:0:0:0:
320,48,245600,1,0,0:0:0:0:
144,144,245800,1,0,0:0:0:0:
240,256,246000,1,0,0:0:0:0:
144,144,246200,1,0,0:0:0:0:
320,48,246400,2,0,L|304:64,2,17.5
112,192,246800,5,0,0:0:0:0:
256,256,247000,1,0,0:0:0:0:
400,192,247200,1,0,0:0:0:0:
400,192,247400,1,0,0:0:0:0:
256,256,247600,1,0,0:0:0:0:
400,192,247800,1,0,0:0:0:0:
256,256,248000,1,0,0:0:0:0:
112,192,248200,1,0,0:0:0:0:
336,80,248400,2,0,B|368:128|368:128|368:144|352:176,1,105.000004005432
128,112,248800,2,0,P|112:192|128:240,1,105.000004005432
336,272,249200,5,0,0:0:0:0:
160,128,249400,1,0,0:0:0:0:
336,272,249600,1,0,0:0:0:0:
160,96,250000,6,0,B|144:160|160:192|176:208,1,105.000004005432
176,208,250400,2,0,B|224:160|256:160|304:176,1,105.000004005432
272,176,250800,2,0,P|256:256|224:272,1,105.000004005432
144,160,251200,1,0,0:0:0:0:
144,160,251400,1,0,0:0:0:0:
352,144,251600,1,0,0:0:0:0:
352,144,251800,1,0,0:0:0:0:
208,256,252000,1,0,0:0:0:0:
208,256,252200,1,0,0:0:0:0:
128,144,252400,1,0,0:0:0:0:
128,144,252600,1,0,0:0:0:0:
352,256,252800,1,0,0:0:0:0:
352,112,253200,5,0,0:0:0:0:
352,272,253400,1,0,0:0:0:0:
160,272,253600,1,0,0:0:0:0:
160,112,253800,1,0,0:0:0:0:
432,192,254000,5,0,0:0:0:0:
256,320,254200,1,0,0:0:0:0:
80,192,254400,1,0,0:0:0:0:
256,48,254600,1,0,0:0:0:0:
304,144,254800,5,0,0:0:0:0:
144,256,255000,1,0,0:0:0:0:
432,96,255200,2,2,L|304:224,1,157.500006008148,2|0,0:0|2:0,0:0:0:0:
64,64,255600,2,2,L|208:208,1,157.500006008148,2|0,0:0|2:0,0:0:0:0:
368,288,256400,5,0,0:0:0:0:
256,128,256600,1,0,0:0:0:0:
144,288,256800,1,0,0:0:0:0:
256,128,257000,1,0,0:0:0:0:
368,288,257200,1,0,0:0:0:0:
256,128,257400,1,0,0:0:0:0:
144,288,257600,1,0,0:0:0:0:
144,128,257800,5,0,0:0:0:0:
256,288,258000,1,0,0:0:0:0:
368,128,258200,1,0,0:0:0:0:
256,288,258400,1,0,0:0:0:0:
144,128,258600,1,0,0:0:0:0:
256,288,258800,1,0,0:0:0:0:
256,288,259000,1,0,0:0:0:0:
368,128,259200,1,0,0:0:0:0:
96,112,259600,6,0,P|144:160|192:160,1,105.000004005432
384,192,260000,2,0,P|320:256|288:256,1,105.000004005432
144,288,260400,2,0,P|176:336|224:320,1,105.000004005432
256,96,260800,2,0,L|256:208,1,105.000004005432
400,288,261200,5,0,0:0:0:0:
256,320,261400,1,0,0:0:0:0:
128,288,261600,1,0,0:0:0:0:
400,288,261800,1,0,0:0:0:0:
256,320,262000,1,0,0:0:0:0:
128,288,262200,1,0,0:0:0:0:
400,288,262400,1,0,0:0:0:0:
384,112,262800,5,0,0:0:0:0:
384,112,263000,1,0,0:0:0:0:
144,288,263200,1,0,0:0:0:0:
144,288,263400,1,0,0:0:0:0:
176,96,263600,1,0,0:0:0:0:
384,288,263800,5,0,0:0:0:0:
384,288,264000,1,0,0:0:0:0:
128,112,264200,1,0,0:0:0:0:
384,240,264400,1,0,0:0:0:0:
128,112,264600,1,0,0:0:0:0:
384,128,264800,1,0,0:0:0:0:
240,272,265000,1,0,0:0:0:0:
144,128,265200,2,0,B|208:80|240:64|240:64,2,105.000004005432
160,192,266000,5,0,0:0:0:0:
384,112,266200,1,0,0:0:0:0:
336,272,266400,1,0,0:0:0:0:
112,272,266600,1,0,0:0:0:0:
384,96,266800,1,0,0:0:0:0:
80,80,267000,1,0,0:0:0:0:
400,288,267200,1,0,0:0:0:0:
160,272,267400,5,0,0:0:0:0:
336,128,267600,1,0,0:0:0:0:
160,96,267800,1,0,0:0:0:0:
352,80,268000,1,0,0:0:0:0:
96,272,268200,1,0,0:0:0:0:
400,272,268400,1,0,0:0:0:0:
112,96,268600,1,0,0:0:0:0:
112,96,268800,1,4,0:3:0:0:
