osu file format v14

[General]
AudioFilename: audio.mp3
AudioLeadIn: 0
PreviewTime: 6376
Countdown: 1
SampleSet: Soft
StackLeniency: 0.3
Mode: 0
LetterboxInBreaks: 0
WidescreenStoryboard: 0

[Editor]
DistanceSpacing: 1.3
BeatDivisor: 4
GridSize: 32
TimelineZoom: 2.200006

[Metadata]
Title:Superstar
TitleUnicode:Superstar
Artist:Pegboard Nerds & NGHTMRE (feat. Krewella)
ArtistUnicode:Pegboard Nerds & NGHTMRE (feat. Krewella)
Creator:handsome
Version:Master
Source:
Tags:monstercat dubstep electro dance
BeatmapID:1099081
BeatmapSetID:517244

[Difficulty]
HPDrainRate:5.5
CircleSize:4
OverallDifficulty:9
ApproachRate:9.3
SliderMultiplier:1.4
SliderTickRate:1

[Events]
//Background and Video events
0,0,"spr str.png",0,0
//Break Periods
2,102676,108322
//Storyboard Layer 0 (Background)
//Storyboard Layer 1 (Fail)
//Storyboard Layer 2 (Pass)
//Storyboard Layer 3 (Foreground)
//Storyboard Sound Samples

[TimingPoints]
6476,400,4,2,1,20,1,0
12876,-100,4,2,1,30,0,0
18876,-166.666666666667,4,2,1,40,0,0
19276,-100,4,2,1,50,0,0
32076,-83.3333333333333,4,2,1,60,0,0
60876,-62.5,4,2,1,60,0,0
63676,-50,4,2,1,60,0,0
64076,-50,4,2,1,70,0,1
64876,-25,4,2,1,80,0,0
67276,-16.6666666666667,4,2,1,80,0,0
68076,-25,4,2,1,80,0,0
69676,-50,4,2,1,80,0,0
70476,-100,4,2,1,70,0,1
71276,-25,4,2,1,80,0,0
73676,-16.6666666666667,4,2,1,80,0,0
74076,-33.3333333333333,4,2,1,80,0,0
74476,-25,4,2,1,80,0,0
76076,-50,4,2,1,80,0,0
76876,-100,4,2,1,70,0,1
77476,-200,4,2,1,80,0,0
82476,-50,4,2,1,80,0,0
83276,-100,4,2,1,70,0,1
84076,-12.5,4,2,1,80,0,0
86476,-50,4,2,1,80,0,0
86876,-100,4,2,1,80,0,0
87276,-50,4,2,1,80,0,0
87676,-71.4285714285714,4,2,1,80,0,0
88076,-50,4,2,1,80,0,0
88476,-55.5555555555556,4,2,1,80,0,0
88876,-50,4,2,1,80,0,0
89676,-100,4,2,1,70,0,1
90476,-25,4,2,1,80,0,0
99276,-200,4,2,1,80,0,0
102476,-25,4,2,1,80,0,0
108876,-83.3333333333333,4,2,1,60,0,0
131276,-62.5,4,2,1,40,0,0
131676,-62.5,4,2,1,50,0,0
132076,-62.5,4,2,1,60,0,0
132476,-62.5,4,2,1,55,0,0
132576,-62.5,4,2,1,50,0,0
132676,-62.5,4,2,1,45,0,0
132776,-62.5,4,2,1,40,0,0
132876,-62.5,4,2,1,35,0,0
134076,-50,4,2,1,60,0,0
134476,-50,4,2,1,70,0,1
135276,-25,4,2,1,80,0,0
137676,-16.6666666666667,4,2,1,80,0,0
138076,-33.3333333333333,4,2,1,80,0,0
138476,-25,4,2,1,80,0,0
140076,-50,4,2,1,80,0,0
140876,-100,4,2,1,70,0,1
141676,-12.5,4,2,1,80,0,0
146476,-50,4,2,1,80,0,0
147276,-100,4,2,1,70,0,1
147876,-200,4,2,1,80,0,0
152876,-50,4,2,1,80,0,0
153676,-25,4,2,1,70,0,1
154476,-12.5,4,2,1,80,0,0
156876,-50,4,2,1,80,0,0
157276,-100,4,2,1,80,0,0
157676,-50,4,2,1,80,0,0
158076,-71.4285714285714,4,2,1,80,0,0
158476,-50,4,2,1,80,0,0
158876,-55.5555555555556,4,2,1,80,0,0
159276,-50,4,2,1,80,0,0
160076,-100,4,2,1,70,0,1
160876,-25,4,2,1,80,0,0
172876,-100,4,2,1,40,0,0
185676,-142.857142857143,4,2,1,30,0,0

[Colours]
Combo1 : 255,230,10
Combo2 : 192,222,237
Combo3 : 194,187,236
Combo4 : 99,231,254
Combo5 : 84,235,159

[HitObjects]
254,212,6476,5,2,0:0:0:0:
254,212,6676,2,0,B|246:179|246:179|260:132,1,70
319,255,7076,1,0,0:0:0:0:
254,291,7276,2,0,L|168:280,1,70
105,309,7676,2,0,L|191:298,1,70
92,152,8076,5,2,0:0:0:0:
40,201,8276,2,0,P|35:226|48:287,2,70
249,76,8876,53,2,0:0:0:0:
329,207,9076,2,0,P|334:241|321:299,2,70
200,156,9676,5,2,0:0:0:0:
200,156,9876,2,0,L|273:159,1,70
406,104,10276,1,0,0:0:0:0:
339,71,10476,2,0,B|331:106|331:106|343:152,1,70
475,137,10876,2,0,B|483:102|483:102|471:56,1,70
373,227,11276,53,2,0:0:0:0:
377,232,11476,1,0,0:0:0:0:
382,227,11676,1,0,0:0:0:0:
377,223,11876,1,0,0:0:0:0:
343,296,12076,5,2,0:0:0:0:
449,260,12276,1,0,0:0:0:0:
413,154,12476,1,0,0:0:0:0:
307,190,12676,1,0,0:0:0:0:
233,355,12876,53,2,0:0:0:0:
163,374,13076,2,0,L|85:367,1,70
103,196,13476,1,0,0:0:0:0:
47,242,13676,2,0,P|39:287|47:329,1,70
24,383,14076,2,0,P|16:338|24:296,1,70
239,260,14476,5,2,0:0:0:0:
116,246,14676,2,0,L|30:240,2,70
279,193,15276,53,2,0:0:0:0:
82,212,15476,2,0,L|-4:218,2,70
0,145,16076,5,2,0:0:0:0:
31,80,16276,2,0,B|65:69|65:69|107:75,1,70
203,182,16676,1,0,0:0:0:0:
165,120,16876,2,0,L|170:41,1,70
316,14,17276,2,0,L|311:93,1,70
191,255,17676,53,2,0:0:0:0:
185,238,17876,1,0,0:0:0:0:
289,232,18076,5,0,0:0:0:0:
287,192,18276,1,0,0:0:0:0:
400,269,18476,53,2,0:0:0:0:
441,170,18676,1,0,0:0:0:0:
297,55,18876,6,0,B|294:75|294:75|300:95,1,41.9999987182618
381,46,19276,54,0,L|282:39,1,70,6|0,0:0|0:0,0:0:0:0:
251,0,19676,1,0,0:0:0:0:
133,88,19876,5,0,0:0:0:0:
206,133,20076,2,0,P|215:100|207:44,1,70
52,64,20476,2,0,P|50:99|60:133,1,70
161,191,20876,54,0,L|62:203,1,70,6|0,0:0|0:0,0:0:0:0:
238,304,21276,2,0,L|339:316,1,70
145,328,21676,2,0,P|204:289|223:189,1,140,6|0,0:0|0:0,0:0:0:0:
294,189,22276,2,0,B|305:225|305:225|297:263,1,70,0|6,0:0|0:0,0:0:0:0:
246,133,22676,5,0,0:0:0:0:
307,91,22876,2,0,L|391:92,1,70
462,192,23276,1,0,0:0:0:0:
384,167,23476,1,0,0:0:0:0:
456,217,23676,1,0,0:0:0:0:
378,192,23876,1,0,0:0:0:0:
350,301,24076,54,0,P|337:269|311:244,1,70,6|0,0:0|0:0,0:0:0:0:
150,226,24476,2,0,P|125:250|111:282,1,70
239,199,24876,2,0,P|181:200|119:128,1,140,6|0,0:0|0:0,0:0:0:0:
78,23,25476,2,0,L|71:106,1,70,0|6,0:0|0:0,0:0:0:0:
42,267,25876,5,0,0:0:0:0:
68,194,26076,2,0,B|31:189|31:189|0:199,1,70
98,319,26476,53,0,0:0:0:0:
119,251,26676,1,0,0:0:0:0:
182,217,26876,1,0,0:0:0:0:
250,236,27076,1,0,0:0:0:0:
286,297,27276,6,0,P|282:335|271:384,1,70,6|0,0:0|0:0,0:0:0:0:
456,231,27676,2,0,P|460:269|471:318,1,70
357,208,28076,2,0,P|372:281|372:359,1,140,6|0,0:0|0:0,0:0:0:0:
373,346,28676,1,0,0:0:0:0:
198,208,28876,53,6,0:0:0:0:
245,150,29076,2,0,P|287:143|328:152,1,70
449,227,29476,1,0,0:0:0:0:
401,54,29676,2,0,P|386:127|386:205,1,140
163,316,30476,5,6,0:0:0:0:
190,162,30676,2,0,L|205:62,2,70
163,352,31276,53,6,0:0:0:0:
119,115,31476,2,0,L|104:14,2,70
112,292,32076,6,0,L|10:279,1,83.9999974365235,6|0,1:2|0:0,0:0:0:0:
256,187,32476,2,0,L|358:174,1,83.9999974365235,0|0,1:0|0:0,0:0:0:0:
220,122,32876,53,0,1:0:0:0:
376,241,33076,1,0,0:0:0:0:
357,102,33276,1,0,1:0:0:0:
238,259,33476,1,0,0:0:0:0:
457,273,33676,6,0,L|474:180,1,83.9999974365235,6|0,1:2|0:0,0:0:0:0:
357,344,34076,2,0,L|264:361,1,83.9999974365235,0|0,1:0|0:0,0:0:0:0:
458,354,34476,2,0,P|415:277|310:261,1,167.999994873047,6|0,1:2|1:0,0:0:0:0:
194,319,35076,2,0,L|300:332,1,83.9999974365235,0|6,0:0|1:2,0:0:0:0:
207,211,35476,53,0,0:0:0:0:
90,371,35676,1,0,1:0:0:0:
21,193,35876,1,0,0:0:0:0:
57,280,36076,6,0,P|106:262|161:216,1,83.9999974365235,0|0,1:0|0:0,0:0:0:0:
133,144,36476,2,0,P|84:126|29:80,1,83.9999974365235,0|0,1:0|0:0,0:0:0:0:
312,95,36876,2,0,P|273:171|167:193,1,167.999994873047,6|0,1:2|1:0,0:0:0:0:
132,244,37476,1,0,0:0:0:0:
315,274,37676,53,6,1:2:0:0:
276,200,37876,2,0,B|318:190|318:190|358:199,1,83.9999974365235,0|0,0:0|1:0,0:0:0:0:
273,351,38276,2,0,B|314:361|314:361|354:352,1,83.9999974365235,0|6,0:0|1:2,0:0:0:0:
402,262,38676,5,0,0:0:0:0:
510,288,38876,1,0,1:0:0:0:
422,243,39076,53,0,0:0:0:0:
499,263,39276,2,0,L|509:170,1,83.9999974365235,0|0,1:0|0:0,0:0:0:0:
441,31,39676,2,0,L|451:124,1,83.9999974365235,0|0,1:0|0:0,0:0:0:0:
281,250,40076,6,0,P|362:246|414:183,1,167.999994873047,6|0,1:2|1:0,0:0:0:0:
375,119,40676,1,0,0:0:0:0:
234,111,40876,54,0,P|220:146|236:219,1,83.9999974365235,6|0,1:2|0:0,0:0:0:0:
391,100,41276,2,0,P|352:72|310:65,1,83.9999974365235,0|0,1:0|0:0,0:0:0:0:
112,52,41676,5,6,1:2:0:0:
48,87,41876,2,0,B|39:130|39:130|57:176,1,83.9999974365235,0|0,0:0|1:0,0:0:0:0:
255,238,42276,1,0,0:0:0:0:
206,184,42476,54,0,P|184:177|99:196,1,83.9999974365235,2|0,1:2|0:0,0:0:0:0:
122,297,42876,2,0,P|143:303|228:284,1,83.9999974365235,0|0,1:0|0:0,0:0:0:0:
200,180,43276,6,0,P|178:175|95:201,1,83.9999974365235,6|0,1:2|0:0,0:0:0:0:
127,300,43676,2,0,P|148:304|231:278,1,83.9999974365235,0|0,1:0|0:0,0:0:0:0:
328,107,44076,53,6,1:2:0:0:
288,242,44276,2,0,L|274:151,2,83.9999974365235,0|0|0,0:0|1:0|0:0,0:0:0:0:
499,357,44876,53,6,3:2:0:0:
275,316,45076,1,0,0:0:0:0:
423,142,45276,1,8,3:2:0:0:
423,142,45676,6,0,L|306:153,1,83.9999974365235,6|0,3:2|0:0,0:0:0:0:
230,237,46076,1,8,3:2:0:0:
230,237,46476,6,0,L|113:226,1,83.9999974365235,6|0,3:2|0:0,0:0:0:0:
11,384,46876,1,8,3:2:0:0:
74,345,47076,2,0,P|83:304|79:260,1,83.9999974365235,0|0,0:0|3:0,0:0:0:0:
69,76,47476,53,0,0:0:0:0:
5,114,47676,2,0,P|-3:155|0:199,1,83.9999974365235,8|0,3:2|0:0,0:0:0:0:
251,316,48076,53,6,3:2:0:0:
210,116,48276,1,0,0:0:0:0:
58,251,48476,1,8,3:2:0:0:
58,251,48876,6,0,L|157:232,1,83.9999974365235,6|0,3:2|0:0,0:0:0:0:
205,269,49276,1,8,3:2:0:0:
266,138,49476,6,0,B|256:180|256:180|270:240,1,83.9999974365235,2|0,0:1|3:0,0:0:0:0:
408,243,49876,2,0,B|418:201|418:201|404:141,1,83.9999974365235,2|8,0:1|3:2,0:0:0:0:
344,355,50276,2,0,L|332:259,1,83.9999974365235,2|0,0:1|3:0,0:0:0:0:
422,71,50676,53,0,0:0:0:0:
460,171,50876,2,0,P|405:176|342:141,1,83.9999974365235,8|0,3:2|0:0,0:0:0:0:
325,14,51276,53,6,3:2:0:0:
512,116,51476,1,0,0:0:0:0:
331,227,51676,1,8,3:2:0:0:
331,227,52076,6,0,P|342:269|328:327,1,83.9999974365235,6|0,3:2|0:0,0:0:0:0:
152,110,52476,1,8,3:2:0:0:
152,110,52876,6,0,P|141:152|155:210,1,83.9999974365235,6|0,3:2|0:0,0:0:0:0:
343,201,53276,1,8,3:2:0:0:
284,249,53476,2,0,L|190:241,1,83.9999974365235,0|0,0:0|3:0,0:0:0:0:
83,78,53876,53,0,0:0:0:0:
142,34,54076,2,0,L|236:26,1,83.9999974365235,8|0,3:2|0:0,0:0:0:0:
415,195,54476,53,6,3:2:0:0:
294,52,54676,1,0,0:0:0:0:
231,227,54876,1,8,3:2:0:0:
231,227,55276,6,0,B|238:183|238:183|224:112,1,83.9999974365235,0|0,3:0|0:0,0:0:0:0:
158,129,55676,1,8,3:2:0:0:
51,256,55876,2,0,B|44:212|44:212|58:141,1,83.9999974365235,2|0,0:1|3:0,0:0:0:0:
144,50,56276,6,0,L|33:44,1,83.9999974365235,2|8,0:1|3:2,0:0:0:0:
358,210,56676,2,0,L|469:204,1,83.9999974365235,2|0,0:1|3:0,0:0:0:0:
229,324,57076,53,0,0:0:0:0:
147,374,57276,2,0,P|136:328|154:266,1,83.9999974365235,8|0,3:2|0:0,0:0:0:0:
275,103,57676,5,14,3:2:0:0:
98,230,57876,1,0,3:0:0:0:
309,325,58076,37,2,3:1:0:0:
219,159,58276,5,0,3:0:0:0:
221,167,58476,1,14,3:2:0:0:
227,162,58676,1,0,3:0:0:0:
175,246,58876,53,2,3:1:0:0:
298,121,59076,21,0,3:0:0:0:
296,129,59276,1,14,3:2:0:0:
290,124,59476,1,0,3:0:0:0:
410,231,59676,37,2,3:1:0:0:
386,150,59876,1,2,3:1:0:0:
235,68,60076,5,14,3:2:0:0:
232,76,60276,1,0,3:0:0:0:
114,147,60476,53,2,3:1:0:0:
153,0,60676,1,2,3:1:0:0:
305,32,60876,21,0,3:0:0:0:
316,85,60976,1,0,3:0:0:0:
293,135,61076,1,0,3:0:0:0:
243,159,61176,1,0,3:0:0:0:
190,148,61276,54,0,P|200:187|204:229,1,56,2|0,3:1|3:0,0:0:0:0:
205,280,61476,2,0,P|214:241|218:199,1,56,2|0,3:1|3:0,0:0:0:0:
328,101,61676,6,0,P|337:139|341:181,1,56,2|0,3:1|3:0,0:0:0:0:
370,328,61876,2,0,P|379:289|383:247,1,56,2|0,3:1|3:0,0:0:0:0:
468,150,62076,53,0,3:0:0:0:
425,209,62176,1,0,3:0:0:0:
494,186,62276,1,0,3:0:0:0:
425,164,62376,1,0,3:0:0:0:
468,223,62476,1,0,3:0:0:0:
247,83,63276,5,4,0:3:0:0:
247,83,63376,1,4,0:3:0:0:
247,83,63476,2,0,L|253:163,1,56,4|0,0:3|0:0,0:0:0:0:
172,86,63676,54,0,P|159:43|161:3,1,70,0|0,3:0|0:0,0:0:0:0:
322,156,63876,2,0,P|320:190|308:223,1,70,4|0,0:3|0:0,0:0:0:0:
475,278,64076,54,0,P|430:258|365:259,1,105,6|0,0:1|0:0,0:0:0:0:
313,301,64276,2,0,P|268:321|203:320,1,105,6|0,0:1|0:0,0:0:0:0:
130,227,64476,1,6,0:1:0:0:
130,227,64876,38,0,B|98:117|98:117|173:157|173:157|107:405,1,420,2|0,3:0|0:0,0:0:0:0:
30,175,65276,2,0,B|288:128|288:128|238:224|238:224|253:150,1,420,6|0,0:3|0:0,0:0:0:0:
432,115,65676,5,2,1:3:0:0:
351,80,65776,1,2,0:3:0:0:
421,28,65876,1,2,0:3:0:0:
391,360,66076,54,0,B|467:332|467:332|342:217|342:217|311:384,1,420,6|0,0:3|0:0,0:0:0:0:
308,147,66476,2,0,B|386:71|386:71|284:94|284:94|244:302,1,420,2|0,3:0|0:0,0:0:0:0:
85,245,66876,6,0,L|223:221,1,140,2|0,1:3|0:0,0:0:0:0:
382,320,67076,2,0,L|245:296,1,140,2|0,0:3|0:0,0:0:0:0:
74,328,67276,54,2,B|57:215|57:215|144:146|144:146|248:185|248:185|266:297|266:297|177:368|177:368|86:334,1,630.000024032594,2|0,0:3|0:0,0:1:0:0:
161,254,67676,5,2,1:3:0:0:
273,148,67776,1,2,0:3:0:0:
308,298,67876,1,2,0:3:0:0:
15,384,68076,54,0,L|40:225,1,140,2|0,3:0|0:0,0:0:0:0:
179,164,68276,2,0,L|159:23,1,140,2|0,0:3|0:0,0:0:0:0:
423,298,68476,5,6,0:3:0:0:
307,245,68576,1,2,0:3:0:0:
410,165,68676,1,2,0:3:0:0:
0,121,68876,54,0,L|171:91,1,140,2|0,1:3|0:0,0:0:0:0:
248,193,69076,2,0,L|414:244,1,140,2|0,0:3|0:0,0:0:0:0:
458,6,69276,2,0,L|287:36,1,140,6|0,0:3|0:0,0:0:0:0:
346,137,69476,6,0,B|280:117|280:117|419:99,1,210,2|0,0:1|0:0,0:0:0:0:
485,134,69676,22,0,P|486:171|475:204,1,70,0|0,3:0|0:0,0:0:0:0:
366,360,69876,2,0,P|343:332|332:297,1,70,4|0,0:3|0:0,0:0:0:0:
329,107,70076,2,0,P|360:116|392:138,1,70,0|0,3:0|0:0,0:0:0:0:
506,289,70276,2,0,P|472:303|436:301,1,70,4|0,0:3|0:0,0:0:0:0:
304,195,70476,54,0,L|271:229,1,35,6|0,0:1|0:0,0:0:0:0:
176,215,70676,2,0,L|164:260,1,35,6|0,0:1|0:0,0:0:0:0:
74,296,70876,2,0,L|86:341,1,35,6|0,0:1|0:0,0:0:0:0:
43,294,71276,38,2,B|59:234|179:171|273:276|236:368|236:368|191:337|200:281,1,420,0|0,3:0|0:0,0:1:0:0:
248,217,71676,2,2,P|304:179|412:307,1,210,4|0,0:3|0:0,0:1:0:0:
351,349,71876,2,0,B|304:304|325:251|325:251|350:258|334:304,1,140,8|0,0:3|0:0,0:0:0:0:
364,106,72076,6,2,B|411:103|531:192|481:294|481:294|403:356|340:275,1,420,0|0,1:0|0:0,0:1:0:0:
342,191,72476,2,2,P|287:255|169:220,1,210,4|0,0:3|0:0,0:1:0:0:
228,149,72676,2,0,P|269:150|226:153,1,140,8|0,0:3|0:0,0:0:0:0:
14,170,72876,54,0,P|117:165|202:109,1,140,2|0,3:1|0:0,0:0:0:0:
216,62,73076,2,0,P|284:65|337:112,1,140,2|0,0:1|0:0,0:0:0:0:
289,364,73276,1,0,1:0:0:0:
289,364,73676,6,2,B|321:218|239:80|8:133|13:275|10:381|205:467|296:342|227:183|148:254|148:294,1,630.000024032594,4|0,0:3|0:0,0:3:0:0:
248,320,74076,2,0,P|291:315|350:266,1,105.000004005432,0|0,1:0|0:0,0:0:0:0:
381,193,74276,2,0,P|376:149|327:90,1,105.000004005432
206,39,74476,54,2,B|100:17|3:143|29:222|29:222|93:259|145:208,1,420,0|0,3:0|0:0,0:1:0:0:
253,109,74876,2,2,P|154:89|81:159,1,210,4|0,0:3|0:0,0:1:0:0:
262,195,75076,2,0,P|228:137|161:130,1,140,8|0,0:3|0:0,0:0:0:0:
81,159,75276,6,2,P|151:291|161:131,1,420,0|0,1:0|0:0,0:1:0:0:
226,272,75676,2,2,P|304:271|323:135,1,210,4|0,0:3|0:0,0:1:0:0:
381,233,75876,2,0,P|423:180|383:88,1,140,8|0,0:3|0:0,0:0:0:0:
338,75,76076,38,0,B|302:75|302:75|270:88,1,70,0|0,3:0|0:0,0:0:0:0:
86,103,76276,2,0,B|113:124|113:124|148:134,1,70,4|0,0:3|0:0,0:0:0:0:
304,231,76476,2,0,B|292:195|292:195|272:168,1,70,0|0,3:0|0:0,0:0:0:0:
203,0,76676,2,0,B|190:34|190:34|192:69,1,70,4|0,0:3|0:0,0:0:0:0:
196,195,76876,38,0,L|170:221,1,35,6|0,0:1|0:0,0:0:0:0:
366,213,77076,2,0,L|330:222,1,35,6|0,0:1|0:0,0:0:0:0:
504,312,77276,2,0,L|468:302,1,35,6|0,0:1|0:0,0:0:0:0:
379,356,77476,37,0,0:0:0:0:
133,253,77676,1,0,3:0:0:0:
222,66,77876,6,0,L|217:43,1,17.5,2|0,0:3|0:0,0:0:0:0:
133,357,78076,53,4,0:3:0:0:
379,253,78276,1,0,0:0:0:0:
147,84,78476,6,0,L|142:61,1,17.5,2|0,1:3|0:0,0:0:0:0:
329,59,78676,2,0,L|334:36,1,17.5,2|0,0:3|0:0,0:0:0:0:
502,305,78876,53,4,0:3:0:0:
403,80,79076,6,0,L|408:57,1,17.5,2|0,0:3|0:0,0:0:0:0:
256,305,79276,53,0,3:0:0:0:
502,305,79476,1,0,0:0:0:0:
479,101,79676,6,0,L|484:78,1,17.5,2|0,1:3|0:0,0:0:0:0:
262,127,79876,2,0,L|257:104,1,17.5,2|0,0:3|0:0,0:0:0:0:
379,356,80076,53,4,0:3:0:0:
186,145,80276,6,0,L|181:122,1,17.5,2|0,0:3|0:0,0:0:0:0:
325,64,80476,2,0,L|330:41,1,17.5,2|0,1:3|0:0,0:0:0:0:
157,57,80676,2,0,L|152:34,1,17.5,2|0,0:3|0:0,0:0:0:0:
256,305,80876,53,0,3:0:0:0:
79,73,81076,6,0,L|74:50,1,17.5,2|0,0:3|0:0,0:0:0:0:
10,305,81276,53,4,0:3:0:0:
256,305,81476,1,0,0:0:0:0:
3,95,81676,6,0,L|-2:72,1,17.5,2|0,1:3|0:0,0:0:0:0:
259,41,81876,2,0,L|264:18,1,17.5,2|0,0:3|0:0,0:0:0:0:
133,357,82076,53,4,0:3:0:0:
338,63,82276,6,0,L|343:40,1,17.5,2|0,0:3|0:0,0:0:0:0:
303,340,82476,22,0,P|297:302|306:270,1,70,0|0,3:0|0:0,0:0:0:0:
424,97,82676,2,0,P|450:124|462:155,1,70,4|0,0:3|0:0,0:0:0:0:
467,364,82876,2,0,P|429:357|401:339,1,70,0|0,3:0|0:0,0:0:0:0:
275,171,83076,2,0,P|309:154|342:152,1,70,4|0,0:3|0:0,0:0:0:0:
499,266,83276,54,0,L|439:269,1,35,6|0,0:1|0:0,0:0:0:0:
367,225,83476,2,0,L|316:257,1,35,6|0,0:1|0:0,0:0:0:0:
232,255,83676,2,0,L|204:308,1,35,6|0,0:1|0:0,0:0:0:0:
135,246,84076,38,2,P|51:175|160:166,1,280,0|0,3:0|0:0,0:1:0:0:
378,255,84376,2,2,P|418:358|327:281,1,280,0|4,0:0|0:3,0:1:0:0:
247,193,84676,2,2,P|407:209|484:87,1,280,0|0,0:0|0:0,0:1:0:0:
360,35,84976,6,2,P|361:140|287:56,1,280,0|0,0:0|0:0,0:1:0:0:
82,10,85276,2,2,P|44:47|176:62,1,280,4|0,0:3|0:0,0:1:0:0:
242,0,85576,2,2,P|261:83|125:225,1,280,0|0,0:0|3:0,0:1:0:0:
152,308,85876,54,2,P|56:366|103:253,1,280,0|0,0:0|0:0,0:1:0:0:
99,144,86076,1,2,1:1:0:0:
205,161,86176,1,2,0:1:0:0:
301,108,86276,1,2,0:1:0:0:
418,283,86476,38,0,P|435:180|406:80,1,210,0|0,1:0|0:0,0:0:0:0:
406,80,86876,2,0,P|396:58|410:78,1,70,0|0,3:0|0:0,0:0:0:0:
263,350,87276,6,0,P|249:247|277:147,1,210,4|0,1:2|0:0,0:0:0:0:
277,147,87676,2,0,P|286:115|273:144,1,97.9999970092774,0|0,3:0|0:0,0:0:0:0:
108,263,88076,54,0,P|120:159|92:59,1,210,0|0,1:0|0:0,0:0:0:0:
92,59,88476,2,0,P|69:23|97:56,1,125.999996154785,0|0,3:0|0:0,0:0:0:0:
398,207,88876,6,0,B|366:220|366:220|302:220,1,70,0|0,3:0|0:0,0:0:0:0:
218,62,89076,2,0,B|254:68|254:68|303:107,1,70,4|0,0:3|0:0,0:0:0:0:
278,285,89276,2,0,B|253:260|253:260|235:197,1,70,0|0,3:0|0:0,0:0:0:0:
361,70,89476,2,0,B|366:104|366:104|343:165,1,70,4|0,0:3|0:0,0:0:0:0:
212,143,89676,38,0,L|165:134,1,35,6|0,1:0|0:0,0:0:0:0:
92,127,89876,2,0,L|65:87,1,35,6|0,1:0|0:0,0:0:0:0:
11,43,90076,2,0,L|20:-4,1,35,6|0,1:0|0:0,0:0:0:0:
0,125,90476,38,2,P|163:57|402:92,1,420,0|0,3:0|0:0,0:3:0:0:
449,384,90876,2,2,P|357:277|353:-16,1,420,4|0,0:3|0:0,0:3:0:0:
489,217,91276,2,2,P|360:281|48:261,1,420,0|0,1:0|0:0,0:3:0:0:
17,30,91676,2,2,P|197:38|423:179,1,420,4|0,0:3|0:0,0:3:0:0:
168,344,92076,2,2,P|215:233|459:34,1,420,0|0,3:0|0:0,0:3:0:0:
478,139,92476,2,0,B|543:227|472:336|472:336|356:247|415:116,1,420,8|0,1:3|0:0,1:0:0:0:
438,41,92876,6,2,P|366:74|292:84,1,140,4|0,0:3|0:0,0:1:0:0:
155,78,93076,2,2,P|92:63|-8:7,1,140,8|0,0:3|0:0,0:1:0:0:
204,0,93276,54,2,P|190:105|365:367,1,420,0|0,1:0|0:0,0:3:0:0:
491,130,93676,2,2,P|387:108|86:219,1,420,0|0,3:0|0:0,0:3:0:0:
0,142,94076,6,2,L|441:192,1,420,4|0,0:3|0:0,0:1:0:0:
349,359,94476,54,2,P|393:280|244:9,1,420,0|0,1:0|0:0,0:3:0:0:
116,267,94876,2,2,P|255:313|542:219,1,420,4|0,0:3|0:0,0:3:0:0:
478,50,95276,6,2,L|26:8,1,420,0|0,3:0|0:0,0:1:0:0:
0,252,95676,2,2,L|418:213,1,420,0|0,1:0|0:0,0:1:0:0:
476,149,96076,54,2,B|522:115|522:115|461:384|461:384|423:255,1,420,4|0,0:3|0:0,0:3:0:0:
414,68,96476,6,2,P|264:144|418:213,1,420,0|0,1:0|0:0,0:1:0:0:
321,179,96876,54,2,P|252:163|145:213,1,140,0|0,3:0|0:0,0:3:0:0:
116,249,97076,2,2,P|91:319|112:422,1,140,0|0,0:0|0:0,0:3:0:0:
462,347,97276,2,2,B|181:305|181:305|306:358,1,420,4|0,0:3|0:0,0:3:0:0:
172,384,97676,6,2,P|284:257|116:249,1,420,0|0,1:0|0:0,0:1:0:0:
25,220,98076,54,2,B|96:312|96:312|76:7,1,420,4|0,0:3|0:0,0:3:0:0:
454,88,98476,2,2,B|169:21|169:21|263:134,1,420,0|0,3:0|0:0,0:3:0:0:
116,248,98876,2,2,B|401:181|401:181|307:294,1,420,0|0,1:0|0:0,0:3:0:0:
248,359,99276,5,4,0:3:0:0:
256,192,99326,12,0,102476,0:0:0:0:
63,122,108876,22,0,L|81:235,1,83.9999974365235,6|0,1:2|0:0,0:0:0:0:
116,361,109276,2,0,L|134:248,1,83.9999974365235,0|0,1:0|0:0,0:0:0:0:
271,182,109676,5,0,1:0:0:0:
159,203,109876,1,0,0:0:0:0:
259,160,110076,1,0,1:0:0:0:
161,180,110276,1,0,0:0:0:0:
194,29,110476,54,0,B|185:71|185:71|198:119,1,83.9999974365235,6|0,1:2|0:0,0:0:0:0:
353,146,110876,2,0,B|362:188|362:188|349:236,1,83.9999974365235,0|0,1:0|0:0,0:0:0:0:
270,116,111276,2,0,L|462:96,1,167.999994873047,6|0,1:2|1:0,0:0:0:0:
501,44,111876,2,0,P|470:25|369:46,1,83.9999974365235,0|6,0:0|1:2,0:0:0:0:
353,146,112276,5,0,0:0:0:0:
233,39,112476,1,0,1:0:0:0:
180,188,112676,1,0,0:0:0:0:
293,103,112876,54,0,L|188:125,1,83.9999974365235,0|0,1:0|0:0,0:0:0:0:
424,196,113276,2,0,L|529:218,1,83.9999974365235,0|0,1:0|0:0,0:0:0:0:
427,311,113676,6,0,P|352:261|342:153,1,167.999994873047,6|0,1:2|1:0,0:0:0:0:
385,127,114276,1,0,0:0:0:0:
304,325,114476,53,6,1:2:0:0:
237,286,114676,2,0,P|194:297|107:290,1,83.9999974365235,2|0,0:1|1:0,0:0:0:0:
242,180,115076,2,0,P|199:168|112:175,1,83.9999974365235,2|6,0:1|1:2,1:0:0:0:
65,364,115476,5,0,0:0:0:0:
107,237,115676,1,0,1:0:0:0:
16,139,115876,1,0,0:0:0:0:
1,282,116076,54,0,L|103:264,1,83.9999974365235,0|0,1:0|0:0,0:0:0:0:
172,346,116476,2,0,L|190:244,1,83.9999974365235,0|0,1:0|0:0,0:0:0:0:
165,111,116876,2,0,B|173:187|173:187|157:210|157:210|164:306,1,167.999994873047,6|0,1:2|1:0,0:0:0:0:
248,318,117476,1,0,0:0:0:0:
392,267,117676,6,0,B|351:256|351:256|283:272,1,83.9999974365235,6|2,1:2|0:1,0:0:0:0:
356,367,118076,2,0,B|396:376|396:376|437:365,1,83.9999974365235,0|2,1:0|0:1,0:0:0:0:
362,106,118476,53,6,1:2:0:0:
303,154,118676,2,0,B|317:275,1,83.9999974365235,0|0,0:0|1:0,0:0:0:0:
506,249,119076,5,0,0:0:0:0:
451,303,119276,2,0,L|351:293,1,83.9999974365235,0|0,1:0|0:0,0:0:0:0:
294,365,119676,2,0,L|194:355,1,83.9999974365235,0|0,1:0|0:0,0:0:0:0:
445,306,120076,54,0,L|345:296,1,83.9999974365235,6|0,1:2|0:0,0:0:0:0:
288,368,120476,2,0,L|188:358,1,83.9999974365235,0|0,1:0|0:0,0:0:0:0:
50,251,120876,5,6,1:2:0:0:
137,209,121076,2,0,P|144:251|136:292,2,83.9999974365235,0|0|0,0:0|1:0|0:0,0:0:0:0:
62,331,121676,37,6,3:2:0:0:
218,221,121876,1,0,0:0:0:0:
50,139,122076,1,8,3:2:0:0:
50,139,122476,6,0,P|42:98|56:44,1,83.9999974365235,6|0,3:2|0:0,0:0:0:0:
200,17,122876,1,8,3:2:0:0:
200,17,123276,6,0,P|208:58|194:112,1,83.9999974365235,6|0,3:2|0:0,0:0:0:0:
103,239,123676,1,8,3:2:0:0:
196,266,123876,2,0,L|185:152,1,83.9999974365235,0|0,0:0|3:0,0:0:0:0:
292,95,124276,53,0,0:0:0:0:
385,68,124476,2,0,L|374:182,1,83.9999974365235,8|0,3:2|0:0,0:0:0:0:
460,68,124876,53,6,3:2:0:0:
327,206,125076,1,0,0:0:0:0:
273,21,125276,1,8,3:2:0:0:
273,21,125676,6,0,L|363:14,1,83.9999974365235,0|0,3:0|0:0,0:0:0:0:
421,55,126076,1,8,3:2:0:0:
341,127,126276,6,0,P|355:169|347:245,1,83.9999974365235,2|0,0:1|3:0,0:0:0:0:
171,168,126676,2,0,P|157:210|165:286,1,83.9999974365235,2|8,0:1|3:2,0:0:0:0:
305,348,127076,2,0,L|294:241,1,83.9999974365235,2|0,0:1|3:0,0:0:0:0:
243,201,127476,53,0,0:0:0:0:
126,324,127676,2,0,B|171:332|171:332|240:307,1,83.9999974365235,8|0,3:2|0:0,0:0:0:0:
54,372,128076,5,6,3:2:0:0:
269,280,128276,1,0,3:0:0:0:
82,140,128476,37,2,3:1:0:0:
248,63,128676,5,0,3:0:0:0:
251,70,128876,1,6,3:2:0:0:
250,78,129076,1,0,3:0:0:0:
199,184,129276,53,2,3:1:0:0:
365,261,129476,21,0,3:0:0:0:
368,254,129676,1,6,3:2:0:0:
397,79,129876,37,2,3:1:0:0:
419,186,130076,1,2,3:1:0:0:
441,293,130276,1,2,3:1:0:0:
296,231,130476,5,0,3:0:0:0:
319,193,130676,1,0,3:0:0:0:
358,325,130876,53,2,3:1:0:0:
348,320,131076,1,2,3:1:0:0:
224,365,131276,5,0,3:0:0:0:
216,365,131376,1,0,3:0:0:0:
199,365,131476,5,0,3:0:0:0:
182,363,131576,1,0,3:0:0:0:
153,355,131676,53,0,3:0:0:0:
125,343,131776,1,0,3:0:0:0:
86,316,131876,5,0,3:0:0:0:
56,280,131976,1,0,3:0:0:0:
32,217,132076,53,0,3:0:0:0:
32,149,132176,1,0,3:0:0:0:
65,82,132276,5,0,3:0:0:0:
141,29,132376,1,0,3:0:0:0:
105,100,132476,1,0,3:0:0:0:
148,87,132576,1,0,3:0:0:0:
150,127,132676,1,0,3:0:0:0:
160,121,132776,1,0,3:0:0:0:
162,132,132876,1,0,3:0:0:0:
258,330,133676,53,4,0:3:0:0:
258,330,133776,1,4,0:3:0:0:
258,330,133876,2,0,P|251:289|260:243,1,56,4|0,0:3|0:0,0:0:0:0:
335,307,134076,6,0,L|327:395,1,70,0|0,3:0|0:0,0:0:0:0:
174,327,134276,2,0,L|167:257,1,70,4|0,0:3|0:0,0:0:0:0:
93,153,134476,38,0,P|147:142|201:98,1,105,6|0,0:1|0:0,0:0:0:0:
229,44,134676,2,0,P|283:55|337:99,1,105,6|0,0:1|0:0,0:0:0:0:
393,234,134876,1,6,0:1:0:0:
393,234,135276,38,2,B|411:187|454:187|454:187|422:147|295:85|231:334|401:325|428:297,1,420,0|0,3:0|0:0,0:1:0:0:
500,212,135676,2,2,P|467:151|313:160,1,210,4|0,0:3|0:0,0:1:0:0:
272,90,135876,2,0,B|228:122|230:172|230:172|237:148|254:131,1,140,8|0,0:3|0:0,0:0:0:0:
79,239,136076,6,2,B|134:299|318:266|342:145|342:145|284:121|251:133,1,420,0|0,1:0|0:0,0:1:0:0:
171,220,136476,2,2,P|182:275|343:312,1,210,4|0,0:3|0:0,0:1:0:0:
295,249,136676,2,0,P|255:220|290:253,1,140,8|0,0:3|0:0,0:0:0:0:
100,156,136876,54,2,P|138:98|198:63,1,140,0|0,3:0|0:0,0:1:0:0:
295,129,137076,2,2,P|360:171|379:266,1,140,0|0,0:0|0:0,0:1:0:0:
311,328,137276,6,0,B|162:345,1,140,2|0,1:2|0:0,0:0:0:0:
93,384,137476,2,0,B|242:367,1,140,2|0,1:2|0:0,0:0:0:0:
369,376,137676,54,2,B|258:271|155:66|382:-84|515:5|525:140|471:186,1,630.000024032594,4|0,0:3|0:0,0:3:0:0:
393,222,138076,2,0,P|344:216|281:150,1,105.000004005432,0|0,1:0|0:0,0:0:0:0:
239,93,138276,2,0,P|242:41|298:-28,1,105.000004005432
379,129,138476,6,2,B|496:193|430:373|313:358|313:358|270:328|271:257,1,420,0|0,3:0|0:0,0:1:0:0:
277,169,138876,2,2,P|234:261|136:286,1,210,4|0,0:3|0:0,0:1:0:0:
159,168,139076,2,0,P|170:254|112:295,1,140,8|0,0:3|0:0,0:0:0:0:
0,382,139276,54,2,B|-38:298|7:159|93:113|93:113|130:165|84:250,1,420,0|0,1:0|0:0,0:1:0:0:
185,383,139676,2,2,P|104:321|97:220,1,210,4|0,0:3|0:0,0:1:0:0:
277,338,139876,2,0,P|213:363|153:331,1,140,8|0,0:3|0:0,0:0:0:0:
229,210,140076,38,0,B|216:242|216:242|221:302,1,70,0|0,3:0|0:0,0:0:0:0:
402,193,140276,2,0,B|431:174|431:174|449:144,1,70,4|0,0:3|0:0,0:0:0:0:
251,104,140476,2,0,B|216:101|216:101|183:115,1,70,0|0,3:0|0:0,0:0:0:0:
321,263,140676,2,0,B|347:285|347:285|381:293,1,70,4|0,0:3|0:0,0:0:0:0:
358,95,140876,54,0,B|344:50,1,35,6|0,0:1|0:0,0:0:0:0:
438,199,141076,2,0,B|448:153,1,35,6|0,0:1|0:0,0:0:0:0:
466,330,141276,1,4,0:3:0:0:
489,303,141376,1,4,0:3:0:0:
512,276,141476,1,4,0:3:0:0:
502,174,141676,38,2,B|226:141|31:351|31:351|47:242|167:157|167:157|66:156|31:190|31:190|38:118|95:93|95:93|56:64|17:58,1,1120,0|4,3:0|0:3,0:3:0:0:
16,57,142476,2,10,B|97:4|246:16|246:16|176:70|189:181|189:181|226:87|327:1|559:56|553:251|473:415|251:344,1,1120,0|4,1:0|0:3,0:3:0:0:
282,353,143276,2,10,B|216:193|364:50|506:23|506:23|272:-19|49:154|23:416,1,1120,0|0,3:0|0:0,0:3:0:0:
27,380,144076,6,2,B|25:268|280:187|146:382|479:404|563:242|478:72|422:0|214:51|202:158|273:275,1,840,0|0,1:0|0:0,0:1:0:0:
336,186,144476,1,8,0:3:0:0:
336,186,144876,54,2,B|342:269|377:344|455:372|455:372|418:300|427:164|486:16|486:16|371:134|129:161|-32:30,1,1120,0|4,3:0|0:3,0:3:0:0:
3,56,145676,2,2,B|-8:286|215:388|215:388|169:280|207:54|318:-8|318:-8|475:43|445:273,1,1120,0|4,1:0|0:3,0:3:0:0:
449,196,146476,54,0,P|412:204|366:197,1,70,0|0,3:0|0:0,0:0:0:0:
228,45,146676,2,0,P|262:60|295:92,1,70,4|0,0:3|0:0,0:0:0:0:
318,297,146876,2,0,P|298:264|291:218,1,70,0|0,3:0|0:0,0:0:0:0:
394,41,147076,2,0,P|390:78|369:120,1,70,4|0,0:3|0:0,0:0:0:0:
234,159,147276,38,0,L|188:152,1,35,6|0,0:1|0:0,0:0:0:0:
111,156,147476,2,0,L|83:118,1,35,6|0,0:1|0:0,0:0:0:0:
26,66,147676,2,0,L|33:20,1,35,6|0,0:1|0:0,0:0:0:0:
133,28,147876,37,0,0:0:0:0:
379,131,148076,1,0,3:0:0:0:
264,298,148276,6,0,L|258:327,1,17.5,2|0,0:3|0:0,0:0:0:0:
379,27,148476,53,4,0:3:0:0:
133,131,148676,1,0,0:0:0:0:
340,313,148876,6,0,L|334:342,1,17.5,2|0,1:3|0:0,0:0:0:0:
184,266,149076,2,0,L|190:295,1,17.5,2|0,0:3|0:0,0:0:0:0:
10,79,149276,53,4,0:3:0:0:
112,285,149476,6,0,L|115:302,1,17.5,2|0,0:3|0:0,0:0:0:0:
133,28,149676,53,0,3:0:0:0:
379,131,149876,1,0,0:0:0:0:
40,304,150076,6,0,L|43:321,1,17.5,2|0,1:3|0:0,0:0:0:0:
242,254,150276,2,0,L|238:271,1,17.5,2|0,0:3|0:0,0:0:0:0:
133,131,150476,53,4,0:3:0:0:
321,268,150676,6,0,L|317:285,1,17.5,2|0,0:3|0:0,0:0:0:0:
241,367,150876,2,0,L|244:384,1,17.5,2|0,1:3|0:0,0:0:0:0:
476,299,151076,2,0,L|472:316,1,17.5,2|0,0:3|0:0,0:0:0:0:
379,27,151276,53,0,3:0:0:0:
399,285,151476,6,0,L|395:302,1,17.5,2|0,0:3|0:0,0:0:0:0:
502,79,151676,53,4,0:3:0:0:
256,79,151876,1,0,0:0:0:0:
321,268,152076,6,0,L|317:285,1,17.5,2|0,1:3|0:0,0:0:0:0:
107,350,152276,2,0,L|110:367,1,17.5,2|0,0:3|0:0,0:0:0:0:
10,79,152476,53,4,0:3:0:0:
180,329,152676,6,0,L|183:346,1,17.5,2|0,0:3|0:0,0:0:0:0:
185,95,152876,22,0,B|183:130|183:130|211:186,1,70,0|0,3:0|0:0,0:0:0:0:
262,334,153076,2,0,B|283:306|283:306|289:271,1,70,4|0,0:3|0:0,0:0:0:0:
340,93,153276,2,0,B|306:102|306:102|281:126,1,70,0|0,3:0|0:0,0:0:0:0:
136,244,153476,2,0,B|169:255|169:255|203:251,1,70,4|0,0:3|0:0,0:0:0:0:
339,196,153676,54,0,B|514:183,1,140,2|0,0:1|0:0,0:0:0:0:
512,258,153876,2,0,B|337:271,1,140,2|0,0:1|0:0,0:0:0:0:
289,271,154076,1,4,0:3:0:0:
301,303,154176,1,4,0:3:0:0:
313,335,154276,1,4,0:3:0:0:
144,318,154476,38,2,P|239:361|197:251,1,280,0|0,3:0|0:0,0:1:0:0:
396,101,154776,2,2,P|304:138|418:163,1,280,0|4,0:0|0:3,0:1:0:0:
509,171,155076,2,2,P|462:250|244:233,1,280,0|0,0:0|0:0,0:1:0:0:
75,146,155376,6,2,P|59:27|152:115,1,280,0|0,0:0|0:0,0:1:0:0:
118,338,155676,2,2,P|136:233|56:304,1,280,4|0,0:3|0:0,0:1:0:0:
147,209,155976,2,2,P|265:143|390:196,1,280,0|0,0:0|3:0,0:1:0:0:
328,310,156276,54,2,P|249:230|237:341,1,280,0|0,0:0|0:0,0:1:0:0:
295,384,156476,1,2,1:1:0:0:
250,263,156576,1,2,0:1:0:0:
291,140,156676,1,2,0:1:0:0:
454,259,156876,38,0,P|332:281|226:252,1,210,0|0,1:0|0:0,0:0:0:0:
249,262,157276,2,0,P|228:248|248:265,1,70,0|0,3:0|0:0,0:0:0:0:
14,56,157676,6,0,P|116:37|218:59,1,210,4|0,1:2|0:0,0:0:0:0:
218,59,158076,2,0,P|250:71|220:56,1,97.9999970092774,0|0,3:0|0:0,0:0:0:0:
349,212,158476,54,0,P|246:193|144:215,1,210,0|0,1:0|0:0,0:0:0:0:
144,215,158876,2,0,P|116:247|139:210,1,125.999996154785,0|0,3:0|0:0,0:0:0:0:
139,13,159276,6,0,P|159:49|168:97,1,70,0|0,3:0|0:0,0:0:0:0:
25,239,159476,2,0,P|28:204|40:171,1,70,4|0,0:3|0:0,0:0:0:0:
249,122,159676,2,0,P|220:152|178:175,1,70,0|0,3:0|0:0,0:0:0:0:
2,83,159876,2,0,P|42:75|90:81,1,70,4|0,0:3|0:0,0:0:0:0:
117,222,160076,38,0,L|129:271,1,35,6|0,0:1|0:0,0:0:0:0:
281,204,160276,2,0,L|244:238,1,35,6|0,0:1|0:0,0:0:0:0:
409,306,160476,2,0,L|361:291,1,35,6|0,0:1|0:0,0:0:0:0:
301,374,160876,38,2,P|354:232|214:9,1,420,0|0,3:0|0:0,0:3:0:0:
47,316,161276,2,2,P|180:317|475:190,1,420,4|0,0:3|0:0,0:3:0:0:
490,16,161676,2,2,P|303:71|156:244,1,420,0|0,1:0|0:0,0:3:0:0:
449,384,162076,2,2,P|437:161|251:-1,1,420,4|0,0:3|0:0,0:3:0:0:
153,0,162476,2,2,P|23:160|27:399,1,420,0|0,3:0|0:0,0:3:0:0:
193,279,162876,2,0,B|254:220|211:83|211:83|91:143|112:288,1,420,8|0,1:3|0:0,1:0:0:0:
144,367,163276,6,2,P|219:384|334:335,1,140,4|0,0:3|0:0,0:1:0:0:
419,267,163476,2,2,P|436:192|387:77,1,140,8|0,0:3|0:0,0:1:0:0:
511,46,163676,54,2,P|415:94|72:84,1,420,0|0,1:0|0:0,0:3:0:0:
326,7,164076,2,2,P|460:127|512:356,1,420,0|0,3:0|0:0,0:3:0:0:
66,318,164476,6,2,L|507:264,1,420,4|0,0:3|0:0,0:1:0:0:
402,367,164876,54,2,P|158:341|-28:165,1,420,0|0,1:0|0:0,0:3:0:0:
226,69,165276,2,2,P|370:136|525:419,1,420,4|0,0:3|0:0,0:3:0:0:
512,149,165676,6,2,L|60:201,1,420,0|0,3:0|0:0,0:1:0:0:
2,14,166076,2,2,L|419:62,1,420,0|0,1:0|0:0,0:1:0:0:
435,189,166476,54,2,B|403:227|403:227|344:224|344:224|332:280|332:280|273:328|273:328|246:247|246:247|191:210|191:210|267:174,1,420,4|0,0:3|0:0,0:3:0:0:
342,138,166876,6,2,P|281:231|208:44,1,420,0|0,1:0|0:0,0:1:0:0:
265,4,167276,54,2,P|259:106|210:179,1,140,0|0,3:0|0:0,0:3:0:0:
135,228,167476,2,2,P|34:248|-48:220,1,140,0|0,0:0|0:0,0:3:0:0:
35,72,167676,2,2,B|65:101|65:101|111:121|111:121|72:219|72:219|95:317|95:317|158:307|158:307|181:324|181:324|271:326,1,420,4|0,0:3|0:0,0:3:0:0:
417,352,168076,6,2,P|319:228|344:395,1,420,0|0,1:0|0:0,0:1:0:0:
510,232,168476,54,2,B|445:227|445:227|393:191|393:191|367:247|367:247|320:271|320:271|272:213|272:213|227:236|227:236|120:235,1,420,4|0,0:3|0:0,0:3:0:0:
170,117,168876,2,2,B|212:93|212:93|241:146|241:146|204:188|204:188|139:213|139:213|119:333|119:333|22:257,1,420,0|0,3:0|0:0,0:3:0:0:
12,55,169276,2,2,B|46:52|46:52|73:33|73:33|134:51|134:51|199:14|199:14|269:95|269:95|304:79|304:79|342:86|342:86|287:134,1,420,0|0,1:0|0:0,0:3:0:0:
175,235,169676,5,4,0:3:0:0:
256,192,169726,12,0,172076,3:0:0:0:
382,309,172876,22,0,L|387:231,1,70,2|0,0:0|0:0,0:0:0:0:
335,181,173276,1,0,0:0:0:0:
277,319,173476,5,0,0:0:0:0:
217,370,173676,2,0,P|183:377|135:366,1,70
239,186,174076,2,0,P|262:211|276:259,1,70
51,256,174476,54,0,B|131:241|101:272|200:251,2,140,2|0|2,0:0|0:0|0:0,0:0:0:0:
183,166,175476,2,0,L|191:91,1,70,2|0,0:1|0:0,0:0:0:0:
68,119,175876,2,0,L|60:44,1,70,2|2,0:1|0:0,0:0:0:0:
216,26,176276,5,0,0:0:0:0:
264,84,176476,1,0,0:0:0:0:
339,91,176676,1,0,0:0:0:0:
397,42,176876,54,0,P|411:76|399:136,1,70
274,137,177276,2,0,P|259:102|271:42,1,70
355,302,177676,6,0,P|363:224|339:124,2,140,2|0|2,0:0|0:0|0:0,0:0:0:0:
271,241,178676,2,0,P|235:230|197:227,1,70,2|0,0:1|0:0,0:0:0:0:
267,354,179076,2,0,P|231:364|193:367,1,70,2|2,0:1|0:0,0:0:0:0:
128,287,179476,53,0,0:0:0:0:
50,357,179676,1,0,0:0:0:0:
31,252,179876,1,0,0:0:0:0:
143,302,180076,6,0,P|179:303|218:321,1,70
65,215,180476,2,0,P|43:218|-20:242,1,70
143,81,180876,54,0,P|160:157|126:254,2,140,2|0|2,0:0|0:0|0:0,0:0:0:0:
68,55,181876,1,0,0:0:0:0:
216,0,182076,2,0,P|221:29|213:88,1,70
188,222,182476,5,2,0:0:0:0:
248,265,182676,2,0,L|338:247,1,70
435,360,183076,53,0,0:0:0:0:
392,300,183276,2,0,L|410:210,1,70
287,235,183676,2,0,L|269:145,1,70
392,295,184076,6,0,L|410:205,1,70
287,230,184476,2,0,L|269:140,1,70
483,119,184876,53,6,0:0:0:0:
416,155,185076,2,0,L|332:146,2,70
324,75,185676,5,0,0:0:0:0:
248,90,185876,1,0,0:0:0:0:
172,106,186076,1,0,0:0:0:0:
141,177,186876,1,0,0:0:0:0:
31,314,187476,53,0,0:0:0:0:
107,329,187676,1,0,0:0:0:0:
183,345,187876,1,0,0:0:0:0:
244,293,188476,1,0,0:0:0:0:
435,375,188876,5,0,0:0:0:0:
454,300,189076,1,0,0:0:0:0:
417,232,189276,1,0,0:0:0:0:
438,155,189876,53,0,0:0:0:0:
363,174,190076,1,0,0:0:0:0:
295,137,190276,1,0,0:0:0:0:
169,179,190676,1,0,0:0:0:0:
271,119,191076,1,0,0:0:0:0:
173,151,191476,1,0,0:0:0:0:
244,194,191676,2,0,P|254:222|256:276,1,48.9999985046387
158,307,192076,6,0,L|249:291,2,48.9999985046387
273,348,193276,1,0,0:0:0:0:
398,234,193876,54,0,B|402:259|402:259|396:287,2,48.9999985046387
381,161,194876,1,0,0:0:0:0:
136,167,195276,6,0,L|60:157,2,48.9999985046387
246,19,196276,37,0,0:0:0:0:
202,81,196476,1,0,0:0:0:0:
248,143,196676,1,2,0:1:0:0:
321,118,197076,1,2,0:1:0:0:
320,41,197476,1,2,0:1:0:0:
