osu file format v14

[General]
AudioFilename: Pee Wee Gaskins-The Sophomore-03. Dibalik Hari Esok.mp3
AudioLeadIn: 0
PreviewTime: 47903
Countdown: 0
SampleSet: None
StackLeniency: 0.7
Mode: 3
LetterboxInBreaks: 0
SpecialStyle: 0
WidescreenStoryboard: 1

[Editor]
DistanceSpacing: 0.8
BeatDivisor: 4
GridSize: 8
TimelineZoom: 2

[Metadata]
Title:Dibalik Hari Esok
TitleUnicode:Dibalik Hari Esok
Artist:Pee Wee Gaskins
ArtistUnicode:Pee Wee Gaskins
Creator:puxtu
Version:SYNTH
Source:
Tags:Welcoming The Sophomore Alfa Records Pop Punk Indonesian Melodic Rock
BeatmapID:404546
BeatmapSetID:157911

[Difficulty]
HPDrainRate:8
CircleSize:4
OverallDifficulty:7
ApproachRate:5
SliderMultiplier:1.4
SliderTickRate:1

[Events]
//Background and Video events
0,0,"menu-background.jpg",0,0
//Break Periods
2,23203,85378
2,119203,171928
//Storyboard Layer 0 (Background)
//Storyboard Layer 1 (Fail)
//Storyboard Layer 2 (Pass)
//Storyboard Layer 3 (Foreground)
//Storyboard Sound Samples

[TimingPoints]
203,300,4,3,1,25,1,0
48203,-100,4,3,1,25,0,1
67103,-100,4,3,1,25,0,0
67403,-100,4,3,1,25,0,1
86603,-100,4,3,1,25,0,0
134603,-100,4,3,1,25,0,1
153503,-100,4,3,1,25,0,0
153803,-100,4,3,1,25,0,1
173003,-100,4,3,1,25,0,0

[HitObjects]
64,192,203,128,0,503:0:0:0:0:
448,192,203,128,0,503:0:0:0:0:
320,192,503,128,0,653:0:0:0:0:
192,192,653,128,0,803:0:0:0:0:
64,192,803,128,0,1103:0:0:0:0:
320,192,803,128,0,1103:0:0:0:0:
448,192,1103,128,0,1253:0:0:0:0:
192,192,1253,128,0,1403:0:0:0:0:
64,192,1403,128,0,1553:0:0:0:0:
320,192,1403,128,0,1553:0:0:0:0:
192,192,1553,128,0,1703:0:0:0:0:
448,192,1703,128,0,1853:0:0:0:0:
64,192,1703,128,0,1853:0:0:0:0:
320,192,1853,128,0,2003:0:0:0:0:
448,192,2003,128,0,2303:0:0:0:0:
64,192,2003,128,0,2303:0:0:0:0:
320,192,2303,128,0,2603:0:0:0:0:
192,192,2453,128,0,2603:0:0:0:0:
64,192,2603,128,0,2903:0:0:0:0:
448,192,2603,128,0,2903:0:0:0:0:
192,192,2903,128,0,3053:0:0:0:0:
448,192,3053,128,0,3203:0:0:0:0:
320,192,3203,128,0,3503:0:0:0:0:
192,192,3203,128,0,3503:0:0:0:0:
64,192,3503,128,0,3653:0:0:0:0:
192,192,3653,128,0,3803:0:0:0:0:
448,192,3803,128,0,3953:0:0:0:0:
64,192,3803,128,0,3953:0:0:0:0:
320,192,3953,128,0,4103:0:0:0:0:
64,192,4103,128,0,4253:0:0:0:0:
192,192,4103,128,0,4253:0:0:0:0:
320,192,4253,128,0,4403:0:0:0:0:
192,192,4403,128,0,4703:0:0:0:0:
448,192,4403,128,0,4703:0:0:0:0:
64,192,4703,128,0,5003:0:0:0:0:
192,192,4853,128,0,5003:0:0:0:0:
448,192,5003,128,0,5303:0:0:0:0:
320,192,5003,128,0,5303:0:0:0:0:
192,192,5303,128,0,5453:0:0:0:0:
320,192,5453,128,0,5603:0:0:0:0:
448,192,5603,128,0,5903:0:0:0:0:
192,192,5603,128,0,5903:0:0:0:0:
64,192,5903,128,0,6053:0:0:0:0:
320,192,6053,128,0,6203:0:0:0:0:
192,192,6203,128,0,6353:0:0:0:0:
448,192,6203,128,0,6353:0:0:0:0:
64,192,6353,128,0,6503:0:0:0:0:
448,192,6503,128,0,6653:0:0:0:0:
320,192,6503,128,0,6653:0:0:0:0:
192,192,6653,128,0,6803:0:0:0:0:
320,192,6803,128,0,7103:0:0:0:0:
64,192,6803,128,0,7103:0:0:0:0:
448,192,7103,128,0,7403:0:0:0:0:
192,192,7253,128,0,7403:0:0:0:0:
64,192,7403,128,0,7553:0:0:0:0:
320,192,7403,128,0,7553:0:0:0:0:
448,192,7553,128,0,7703:0:0:0:0:
320,192,7703,128,0,7853:0:0:0:0:
64,192,7853,128,0,8153:0:0:0:0:
192,192,7853,128,0,8153:0:0:0:0:
320,192,8153,128,0,8303:0:0:0:0:
448,192,8303,128,0,8453:0:0:0:0:
192,192,8303,128,0,8453:0:0:0:0:
64,192,8453,128,0,8603:0:0:0:0:
320,192,8603,128,0,8753:0:0:0:0:
192,192,8753,128,0,9053:0:0:0:0:
448,192,8753,128,0,9053:0:0:0:0:
64,192,9053,128,0,9203:0:0:0:0:
320,192,9053,128,0,9203:0:0:0:0:
448,192,9203,128,0,9353:0:0:0:0:
192,192,9203,128,0,9353:0:0:0:0:
320,192,9353,128,0,9503:0:0:0:0:
64,192,9353,128,0,9503:0:0:0:0:
192,192,9503,128,0,9653:0:0:0:0:
320,192,9653,128,0,9803:0:0:0:0:
448,192,9803,128,0,10103:0:0:0:0:
64,192,9803,128,0,10103:0:0:0:0:
320,192,10103,128,0,10253:0:0:0:0:
192,192,10253,128,0,10403:0:0:0:0:
64,192,10403,128,0,10703:0:0:0:0:
320,192,10403,128,0,10703:0:0:0:0:
448,192,10703,128,0,10853:0:0:0:0:
192,192,10853,128,0,11003:0:0:0:0:
320,192,11003,128,0,11153:0:0:0:0:
64,192,11003,128,0,11153:0:0:0:0:
448,192,11153,128,0,11303:0:0:0:0:
64,192,11303,128,0,11453:0:0:0:0:
192,192,11303,128,0,11453:0:0:0:0:
320,192,11453,128,0,11603:0:0:0:0:
192,192,11603,128,0,11903:0:0:0:0:
448,192,11603,128,0,11903:0:0:0:0:
64,192,11903,128,0,12203:0:0:0:0:
320,192,12053,128,0,12203:0:0:0:0:
192,192,12203,128,0,12503:0:0:0:0:
448,192,12203,128,0,12503:0:0:0:0:
64,192,12503,128,0,12653:0:0:0:0:
448,192,12653,128,0,12803:0:0:0:0:
320,192,12803,128,0,13103:0:0:0:0:
192,192,12803,128,0,13103:0:0:0:0:
64,192,13103,128,0,13253:0:0:0:0:
192,192,13253,128,0,13403:0:0:0:0:
448,192,13403,128,0,13553:0:0:0:0:
64,192,13403,128,0,13553:0:0:0:0:
320,192,13553,128,0,13703:0:0:0:0:
64,192,13703,128,0,13853:0:0:0:0:
192,192,13703,128,0,13853:0:0:0:0:
448,192,13853,128,0,14003:0:0:0:0:
320,192,14003,128,0,14303:0:0:0:0:
64,192,14003,128,0,14303:0:0:0:0:
192,192,14303,128,0,14603:0:0:0:0:
320,192,14453,128,0,14603:0:0:0:0:
448,192,14603,128,0,14903:0:0:0:0:
64,192,14603,128,0,14903:0:0:0:0:
192,192,14903,128,0,15053:0:0:0:0:
320,192,15053,128,0,15203:0:0:0:0:
448,192,15203,128,0,15503:0:0:0:0:
192,192,15203,128,0,15503:0:0:0:0:
64,192,15503,128,0,15653:0:0:0:0:
320,192,15653,128,0,15803:0:0:0:0:
192,192,15803,128,0,15953:0:0:0:0:
448,192,15803,128,0,15953:0:0:0:0:
64,192,15953,128,0,16103:0:0:0:0:
448,192,16103,128,0,16253:0:0:0:0:
192,192,16103,128,0,16253:0:0:0:0:
320,192,16253,128,0,16403:0:0:0:0:
192,192,16403,128,0,16703:0:0:0:0:
448,192,16403,128,0,16703:0:0:0:0:
64,192,16703,128,0,17003:0:0:0:0:
192,192,16853,128,0,17003:0:0:0:0:
448,192,17003,128,0,17153:0:0:0:0:
320,192,17003,128,0,17153:0:0:0:0:
64,192,17153,128,0,17303:0:0:0:0:
320,192,17303,128,0,17453:0:0:0:0:
64,192,17453,128,0,17753:0:0:0:0:
192,192,17453,128,0,17753:0:0:0:0:
320,192,17753,128,0,17903:0:0:0:0:
448,192,17903,128,0,18053:0:0:0:0:
192,192,17903,128,0,18053:0:0:0:0:
64,192,18053,128,0,18203:0:0:0:0:
320,192,18203,128,0,18353:0:0:0:0:
192,192,18353,128,0,18653:0:0:0:0:
448,192,18353,128,0,18653:0:0:0:0:
64,192,18653,128,0,18803:0:0:0:0:
320,192,18653,128,0,18803:0:0:0:0:
448,192,18803,128,0,18953:0:0:0:0:
192,192,18803,128,0,18953:0:0:0:0:
320,192,18953,128,0,19103:0:0:0:0:
64,192,18953,128,0,19103:0:0:0:0:
192,192,19103,128,0,19253:0:0:0:0:
320,192,19253,128,0,19403:0:0:0:0:
64,192,19403,128,0,23003:0:0:0:0:
448,192,19403,128,0,23003:0:0:0:0:
64,192,86603,132,0,86903:0:0:0:0:
320,192,86603,128,0,87203:0:0:0:0:
448,192,86903,128,0,87203:0:0:0:0:
192,192,87203,128,0,87503:0:0:0:0:
64,192,87203,128,0,87803:0:0:0:0:
320,192,87503,128,0,87803:0:0:0:0:
192,192,87803,128,0,88103:0:0:0:0:
448,192,88103,128,0,88403:0:0:0:0:
320,192,88103,128,0,88703:0:0:0:0:
192,192,88403,128,0,88703:0:0:0:0:
64,192,88703,128,0,89003:0:0:0:0:
448,192,88703,128,0,89303:0:0:0:0:
192,192,89003,128,0,89303:0:0:0:0:
320,192,89303,128,0,89603:0:0:0:0:
64,192,89303,128,0,89903:0:0:0:0:
192,192,89603,128,0,89903:0:0:0:0:
448,192,89903,128,0,90203:0:0:0:0:
320,192,89903,128,0,90503:0:0:0:0:
192,192,90203,128,0,90503:0:0:0:0:
64,192,90503,128,0,90803:0:0:0:0:
448,192,90503,128,0,91103:0:0:0:0:
320,192,90803,128,0,91103:0:0:0:0:
192,192,91103,128,0,91403:0:0:0:0:
64,192,91103,128,0,91703:0:0:0:0:
448,192,91403,128,0,91703:0:0:0:0:
192,192,91703,128,0,92003:0:0:0:0:
320,192,91703,128,0,92303:0:0:0:0:
448,192,92003,128,0,92303:0:0:0:0:
64,192,92303,128,0,92603:0:0:0:0:
192,192,92303,128,0,92903:0:0:0:0:
448,192,92603,128,0,92903:0:0:0:0:
320,192,92903,128,0,93203:0:0:0:0:
64,192,92903,128,0,93503:0:0:0:0:
192,192,93203,128,0,93503:0:0:0:0:
448,192,93503,128,0,93803:0:0:0:0:
320,192,93503,128,0,94103:0:0:0:0:
192,192,93803,128,0,94103:0:0:0:0:
64,192,94103,128,0,94403:0:0:0:0:
448,192,94403,128,0,94703:0:0:0:0:
192,192,94403,128,0,95003:0:0:0:0:
64,192,94703,128,0,95003:0:0:0:0:
320,192,95003,128,0,95303:0:0:0:0:
448,192,95003,128,0,95603:0:0:0:0:
192,192,95303,128,0,95603:0:0:0:0:
320,192,95603,128,0,95903:0:0:0:0:
64,192,95603,128,0,96203:0:0:0:0:
192,192,95903,128,0,96203:0:0:0:0:
448,192,96203,128,0,96503:0:0:0:0:
320,192,96203,128,0,96503:0:0:0:0:
64,192,96503,128,0,96653:0:0:0:0:
320,192,96653,128,0,96803:0:0:0:0:
448,192,96803,128,0,97103:0:0:0:0:
192,192,96803,128,0,97103:0:0:0:0:
64,192,97103,128,0,97253:0:0:0:0:
320,192,97253,128,0,97403:0:0:0:0:
448,192,97403,128,0,97553:0:0:0:0:
192,192,97403,128,0,97553:0:0:0:0:
320,192,97553,128,0,97703:0:0:0:0:
64,192,97703,128,0,97853:0:0:0:0:
448,192,97703,128,0,97853:0:0:0:0:
192,192,97853,128,0,98003:0:0:0:0:
320,192,98003,128,0,98303:0:0:0:0:
448,192,98003,128,0,98303:0:0:0:0:
192,192,98303,128,0,98603:0:0:0:0:
320,192,98453,128,0,98603:0:0:0:0:
448,192,98603,128,0,98903:0:0:0:0:
64,192,98603,128,0,98903:0:0:0:0:
320,192,98903,128,0,99053:0:0:0:0:
64,192,99053,128,0,99203:0:0:0:0:
192,192,99203,128,0,99503:0:0:0:0:
320,192,99203,128,0,99503:0:0:0:0:
448,192,99503,128,0,99653:0:0:0:0:
320,192,99653,128,0,99803:0:0:0:0:
64,192,99803,128,0,99953:0:0:0:0:
448,192,99803,128,0,99953:0:0:0:0:
192,192,99953,128,0,100103:0:0:0:0:
448,192,100103,128,0,100253:0:0:0:0:
320,192,100103,128,0,100253:0:0:0:0:
192,192,100253,128,0,100403:0:0:0:0:
320,192,100403,128,0,100703:0:0:0:0:
64,192,100403,128,0,100703:0:0:0:0:
448,192,100703,128,0,101003:0:0:0:0:
320,192,100853,128,0,101003:0:0:0:0:
64,192,101003,128,0,101303:0:0:0:0:
192,192,101003,128,0,101303:0:0:0:0:
320,192,101303,128,0,101453:0:0:0:0:
192,192,101453,128,0,101603:0:0:0:0:
64,192,101603,128,0,101903:0:0:0:0:
320,192,101603,128,0,101903:0:0:0:0:
448,192,101903,128,0,102053:0:0:0:0:
192,192,102053,128,0,102203:0:0:0:0:
320,192,102203,128,0,102353:0:0:0:0:
64,192,102203,128,0,102353:0:0:0:0:
448,192,102353,128,0,102503:0:0:0:0:
64,192,102503,128,0,102653:0:0:0:0:
192,192,102503,128,0,102653:0:0:0:0:
320,192,102653,128,0,102803:0:0:0:0:
192,192,102803,128,0,103103:0:0:0:0:
448,192,102803,128,0,103103:0:0:0:0:
320,192,103103,128,0,103403:0:0:0:0:
64,192,103253,128,0,103403:0:0:0:0:
448,192,103403,128,0,103553:0:0:0:0:
192,192,103403,128,0,103553:0:0:0:0:
320,192,103553,128,0,103703:0:0:0:0:
192,192,103703,128,0,103853:0:0:0:0:
448,192,103853,128,0,104153:0:0:0:0:
320,192,103853,128,0,104153:0:0:0:0:
192,192,104153,128,0,104303:0:0:0:0:
64,192,104303,128,0,104453:0:0:0:0:
320,192,104303,128,0,104453:0:0:0:0:
448,192,104453,128,0,104603:0:0:0:0:
192,192,104603,128,0,104753:0:0:0:0:
320,192,104753,128,0,105053:0:0:0:0:
64,192,104753,128,0,105053:0:0:0:0:
448,192,105053,128,0,105203:0:0:0:0:
192,192,105053,128,0,105203:0:0:0:0:
64,192,105203,128,0,105353:0:0:0:0:
320,192,105203,128,0,105353:0:0:0:0:
192,192,105353,128,0,105503:0:0:0:0:
448,192,105353,128,0,105503:0:0:0:0:
320,192,105503,128,0,105653:0:0:0:0:
192,192,105653,128,0,105803:0:0:0:0:
64,192,105803,128,0,106103:0:0:0:0:
448,192,105803,128,0,106103:0:0:0:0:
192,192,106103,128,0,106253:0:0:0:0:
320,192,106253,128,0,106403:0:0:0:0:
448,192,106403,128,0,106703:0:0:0:0:
192,192,106403,128,0,106703:0:0:0:0:
64,192,106703,128,0,106853:0:0:0:0:
320,192,106853,128,0,107003:0:0:0:0:
192,192,107003,128,0,107153:0:0:0:0:
448,192,107003,128,0,107153:0:0:0:0:
64,192,107153,128,0,107303:0:0:0:0:
448,192,107303,128,0,107453:0:0:0:0:
320,192,107303,128,0,107453:0:0:0:0:
192,192,107453,128,0,107603:0:0:0:0:
320,192,107603,128,0,107903:0:0:0:0:
64,192,107603,128,0,107903:0:0:0:0:
192,192,107903,128,0,108203:0:0:0:0:
320,192,108053,128,0,108203:0:0:0:0:
448,192,108203,128,0,108503:0:0:0:0:
64,192,108203,128,0,108503:0:0:0:0:
320,192,108503,128,0,108653:0:0:0:0:
64,192,108653,128,0,108803:0:0:0:0:
192,192,108803,128,0,109103:0:0:0:0:
320,192,108803,128,0,109103:0:0:0:0:
448,192,109103,128,0,109253:0:0:0:0:
64,192,109253,128,0,109403:0:0:0:0:
320,192,109403,128,0,109553:0:0:0:0:
448,192,109403,128,0,109553:0:0:0:0:
192,192,109553,128,0,109703:0:0:0:0:
448,192,109703,128,0,109853:0:0:0:0:
320,192,109703,128,0,109853:0:0:0:0:
64,192,109853,128,0,110003:0:0:0:0:
320,192,110003,128,0,110303:0:0:0:0:
192,192,110003,128,0,110303:0:0:0:0:
64,192,110303,128,0,110603:0:0:0:0:
320,192,110453,128,0,110603:0:0:0:0:
448,192,110603,128,0,110903:0:0:0:0:
192,192,110603,128,0,110903:0:0:0:0:
320,192,110903,128,0,111053:0:0:0:0:
192,192,111053,128,0,111203:0:0:0:0:
64,192,111203,128,0,111503:0:0:0:0:
320,192,111203,128,0,111503:0:0:0:0:
448,192,111503,128,0,111653:0:0:0:0:
192,192,111653,128,0,111803:0:0:0:0:
320,192,111803,128,0,111953:0:0:0:0:
64,192,111803,128,0,111953:0:0:0:0:
448,192,111953,128,0,112103:0:0:0:0:
64,192,112103,128,0,112253:0:0:0:0:
192,192,112103,128,0,112253:0:0:0:0:
448,192,112253,128,0,112403:0:0:0:0:
192,192,112403,128,0,112703:0:0:0:0:
320,192,112403,128,0,112703:0:0:0:0:
64,192,112703,128,0,113003:0:0:0:0:
448,192,112853,128,0,113003:0:0:0:0:
320,192,113003,128,0,113153:0:0:0:0:
192,192,113003,128,0,113153:0:0:0:0:
64,192,113153,128,0,113303:0:0:0:0:
192,192,113303,128,0,113453:0:0:0:0:
448,192,113453,128,0,113753:0:0:0:0:
320,192,113453,128,0,113753:0:0:0:0:
192,192,113753,128,0,113903:0:0:0:0:
64,192,113903,128,0,114053:0:0:0:0:
320,192,113903,128,0,114053:0:0:0:0:
448,192,114053,128,0,114203:0:0:0:0:
192,192,114203,128,0,114353:0:0:0:0:
320,192,114353,128,0,114653:0:0:0:0:
64,192,114353,128,0,114653:0:0:0:0:
448,192,114653,128,0,114803:0:0:0:0:
192,192,114653,128,0,114803:0:0:0:0:
64,192,114803,128,0,114953:0:0:0:0:
320,192,114803,128,0,114953:0:0:0:0:
192,192,114953,128,0,115103:0:0:0:0:
448,192,114953,128,0,115103:0:0:0:0:
320,192,115103,128,0,115253:0:0:0:0:
64,192,115253,128,0,115403:0:0:0:0:
448,192,115403,128,0,119003:0:0:0:0:
192,192,115403,128,0,119003:0:0:0:0:
448,192,173153,132,0,173303:0:0:0:0:
64,192,173303,128,0,173453:0:0:0:0:
320,192,173453,128,0,173603:0:0:0:0:
192,192,173603,128,0,173903:0:0:0:0:
64,192,173603,128,0,173903:0:0:0:0:
448,192,173903,128,0,174353:0:0:0:0:
320,192,173903,128,0,174353:0:0:0:0:
192,192,174353,128,0,174503:0:0:0:0:
64,192,174503,128,0,174653:0:0:0:0:
448,192,174503,128,0,174653:0:0:0:0:
320,192,174653,128,0,174803:0:0:0:0:
192,192,174803,128,0,174953:0:0:0:0:
64,192,174803,128,0,174953:0:0:0:0:
448,192,174953,128,0,175103:0:0:0:0:
320,192,175103,128,0,175253:0:0:0:0:
64,192,175253,128,0,175553:0:0:0:0:
192,192,175253,128,0,175553:0:0:0:0:
448,192,175553,128,0,175703:0:0:0:0:
192,192,175703,128,0,175853:0:0:0:0:
320,192,175853,128,0,176003:0:0:0:0:
64,192,176003,128,0,176303:0:0:0:0:
448,192,176003,128,0,176303:0:0:0:0:
192,192,176303,128,0,176753:0:0:0:0:
320,192,176303,128,0,176753:0:0:0:0:
448,192,176753,128,0,176903:0:0:0:0:
64,192,176903,128,0,177053:0:0:0:0:
320,192,176903,128,0,177053:0:0:0:0:
192,192,177053,128,0,177203:0:0:0:0:
448,192,177203,128,0,177353:0:0:0:0:
64,192,177203,128,0,177353:0:0:0:0:
320,192,177353,128,0,177503:0:0:0:0:
64,192,177503,128,0,177653:0:0:0:0:
320,192,177653,128,0,177953:0:0:0:0:
448,192,177653,128,0,177953:0:0:0:0:
64,192,177953,128,0,178103:0:0:0:0:
448,192,178103,128,0,178253:0:0:0:0:
192,192,178253,128,0,178403:0:0:0:0:
320,192,178403,128,0,178703:0:0:0:0:
64,192,178403,128,0,178703:0:0:0:0:
192,192,178703,128,0,179153:0:0:0:0:
448,192,178703,128,0,179153:0:0:0:0:
320,192,179153,128,0,179303:0:0:0:0:
448,192,179303,128,0,179453:0:0:0:0:
64,192,179303,128,0,179453:0:0:0:0:
192,192,179453,128,0,179603:0:0:0:0:
320,192,179603,128,0,179753:0:0:0:0:
448,192,179603,128,0,179753:0:0:0:0:
64,192,179753,128,0,179903:0:0:0:0:
192,192,179903,128,0,180053:0:0:0:0:
448,192,180053,128,0,180353:0:0:0:0:
320,192,180053,128,0,180353:0:0:0:0:
64,192,180353,128,0,180503:0:0:0:0:
320,192,180503,128,0,180653:0:0:0:0:
192,192,180653,128,0,180803:0:0:0:0:
448,192,180803,128,0,181103:0:0:0:0:
320,192,180803,128,0,181103:0:0:0:0:
64,192,181103,128,0,181553:0:0:0:0:
192,192,181103,128,0,181553:0:0:0:0:
320,192,181553,128,0,181703:0:0:0:0:
448,192,181703,128,0,181853:0:0:0:0:
64,192,181703,128,0,181853:0:0:0:0:
320,192,181853,128,0,182003:0:0:0:0:
64,192,182003,128,0,182153:0:0:0:0:
448,192,182003,128,0,182153:0:0:0:0:
192,192,182153,128,0,182303:0:0:0:0:
448,192,182303,128,0,182453:0:0:0:0:
320,192,182303,128,0,182453:0:0:0:0:
192,192,182453,128,0,182603:0:0:0:0:
64,192,182603,128,0,182753:0:0:0:0:
448,192,182603,128,0,182753:0:0:0:0:
320,192,182753,128,0,182903:0:0:0:0:
192,192,182903,128,0,183053:0:0:0:0:
64,192,182903,128,0,183053:0:0:0:0:
448,192,183053,128,0,183203:0:0:0:0:
320,192,183203,128,0,183353:0:0:0:0:
192,192,183203,128,0,183353:0:0:0:0:
64,192,183353,128,0,183503:0:0:0:0:
448,192,183503,128,0,187403:0:0:0:0:
320,192,183503,128,0,187403:0:0:0:0:
