osu file format v14

[General]
AudioFilename: audio.mp3
AudioLeadIn: 0
PreviewTime: 93409
Countdown: 0
SampleSet: Normal
StackLeniency: 1
Mode: 0
LetterboxInBreaks: 0
WidescreenStoryboard: 0

[Editor]
Bookmarks: 5409,13409,23743,29409,33743,35743,41409,45409,48076,50743,56076,61409,72076,82743,93409,104076,114743,117409
DistanceSpacing: 1.6
BeatDivisor: 8
GridSize: 16
TimelineZoom: 1.7

[Metadata]
Title:eu quero
TitleUnicode:eu quero
Artist:PedroVanse
ArtistUnicode:PedroVanse
Creator:gamescreator
Version:obra prima
Source:
Tags:ytpbr; ytpmv
BeatmapID:1566521
BeatmapSetID:742712

[Difficulty]
HPDrainRate:6.2
CircleSize:4.5
OverallDifficulty:8
ApproachRate:9
SliderMultiplier:1.6
SliderTickRate:1

[Events]
//Background and Video events
//Break Periods
//Storyboard Layer 0 (Background)
//Storyboard Layer 1 (Fail)
//Storyboard Layer 2 (Pass)
//Storyboard Layer 3 (Foreground)
//Storyboard Sound Samples

[TimingPoints]
5410,333.333333333333,4,1,0,30,1,0
7743,-66.6666666666667,4,1,0,30,0,0
8076,-100,4,1,0,30,0,0
14409,-66.6666666666667,4,1,0,30,0,0
14743,-100,4,1,0,30,0,0
23743,-133.333333333333,4,1,0,30,0,0
24576,-66.6666666666667,4,1,0,30,0,0
24909,-100,4,1,0,30,0,0
27076,-66.6666666666667,4,1,0,30,0,0
28076,-133.333333333333,4,1,0,30,0,0
29409,-100,4,1,0,30,0,0
33409,-66.6666666666667,4,1,0,30,0,0
34743,-100,4,1,0,30,0,0
36409,-66.6666666666667,4,1,0,30,0,0
37909,-100,4,1,0,30,0,0
41409,-66.6666666666667,4,1,0,30,0,0
42743,-133.333333333333,4,1,0,30,0,0
44076,-50,4,1,0,30,0,0
45409,-66.6666666666667,4,1,0,30,0,0
46409,-50,4,1,0,30,0,0
46743,-66.6666666666667,4,1,0,30,0,0
50743,-133.333333333333,4,1,0,30,0,0
56076,-100,4,1,0,30,0,0
72076,-66.6666666666667,4,1,0,30,0,0

[Colours]
Combo1 : 0,139,41
Combo2 : 0,255,0

[HitObjects]
102,44,5409,6,0,L|154:104,1,80
238,143,5743,1,0,0:0:0:0:
420,122,5909,1,0,0:0:0:0:
423,154,5993,1,0,0:0:0:0:
421,185,6076,1,0,0:0:0:0:
414,216,6159,1,0,0:0:0:0:
394,241,6243,1,0,0:0:0:0:
341,304,6409,2,0,L|243:288,1,80
127,213,6743,6,0,L|205:225,1,80
307,216,7076,1,0,0:0:0:0:
409,167,7243,1,0,0:0:0:0:
397,136,7327,1,0,0:0:0:0:
382,109,7410,1,0,0:0:0:0:
362,85,7493,1,0,0:0:0:0:
333,71,7577,1,0,0:0:0:0:
227,68,7743,2,0,P|171:88|185:150,1,120.000004577637
249,264,8076,6,0,P|196:274|143:269,1,80
138,269,8326,1,0,0:0:0:0:
106,263,8409,2,0,P|84:235|70:192,2,80
317,352,9076,2,0,L|322:338,1,13.3333333333333
479,63,9409,6,0,P|437:78|395:106,1,80
383,118,9659,1,0,0:0:0:0:
302,169,9909,2,0,L|292:214,2,40
274,324,10243,2,0,L|263:307,1,20
210,185,10409,2,0,L|226:204,1,20
360,260,10576,2,0,L|367:242,1,20
400,153,10743,6,0,P|349:134|306:102,1,80
302,100,10993,1,0,0:0:0:0:
277,78,11076,2,0,P|272:42|282:-1,2,80
5,51,11743,2,0,L|18:72,1,20
68,262,12076,1,0,0:0:0:0:
168,292,12243,2,0,L|160:332,2,40
248,258,12576,2,0,L|257:219,1,40
369,97,12909,2,0,P|327:106|297:70,2,80
97,51,13409,5,0,0:0:0:0:
82,117,13576,1,0,0:0:0:0:
78,184,13743,1,0,0:0:0:0:
108,247,13909,1,0,0:0:0:0:
175,327,14076,2,0,L|261:307,1,80
240,230,14409,2,0,L|381:257,1,120.000004577637
416,310,14743,5,0,0:0:0:0:
445,235,14909,1,0,0:0:0:0:
468,159,15076,1,0,0:0:0:0:
476,81,15243,1,0,0:0:0:0:
420,20,15409,2,0,L|336:47,1,80
276,95,15743,2,0,L|192:68,1,80
153,134,16076,5,0,0:0:0:0:
177,203,16243,1,0,0:0:0:0:
215,266,16409,1,0,0:0:0:0:
257,326,16576,1,0,0:0:0:0:
346,347,16743,2,0,L|364:255,1,80
449,226,17076,2,0,L|433:304,1,80
346,347,17409,5,0,0:0:0:0:
278,310,17576,1,0,0:0:0:0:
210,246,17743,2,0,L|210:265,1,20
166,245,17909,2,0,L|166:264,1,20
121,245,18076,2,0,L|121:264,1,20
77,243,18243,2,0,L|77:262,1,20
36,162,18409,2,0,L|127:130,1,80
124,65,18743,6,0,L|209:83,1,80
249,232,19076,2,0,L|252:206,1,20
311,112,19243,2,0,L|308:131,1,20
249,232,19409,1,0,0:0:0:0:
384,107,19576,2,0,L|302:133,1,80
246,165,19909,5,0,0:0:0:0:
180,209,20076,1,0,0:0:0:0:
136,277,20243,1,0,0:0:0:0:
154,350,20409,1,0,0:0:0:0:
59,260,20576,2,0,L|62:289,1,20
226,293,20743,1,0,0:0:0:0:
110,206,20909,2,0,L|113:183,1,20
127,116,21076,2,0,P|169:113|207:100,1,80
286,56,21409,6,0,P|328:59|366:72,1,80
430,136,21743,1,0,0:0:0:0:
355,222,21909,1,0,0:0:0:0:
258,275,22076,1,0,0:0:0:0:
156,240,22243,1,0,0:0:0:0:
121,170,22409,2,0,P|159:155|190:129,1,80
209,48,22743,6,0,P|247:63|278:89,1,80
121,170,23076,1,0,0:0:0:0:
355,222,23243,1,0,0:0:0:0:
180,308,23409,1,0,0:0:0:0:
276,87,23576,1,0,0:0:0:0:
357,52,23743,6,0,L|375:112,1,60.0000022888184
459,123,24076,2,0,L|441:183,1,60.0000022888184
355,222,24409,1,0,0:0:0:0:
287,270,24576,6,0,B|225:292|225:292|139:290,1,120.000004577637
67,245,24909,2,0,L|122:163,1,80
154,30,25409,6,0,P|192:56|223:95,1,80
259,143,25743,2,0,L|259:186,2,40
353,305,26076,2,0,P|315:279|284:240,1,80
118,228,26409,2,0,L|211:199,1,80
180,126,26743,6,0,L|266:144,1,80
324,106,27076,2,0,L|349:239,1,120.000004577637
62,201,27576,1,0,0:0:0:0:
14,263,27743,2,0,L|154:300,1,120.000004577637
296,282,28076,6,0,L|276:221,1,60.0000022888184
307,107,28409,2,0,L|249:138,1,60.0000022888184
143,183,28743,2,0,L|209:203,1,60.0000022888184
285,29,29409,6,0,L|308:112,1,80
383,148,29743,2,0,L|347:173,2,40
286,237,30076,2,0,L|369:252,1,80
202,322,30409,2,0,L|294:313,1,80
144,264,30743,1,0,0:0:0:0:
58,220,31076,6,0,L|77:141,1,80
134,95,31409,2,0,L|150:140,2,40
209,71,31743,2,0,L|297:102,1,80
352,67,32076,1,0,0:0:0:0:
209,71,32576,5,0,0:0:0:0:
151,158,32743,2,0,L|172:246,1,80
361,226,33076,2,0,L|340:138,1,80
209,71,33409,6,0,P|143:71|90:97,1,120.000004577637
135,239,33743,6,0,P|135:305|161:358,1,120.000004577637
303,313,34076,6,0,P|369:313|422:287,1,120.000004577637
377,145,34409,6,0,P|377:79|351:26,1,120.000004577637
255,193,34743,5,0,0:0:0:0:
27,119,35076,5,0,0:0:0:0:
48,199,35243,1,0,0:0:0:0:
92,277,35409,2,0,L|183:285,1,80
237,330,35743,2,0,L|328:322,1,80
376,248,36076,1,0,0:0:0:0:
329,149,36243,1,0,0:0:0:0:
279,51,36409,6,0,P|237:94|221:168,1,120.000004577637
121,208,36743,2,0,P|164:166|238:150,1,120.000004577637
163,89,37076,1,0,0:0:0:0:
329,149,37243,1,0,0:0:0:0:
193,263,37409,1,0,0:0:0:0:
228,165,37909,5,0,0:0:0:0:
329,149,38243,5,0,0:0:0:0:
378,208,38409,2,0,P|363:254|340:286,1,80
292,333,38743,2,0,P|247:323|214:299,2,80
249,179,39243,2,0,P|273:229|277:263,1,80
152,279,39576,2,0,P|128:229|124:195,1,80
123,61,39909,2,0,L|123:109,10,40
235,46,41409,5,0,0:0:0:0:
266,63,41576,2,0,L|267:125,1,60.0000022888184
290,143,41743,1,0,0:0:0:0:
313,173,41826,2,0,L|278:231,1,60.0000022888184
248,237,41993,1,0,0:0:0:0:
204,241,42076,2,0,L|132:213,2,60.0000022888184
141,317,42409,5,0,0:0:0:0:
262,339,42743,2,0,P|310:296|375:293,2,120.000004577637
336,361,43743,5,0,0:0:0:0:
363,290,44076,2,0,B|280:251|221:131|363:148|152:62,2,320
198,169,45076,5,0,0:0:0:0:
235,237,45409,5,0,0:0:0:0:
290,289,45659,2,0,L|356:276,1,60.0000022888184
382,211,45909,1,0,0:0:0:0:
139,157,46076,2,0,L|212:171,1,60.0000022888184
263,149,46326,1,0,0:0:0:0:
395,132,46409,2,0,L|377:235,1,80
417,159,46576,2,0,L|399:247,1,80
385,325,46743,5,0,0:0:0:0:
263,149,46993,2,0,L|259:195,2,30.0000011444092
357,234,47243,2,0,L|353:188,4,30.0000011444092
455,201,47576,2,0,L|445:243,8,30.0000011444092
249,100,50743,6,0,P|287:154|345:180,1,120.000004577637
389,297,51576,2,0,L|390:234,2,60.0000022888184
448,177,52076,2,0,P|391:161|332:179,1,120.000004577637
389,297,52576,1,0,0:0:0:0:
334,117,52743,2,0,L|334:179,2,60.0000022888184
334,177,53409,5,0,0:0:0:0:
274,177,54243,6,0,L|339:177,2,60.0000022888184
135,175,55243,1,0,0:0:0:0:
171,258,55409,2,0,L|235:258,2,60.0000022888184
350,326,56076,6,0,P|369:280|388:153,1,160
403,34,56909,1,0,0:0:0:0:
207,84,57076,2,0,L|258:153,1,80
188,219,57409,2,0,B|272:226|312:330|414:330,1,240
409,184,58576,6,0,P|344:160|247:148,1,160
144,144,59076,1,0,0:0:0:0:
96,208,59243,1,0,0:0:0:0:
144,272,59409,1,0,0:0:0:0:
224,272,59576,1,0,0:0:0:0:
272,208,59743,1,0,0:0:0:0:
224,144,59909,1,0,0:0:0:0:
144,144,60076,6,0,L|68:88,1,80
288,224,60409,2,0,L|212:280,1,80
368,240,60743,2,0,L|444:296,1,80
224,160,61076,2,0,L|300:104,1,80
473,36,61409,6,0,P|446:118|431:197,1,160
357,173,62076,2,0,B|363:248|357:249|409:270,2,120
335,320,62743,6,0,L|176:337,1,160
189,218,63409,2,0,L|199:269,1,40
194,145,63576,2,0,L|204:196,1,40
210,87,63743,1,0,0:0:0:0:
116,146,63909,1,0,0:0:0:0:
105,184,63993,1,0,0:0:0:0:
113,222,64076,2,0,B|126:322|126:322|214:336,1,180
440,251,64743,6,0,L|450:333,1,80
361,289,65076,1,0,0:0:0:0:
338,213,65243,1,0,0:0:0:0:
264,255,65409,2,0,P|217:195|147:138,1,160
144,221,66076,1,0,0:0:0:0:
353,144,66409,1,0,0:0:0:0:
233,27,66743,6,0,P|148:35|69:56,1,160
39,170,67409,2,0,P|87:216|123:270,2,120
172,338,68076,2,0,P|257:330|336:309,1,160
268,246,68743,1,0,0:0:0:0:
424,318,68909,1,0,0:0:0:0:
329,311,69076,1,0,0:0:0:0:
360,179,69243,1,0,0:0:0:0:
358,111,69409,6,0,L|274:63,1,80
208,78,69743,1,0,0:0:0:0:
149,131,69909,1,0,0:0:0:0:
154,273,70243,2,0,L|238:321,1,80
296,298,70576,2,0,L|332:136,1,160
318,65,71076,2,0,L|240:105,1,80
247,173,71409,1,0,0:0:0:0:
459,258,72076,6,0,L|374:174,1,120.000004577637
186,133,72409,2,0,L|280:226,1,120.000004577637
382,317,72743,1,0,0:0:0:0:
459,118,73243,1,0,0:0:0:0:
271,217,73409,5,0,0:0:0:0:
262,59,73576,1,0,0:0:0:0:
369,170,73743,1,0,0:0:0:0:
204,124,73909,1,0,0:0:0:0:
355,87,74076,2,0,P|413:82|465:130,2,120.000004577637
204,124,74743,6,0,P|140:128|82:155,1,120.000004577637
31,234,75076,2,0,P|86:257|145:260,1,120.000004577637
255,281,75410,1,0,0:0:0:0:
255,281,75910,1,0,0:0:0:0:
193,146,76076,5,0,0:0:0:0:
255,281,76243,1,0,0:0:0:0:
321,145,76410,1,0,0:0:0:0:
255,281,76576,1,0,0:0:0:0:
193,146,76743,2,0,L|317:147,1,120.000004577637
407,100,77409,6,0,B|399:164|399:164|415:229,1,120.000004577637
322,283,77743,2,0,B|330:219|330:219|314:154,1,120.000004577637
286,91,78076,1,0,0:0:0:0:
322,283,78576,1,0,0:0:0:0:
172,241,78742,5,0,0:0:0:0:
348,202,78909,1,0,0:0:0:0:
173,153,79076,1,0,0:0:0:0:
349,127,79242,1,0,0:0:0:0:
262,272,79409,2,0,L|262:147,3,120.000004577637
232,60,80076,5,0,0:0:0:0:
145,104,80243,1,0,0:0:0:0:
88,173,80409,2,0,P|85:239|113:312,1,120.000004577637
147,358,80743,1,0,0:0:0:0:
329,284,81243,1,0,0:0:0:0:
198,190,81409,2,0,B|238:166|275:210|328:183,3,120.000004577637
310,53,82076,1,0,0:0:0:0:
377,138,82576,1,0,0:0:0:0:
390,196,82659,1,0,0:0:0:0:
343,237,82743,5,0,0:0:0:0:
216,182,82909,1,0,0:0:0:0:
332,107,83076,1,0,0:0:0:0:
323,264,83243,1,0,0:0:0:0:
221,169,83409,1,0,0:0:0:0:
356,138,83576,1,0,0:0:0:0:
293,282,83743,1,0,0:0:0:0:
230,158,83909,1,0,0:0:0:0:
259,289,84076,5,0,0:0:0:0:
243,152,84242,1,0,0:0:0:0:
376,200,84409,1,0,0:0:0:0:
225,285,84576,5,0,0:0:0:0:
257,149,84742,1,0,0:0:0:0:
366,241,84909,1,0,0:0:0:0:
225,285,85076,1,0,0:0:0:0:
