osu file format v14

[General]
AudioFilename: audio.mp3
AudioLeadIn: 0
PreviewTime: 26734
Countdown: 0
SampleSet: Soft
StackLeniency: 0.6
Mode: 0
LetterboxInBreaks: 0
WidescreenStoryboard: 1

[Editor]
Bookmarks: 115623
DistanceSpacing: 1
BeatDivisor: 8
GridSize: 32
TimelineZoom: 1.3

[Metadata]
Title:World's End Valentine
TitleUnicode:World's End Valentine
Artist:Pedro Silva
ArtistUnicode:Pedro Silva
Creator:Fall
Version:Wanpachi's Normal
Source:OMORI
Tags:video game videogame ost soundtrack original electronic instrumental boss fight sweetheart kel aubrey hero omori sunny mari basil chiptune _tranquility hooni wither wanpachi cycopton omocat 086 86 vgm
BeatmapID:2930184
BeatmapSetID:1412590

[Difficulty]
HPDrainRate:4
CircleSize:3.2
OverallDifficulty:4.5
ApproachRate:5
SliderMultiplier:1.1
SliderTickRate:1

[Events]
//Background and Video events
0,0,"mari best girl.jpg",0,0
//Break Periods
2,80268,84053
2,103971,114423
//Storyboard Layer 0 (Background)
//Storyboard Layer 1 (Fail)
//Storyboard Layer 2 (Pass)
//Storyboard Layer 3 (Foreground)
//Storyboard Layer 4 (Overlay)
//Storyboard Sound Samples

[TimingPoints]
246,400,4,2,0,60,1,0
17846,370.37037037037,4,2,1,60,1,0
17846,-111.111111111111,4,2,1,60,0,0
20808,-111.111111111111,4,2,2,69,0,0
25253,-111.111111111111,4,2,2,75,0,0
26920,-111.111111111111,4,2,3,45,0,0
29697,-90.9090909090909,4,2,1,85,0,1
30160,-90.9090909090909,4,2,2,85,0,1
30531,-90.9090909090909,4,2,1,85,0,1
30901,-90.9090909090909,4,2,3,85,0,1
31271,-90.9090909090909,4,2,1,85,0,1
31642,-90.9090909090909,4,2,2,85,0,1
32012,-90.9090909090909,4,2,1,85,0,1
32383,-90.9090909090909,4,2,3,85,0,1
32753,-90.9090909090909,4,2,1,85,0,1
33123,-90.9090909090909,4,2,2,85,0,1
33494,-90.9090909090909,4,2,1,85,0,1
33864,-90.9090909090909,4,2,3,85,0,1
34234,-90.9090909090909,4,2,1,85,0,1
34605,-90.9090909090909,4,2,3,85,0,1
34975,-90.9090909090909,4,2,1,85,0,1
35345,-90.9090909090909,4,2,2,85,0,1
35716,-90.9090909090909,4,2,1,85,0,1
36086,-90.9090909090909,4,2,3,85,0,1
36457,-90.9090909090909,4,2,1,85,0,1
36827,-90.9090909090909,4,2,2,85,0,1
37197,-90.9090909090909,4,2,1,85,0,1
37568,-90.9090909090909,4,2,3,85,0,1
37938,-90.9090909090909,4,2,1,85,0,1
38309,-90.9090909090909,4,2,2,85,0,1
38679,-90.9090909090909,4,2,1,85,0,1
39049,-90.9090909090909,4,2,3,85,0,1
39420,-90.9090909090909,4,2,1,85,0,1
39790,-90.9090909090909,4,2,2,85,0,1
40068,-90.9090909090909,4,2,2,85,0,0
41549,-90.9090909090909,4,2,1,85,0,1
42012,-90.9090909090909,4,2,2,85,0,1
42383,-90.9090909090909,4,2,1,85,0,1
42753,-90.9090909090909,4,2,3,85,0,1
43123,-90.9090909090909,4,2,1,85,0,1
43494,-90.9090909090909,4,2,2,85,0,1
43864,-90.9090909090909,4,2,1,85,0,1
44235,-90.9090909090909,4,2,3,85,0,1
44605,-90.9090909090909,4,2,1,85,0,1
44975,-90.9090909090909,4,2,2,85,0,1
45346,-90.9090909090909,4,2,1,85,0,1
45499,-90.9090909090909,4,2,1,5,0,1
45562,-90.9090909090909,4,2,1,85,0,1
45716,-90.9090909090909,4,2,3,85,0,1
46086,-90.9090909090909,4,2,1,85,0,1
46457,-90.9090909090909,4,2,3,85,0,1
46827,-90.9090909090909,4,2,1,85,0,1
47197,-90.9090909090909,4,2,2,85,0,1
47568,-90.9090909090909,4,2,1,85,0,1
47938,-90.9090909090909,4,2,3,85,0,1
48309,-90.9090909090909,4,2,1,85,0,1
48679,-90.9090909090909,4,2,2,85,0,1
49049,-90.9090909090909,4,2,1,85,0,1
49420,-90.9090909090909,4,2,3,85,0,1
49790,-90.9090909090909,4,2,1,85,0,1
50161,-90.9090909090909,4,2,2,85,0,1
50531,-90.9090909090909,4,2,1,85,0,1
51734,-90.9090909090909,4,2,2,85,0,1
51920,-90.9090909090909,4,2,1,85,0,1
53401,-100,4,2,4,80,0,0
56503,-100,4,2,4,5,0,0
56549,-100,4,2,4,80,0,0
56688,-100,4,2,4,5,0,0
56734,-100,4,2,4,80,0,0
56873,-100,4,2,4,5,0,0
56920,-100,4,2,4,80,0,0
58910,-100,4,2,4,5,0,0
58957,-100,4,2,4,80,0,0
59095,-100,4,2,4,5,0,0
59142,-100,4,2,4,80,0,0
66734,-100,4,2,2,92,0,0
67197,-100,4,2,2,5,0,0
67290,-100,4,2,2,92,0,0
67614,-100,4,2,2,5,0,0
67660,-100,4,2,2,92,0,0
67984,-100,4,2,2,5,0,0
68031,-100,4,2,2,92,0,0
68216,-111.111111111111,4,2,1,65,0,0
70438,-111.111111111111,4,2,5,65,0,0
70623,-111.111111111111,4,2,1,65,0,0
70808,-111.111111111111,4,2,5,65,0,0
70994,-111.111111111111,4,2,1,65,0,0
71179,-111.111111111111,4,2,5,65,0,0
71271,-111.111111111111,4,2,1,65,0,0
72660,-111.111111111111,4,2,5,65,0,0
74142,-111.111111111111,4,2,1,65,0,0
77105,-111.111111111111,4,2,5,65,0,0
77660,-111.111111111111,4,2,5,5,0,0
77845,-111.111111111111,4,2,5,65,0,0
78400,-111.111111111111,4,2,5,5,0,0
78586,-111.111111111111,4,2,5,65,0,0
78771,-111.111111111111,4,2,5,5,0,0
78957,-111.111111111111,4,2,5,65,0,0
79142,-111.111111111111,4,2,5,5,0,0
79327,-111.111111111111,4,2,5,65,0,0
85068,-111.111111111111,4,2,1,70,0,0
85994,-100,4,2,2,65,0,0
86271,-100,4,2,2,5,0,0
86364,-100,4,2,2,65,0,0
86641,-100,4,2,2,5,0,0
86734,-100,4,2,2,65,0,0
87011,-100,4,2,2,5,0,0
87105,-100,4,2,2,65,0,0
87382,-100,4,2,2,5,0,0
87475,-100,4,2,2,65,0,0
91133,-100,4,2,2,5,0,0
91179,-100,4,2,2,65,0,0
97845,-100,4,2,2,72,0,0
100808,-100,4,2,1,80,0,0
101734,-100,4,2,1,85,0,0
102012,-100,4,2,2,85,0,0
102105,-100,4,2,1,85,0,0
102290,-100,4,2,2,85,0,0
102383,-100,4,2,1,85,0,0
103771,-111.111111111111,4,2,1,60,0,0
109697,-111.111111111111,4,2,3,60,0,0
114142,-111.111111111111,4,2,2,70,0,0
114512,-111.111111111111,4,2,2,60,0,0
114883,-111.111111111111,4,2,1,78,0,0
115623,-90.9090909090909,4,2,2,80,0,1
118170,-90.9090909090909,4,2,2,5,0,1
118216,-90.9090909090909,4,2,2,80,0,1
127475,-90.9090909090909,4,2,2,90,0,1
130438,-90.9090909090909,4,2,2,95,0,1
131920,-90.9090909090909,4,2,3,70,0,1
134142,-90.9090909090909,4,2,1,100,0,1
134883,-90.9090909090909,4,2,6,100,0,0
134975,-90.9090909090909,4,2,6,5,0,0

[Colours]
Combo1 : 255,98,21
Combo2 : 0,0,255
Combo3 : 255,0,128
Combo4 : 103,103,103

[HitObjects]
288,59,17846,6,0,P|372:28|480:76,1,197.99999395752,0|2,3:2|0:0,0:0:0:0:
466,217,19142,1,2,3:0:0:0:
466,217,19327,2,0,P|382:248|274:200,1,197.99999395752,2|2,3:0|0:0,0:0:0:0:
110,117,20808,6,0,L|96:237,1,98.9999969787599,2|2,3:2|0:0,0:0:0:0:
37,293,21549,2,0,L|157:307,1,98.9999969787599,2|2,3:2|0:0,0:0:0:0:
213,366,22290,2,0,L|227:246,1,98.9999969787599,2|2,3:2|0:0,0:0:0:0:
286,190,23031,2,0,L|166:176,1,98.9999969787599,2|2,3:2|0:0,0:0:0:0:
110,117,23771,5,2,3:2:0:0:
30,176,24142,1,2,3:2:0:0:
28,274,24512,1,2,3:2:0:0:
116,319,24883,1,2,3:2:0:0:
204,274,25253,2,0,P|247:260|316:286,1,98.9999969787599,2|2,3:2|3:2,0:0:0:0:
365,345,25994,2,0,B|401:306|401:306|384:203,1,148.49999546814,2|2,3:2|3:2,0:0:0:0:
371,164,26734,5,6,0:2:0:0:
56,12,28957,5,2,3:2:0:0:
9,99,29327,1,2,3:2:0:0:
56,185,29697,6,0,L|191:194,1,121.000003692627,4|0,3:2|3:2,0:0:0:0:
225,156,30253,1,2,0:0:0:0:
225,156,30438,2,0,P|249:93|209:44,1,121.000003692627,6|2,3:2|3:2,0:0:0:0:
337,11,31179,2,0,B|425:5|373:39|467:42,1,121.000003692627,4|0,3:2|3:2,0:0:0:0:
493,83,31734,1,2,0:0:0:0:
493,83,31920,2,0,B|461:134|461:134|483:201,1,121.000003692627,6|2,3:2|3:2,0:0:0:0:
500,310,32660,6,0,L|375:296,1,121.000003692627,4|0,3:2|3:2,0:0:0:0:
327,327,33216,1,2,0:0:0:0:
327,327,33401,2,0,B|283:333|283:333|259:327|259:327|207:335,1,121.000003692627,6|2,3:2|3:2,0:0:0:0:
93,375,34142,2,0,L|86:312,1,60.5000018463135,4|2,3:2|0:2,0:0:0:0:
114,261,34512,2,0,L|121:198,1,60.5000018463135,6|2,3:2|0:0,0:0:0:0:
87,149,34883,2,0,L|80:86,1,60.5000018463135,6|2,3:2|0:0,0:0:0:0:
117,41,35253,1,4,3:2:0:0:
232,76,35623,6,0,P|275:125|256:201,1,121.000003692627,4|2,3:2|3:2,0:0:0:0:
298,231,36179,1,2,0:0:0:0:
298,231,36364,2,0,B|374:235|335:204|433:214,1,121.000003692627,4|0,3:2|3:2,0:0:0:0:
505,130,37105,2,0,L|495:4,1,121.000003692627,4|2,3:2|3:2,0:0:0:0:
435,3,37660,1,2,0:0:0:0:
435,3,37845,2,0,B|385:39|385:39|312:21,1,121.000003692627,4|0,3:2|3:2,0:0:0:0:
224,88,38586,6,0,B|176:93|176:93|155:75|155:75|82:80,1,121.000003692627,4|0,3:2|3:2,0:0:0:0:
66,120,39142,1,2,0:0:0:0:
66,120,39327,2,0,P|46:186|92:233,1,121.000003692627,4|2,3:2|3:2,0:0:0:0:
164,305,40068,1,6,3:2:0:0:
270,87,41549,6,0,B|330:70|330:70|387:105,1,121.000003692627,4|0,3:2|3:2,0:0:0:0:
424,142,42105,1,2,0:0:0:0:
424,142,42290,1,4,3:2:0:0:
357,242,42660,1,4,3:2:0:0:
429,339,43031,2,0,B|363:330|383:364|295:350,1,121.000003692627,4|0,3:2|3:2,0:0:0:0:
270,306,43586,1,2,0:0:0:0:
270,306,43771,2,0,L|142:291,1,121.000003692627,4|0,3:2|3:2,0:0:0:0:
39,341,44512,6,0,P|22:276|48:221,1,121.000003692627,4|0,3:2|3:2,0:0:0:0:
97,200,45068,1,2,0:0:0:0:
97,200,45253,1,0,3:2:0:0:
74,79,45623,2,0,L|58:14,1,60.5000018463135,4|6,3:2|0:0,0:0:0:0:
119,11,45994,2,0,B|169:16|169:16|191:40|191:40|249:48,1,121.000003692627,4|0,3:2|3:2,0:0:0:0:
266,92,46549,1,2,0:0:0:0:
266,92,46734,2,0,B|310:54|310:54|374:60,1,121.000003692627,4|0,3:2|3:2,0:0:0:0:
467,135,47475,6,0,L|449:273,1,121.000003692627,4|4,3:2|3:2,0:0:0:0:
355,329,48216,2,0,L|339:209,1,121.000003692627,4|4,3:2|3:2,0:0:0:0:
274,106,48957,1,4,3:2:0:0:
172,40,49327,1,4,3:2:0:0:
59,83,49697,1,4,3:2:0:0:
83,201,50068,1,4,3:2:0:0:
9,296,50438,6,0,P|66:328|139:303,1,121.000003692627,4|6,3:2|3:2,0:0:0:0:
192,222,51179,2,0,P|249:190|322:215,1,121.000003692627,4|0,3:2|3:2,0:0:0:0:
343,242,51734,1,2,0:0:0:0:
343,242,51920,1,6,3:2:0:0:
452,190,52290,1,6,3:2:0:0:
457,69,52660,1,6,3:2:0:0:
347,17,53031,1,6,3:2:0:0:
255,77,53401,6,0,B|239:130|239:130|262:190,1,110,6|2,0:0|3:2,0:0:0:0:
289,226,53957,1,2,0:0:0:0:
289,226,54142,2,0,L|379:222,2,82.5,2|2|2,3:2|0:0|0:0,0:0:0:0:
267,276,54883,1,2,3:2:0:0:
160,250,55253,1,2,3:2:0:0:
65,305,55623,2,0,P|48:364|63:395,2,82.5,2|2|2,3:2|0:0|0:0,0:0:0:0:
53,250,56364,6,0,P|48:183|56:136,1,110,2|2,3:2|3:2,0:0:0:0:
138,69,57105,2,0,L|201:60,1,55,2|2,3:2|0:0,0:0:0:0:
242,83,57475,1,2,3:2:0:0:
336,26,57845,2,0,P|395:29|417:91,1,110,2|2,3:2|3:2,0:0:0:0:
464,169,58586,2,0,L|453:232,1,55,2|2,3:2|0:0,0:0:0:0:
408,254,58957,2,0,L|419:317,1,55,2|2,3:2|0:0,0:0:0:0:
379,347,59327,6,0,B|336:344|336:344|308:357|308:357|254:350,1,110,2|2,3:2|3:2,0:0:0:0:
232,314,59883,1,2,0:0:0:0:
281,216,60253,2,0,L|354:206,2,55,2|6|2,0:0|3:2|0:0,0:0:0:0:
242,176,60808,2,0,P|221:125|231:72,1,110,0|0,3:2|3:2,0:0:0:0:
192,33,61364,1,2,0:0:0:0:
192,33,61549,2,0,L|59:27,1,110,4|4,3:2|3:2,0:0:0:0:
5,107,62290,6,0,B|64:112|40:144|115:152,1,110,2|2,3:2|3:2,0:0:0:0:
144,187,62845,1,2,0:0:0:0:
83,278,63216,2,0,L|14:271,2,55,2|6|2,0:0|3:2|0:0,0:0:0:0:
126,311,63771,2,0,P|184:332|234:305,1,110,0|0,3:2|3:2,0:0:0:0:
265,275,64327,1,2,0:0:0:0:
265,275,64512,2,0,L|323:272,2,55,0|2|0,3:2|0:0|3:2,0:0:0:0:
189,194,65253,6,0,B|176:141|176:141|214:83,1,110,0|0,3:2|3:2,0:0:0:0:
308,52,65994,2,0,L|374:64,1,55,0|2,3:2|0:0,0:0:0:0:
400,100,66364,2,0,L|388:166,1,55,0|2,3:2|0:0,0:0:0:0:
419,200,66734,2,0,P|465:197|503:232,2,82.5,6|2|2,0:0|0:0|3:2,0:0:0:0:
374,233,67475,1,2,3:2:0:0:
390,341,67845,2,0,L|313:354,1,55,2|2,3:2|0:0,0:0:0:0:
294,321,68216,6,0,P|245:317|205:345,1,98.9999969787599,2|2,3:2|3:2,0:0:0:0:
110,373,68957,2,0,L|93:250,1,98.9999969787599,2|2,3:2|3:2,0:0:0:0:
63,237,69512,1,2,0:0:0:0:
63,237,69697,2,0,B|82:190|82:190|59:130,1,98.9999969787599,2|2,3:2|3:2,0:0:0:0:
78,46,70438,2,0,B|141:44|114:72|171:70,1,98.9999969787599,2|2,3:2|3:2,0:0:0:0:
263,106,71179,5,2,3:2:0:0:
350,60,71549,1,0,3:2:0:0:
423,127,71920,2,0,L|431:254,1,98.9999969787599,0|0,3:2|3:2,0:0:0:0:
363,299,72660,1,2,3:2:0:0:
276,250,73031,1,2,3:2:0:0:
201,315,73401,2,0,B|160:309|160:309|145:299|145:299|104:294,1,98.9999969787599,2|2,3:2|3:2,0:0:0:0:
31,228,74142,6,0,P|16:181|36:137,1,98.9999969787599,2|2,3:2|3:2,0:0:0:0:
128,102,74883,2,0,P|175:114|224:120,1,98.9999969787599,2|2,3:2|3:2,0:0:0:0:
258,164,75438,1,2,0:0:0:0:
258,164,75623,1,2,3:2:0:0:
206,248,75994,1,2,3:2:0:0:
271,322,76364,2,0,L|389:315,1,98.9999969787599,2|2,3:2|3:2,0:0:0:0:
459,357,77105,6,0,B|480:266|436:300|464:208,1,148.49999546814,2|0,3:2|0:0,0:0:0:0:
491,170,77845,2,0,B|507:121|507:121|481:19,1,148.49999546814,2|0,3:2|0:0,0:0:0:0:
436,9,78586,1,2,3:2:0:0:
377,88,78957,1,2,3:2:0:0:
286,48,79327,2,0,L|297:-15,2,49.4999984893799,2|2|2,3:2|0:0|3:2,0:0:0:0:
199,95,80068,5,4,0:0:0:0:
242,331,85253,6,0,L|303:338,2,49.4999984893799,10|10|10,0:2|0:2|0:2,0:0:0:0:
205,297,85808,1,2,3:2:0:0:
205,297,85994,6,0,B|156:325|156:325|100:302,1,110,2|2,3:2|3:2,0:0:0:0:
31,223,86734,2,0,L|35:154,1,55,2|0,3:2|0:0,0:0:0:0:
36,112,87105,1,2,3:2:0:0:
120,41,87475,2,0,L|189:45,1,55,2|2,3:2|0:0,0:0:0:0:
217,78,87845,2,0,L|286:74,1,55,2|2,3:2|0:0,0:0:0:0:
316,42,88216,2,0,B|379:37|363:71|439:63,1,110,2|2,3:2|3:2,0:0:0:0:
494,146,88957,6,0,L|490:206,1,55,2|2,3:2|0:0,0:0:0:0:
486,255,89327,1,2,3:2:0:0:
392,312,89697,2,0,P|344:284|281:309,1,110,2|2,3:2|3:2,0:0:0:0:
188,328,90438,2,0,L|180:382,2,55,2|2|2,3:2|0:0|3:2,0:0:0:0:
90,277,91179,2,0,L|78:186,1,55,6|2,3:2|0:0,0:0:0:0:
50,178,91549,2,0,L|62:87,1,55,2|2,3:2|0:0,0:0:0:0:
96,84,91920,6,0,B|135:79|135:79|154:94|154:94|212:85,1,110,6|2,3:2|3:2,0:0:0:0:
256,105,92475,1,2,0:0:0:0:
256,105,92660,2,0,P|278:160|249:217,1,110,2|2,3:2|3:2,0:0:0:0:
218,240,93216,1,2,0:0:0:0:
286,325,93586,2,0,L|280:389,2,55,2|2|2,0:0|3:2|0:0,0:0:0:0:
319,280,94142,2,0,B|368:310|368:310|430:289,1,110,2|2,3:2|3:2,0:0:0:0:
456,192,94883,5,0,0:0:0:0:
456,192,95068,2,0,L|524:187,2,55,2|2|2,0:0|3:2|0:0,0:0:0:0:
410,160,95623,2,0,P|423:97|394:50,1,110,2|2,3:2|3:2,0:0:0:0:
350,42,96179,1,2,0:0:0:0:
258,103,96549,2,0,L|240:189,2,55,2|2|2,0:0|3:2|0:0,0:0:0:0:
243,49,97105,2,0,B|174:48|196:81|140:81,1,110,2|2,3:2|3:2,0:0:0:0:
54,149,97845,6,0,L|1:135,2,55,6|2|2,3:2|0:0|3:2,0:0:0:0:
118,238,98586,2,0,L|171:224,1,55,2|2,3:2|0:0,0:0:0:0:
223,207,98957,1,2,3:2:0:0:
265,105,99327,2,0,L|251:52,2,55,6|2|2,3:2|0:0|3:2,0:0:0:0:
354,169,100068,2,0,L|340:222,1,55,2|2,3:2|0:0,0:0:0:0:
323,274,100439,1,2,3:2:0:0:
213,268,100808,6,0,L|199:215,2,55,6|2|2,3:2|0:0|3:2,0:0:0:0:
181,373,101549,2,0,P|221:379|259:365,2,82.5,6|2|10,3:2|0:0|0:0,0:0:0:0:
139,336,102290,2,0,B|86:311|86:311|30:326,1,110,14|10,3:2|3:2,0:0:0:0:
3,219,103031,2,0,B|109:190,1,110,14|10,3:2|3:2,0:0:0:0:
88,93,103771,5,4,0:0:0:0:
185,51,115623,6,0,B|118:49|136:84|54:80,1,121.000003692627,2|2,3:2|3:2,0:0:0:0:
24,121,116179,1,2,0:0:0:0:
24,121,116364,2,0,B|45:181|45:181|23:238,1,121.000003692627,2|2,3:2|3:2,0:0:0:0:
65,348,117105,2,0,P|119:327|187:350,1,121.000003692627,2|2,3:2|3:2,0:0:0:0:
231,312,117660,1,2,0:0:0:0:
231,312,117845,2,0,L|243:219,2,90.7500027694703,2|2|10,3:2|0:0|0:0,0:0:0:0:
279,348,118586,6,0,B|321:351|321:351|346:339|346:339|399:343,1,121.000003692627,6|2,3:2|3:2,0:0:0:0:
447,308,119142,1,2,0:0:0:0:
447,308,119327,2,0,P|462:248|434:194,1,121.000003692627,2|2,3:2|3:2,0:0:0:0:
457,77,120068,2,0,L|333:58,1,121.000003692627,2|2,3:2|3:2,0:0:0:0:
289,93,120623,1,2,0:0:0:0:
289,93,120808,2,0,P|250:78|194:93,2,90.7500027694703,6|2|10,3:2|0:0|0:0,0:0:0:0:
319,145,121549,6,0,B|300:204|300:204|323:261,1,121.000003692627,14|2,3:2|3:2,0:0:0:0:
355,315,122105,1,2,0:0:0:0:
355,315,122290,2,0,P|290:323|223:350,1,121.000003692627,2|2,3:2|3:2,0:0:0:0:
116,344,123031,2,0,B|113:271|137:305|135:219,1,121.000003692627,6|2,3:2|3:2,0:0:0:0:
102,182,123586,1,2,0:0:0:0:
102,182,123771,2,0,L|12:175,2,90.7500027694703,2|2|10,3:2|0:0|0:0,0:0:0:0:
135,131,124512,6,0,P|182:88|244:98,1,121.000003692627,14|2,3:2|3:2,0:0:0:0:
295,72,125068,1,2,0:0:0:0:
295,72,125253,2,0,P|342:115|404:105,1,121.000003692627,6|2,3:2|3:2,0:0:0:0:
485,191,125994,2,0,L|478:257,1,60.5000018463135,6|2,3:2|0:0,0:0:0:0:
470,311,126364,2,0,L|404:304,1,60.5000018463135,6|2,3:2|0:0,0:0:0:0:
349,298,126734,1,6,3:2:0:0:
254,373,127105,1,6,3:2:0:0:
183,274,127475,6,0,P|168:210|202:149,1,121.000003692627,14|14,3:2|3:2,0:0:0:0:
252,165,128031,1,10,0:0:0:0:
252,165,128216,2,0,L|240:38,1,121.000003692627,14|14,3:2|3:2,0:0:0:0:
126,5,128957,1,14,3:2:0:0:
17,59,129327,2,0,L|11:119,1,60.5000018463135,14|10,3:2|0:0,0:0:0:0:
53,162,129697,1,14,3:2:0:0:
6,273,130068,1,14,3:2:0:0:
110,333,130438,6,0,L|170:327,1,60.5000018463135,6|10,3:2|0:0,0:0:0:0:
230,323,130808,2,0,L|224:262,1,60.5000018463135,6|10,3:2|0:0,0:0:0:0:
214,202,131179,2,0,L|219:141,1,60.5000018463135,6|10,3:2|0:0,0:0:0:0:
227,81,131549,2,0,L|287:86,1,60.5000018463135,6|10,3:2|0:0,0:0:0:0:
347,93,131920,1,6,0:0:0:0:
256,192,132105,12,10,134142,3:2:0:0:
256,192,134883,5,4,0:0:0:0:
