osu file format v14

[General]
AudioFilename: audio.mp3
AudioLeadIn: 0
PreviewTime: 26734
Countdown: 0
SampleSet: Soft
StackLeniency: 0.3
Mode: 0
LetterboxInBreaks: 0
WidescreenStoryboard: 1

[Editor]
DistanceSpacing: 0.1
BeatDivisor: 4
GridSize: 32
TimelineZoom: 2.1

[Metadata]
Title:World's End Valentine
TitleUnicode:World's End Valentine
Artist:Pedro Silva
ArtistUnicode:Pedro Silva
Creator:Fall
Version:Sweet Jelly-Filled Donut
Source:OMORI
Tags:video game videogame ost soundtrack original electronic instrumental boss fight sweetheart kel aubrey hero omori sunny mari basil chiptune _tranquility hooni wither wanpachi cycopton omocat 086 86 vgm
BeatmapID:2911827
BeatmapSetID:1412590

[Difficulty]
HPDrainRate:5.2
CircleSize:4.2
OverallDifficulty:8.4
ApproachRate:9.2
SliderMultiplier:2
SliderTickRate:1

[Events]
//Background and Video events
0,0,"mari best girl.jpg",0,0
//Break Periods
2,80268,84498
2,103971,109127
//Storyboard Layer 0 (Background)
//Storyboard Layer 1 (Fail)
//Storyboard Layer 2 (Pass)
//Storyboard Layer 3 (Foreground)
//Storyboard Layer 4 (Overlay)
//Storyboard Sound Samples

[TimingPoints]
246,400,4,2,0,60,1,0
17846,370.37037037037,4,2,1,60,1,0
17846,-90.9090909090909,4,2,1,60,0,0
18586,-133.333333333333,4,2,1,60,0,0
19142,-83.3333333333333,4,2,1,60,0,0
19327,-133.333333333333,4,2,1,60,0,0
20808,-66.6666666666667,4,2,2,69,0,0
25253,-66.6666666666667,4,2,2,75,0,0
25994,-50,4,2,2,75,0,0
26920,-50,4,2,3,45,0,0
29697,-66.6666666666667,4,2,1,85,0,0
30068,-100,4,2,1,85,0,0
30160,-100,4,2,2,85,0,0
30438,-66.6666666666667,4,2,2,85,0,0
30531,-66.6666666666667,4,2,1,85,0,0
30808,-50,4,2,1,85,0,0
30901,-50,4,2,3,85,0,0
30994,-100,4,2,3,85,0,0
31179,-66.6666666666667,4,2,3,85,0,0
31271,-66.6666666666667,4,2,1,85,0,0
31549,-100,4,2,1,85,0,0
31642,-100,4,2,2,85,0,0
31920,-66.6666666666667,4,2,2,85,0,0
32012,-66.6666666666667,4,2,1,85,0,0
32290,-50,4,2,1,85,0,0
32383,-50,4,2,3,85,0,0
32475,-100,4,2,3,85,0,0
32660,-66.6666666666667,4,2,3,85,0,0
32753,-66.6666666666667,4,2,1,85,0,0
33123,-66.6666666666667,4,2,2,85,0,0
33494,-66.6666666666667,4,2,1,85,0,0
33771,-50,4,2,1,85,0,0
33864,-50,4,2,3,85,0,0
33957,-100,4,2,3,85,0,0
34142,-50,4,2,3,85,0,0
34234,-50,4,2,1,85,0,0
34512,-66.6666666666667,4,2,1,85,0,0
34605,-66.6666666666667,4,2,3,85,0,0
34883,-100,4,2,3,85,0,0
34975,-100,4,2,1,85,0,0
35253,-133.333333333333,4,2,1,85,0,0
35345,-133.333333333333,4,2,2,85,0,0
35577,-133.333333333333,4,2,2,85,0,0
35582,-133.333333333333,4,2,2,85,0,0
35623,-66.6666666666667,4,2,2,85,0,0
35716,-66.6666666666667,4,2,1,85,0,0
35994,-66.6666666666667,4,2,1,85,0,0
36086,-100,4,2,3,85,0,0
36364,-66.6666666666667,4,2,3,85,0,0
36457,-66.6666666666667,4,2,1,85,0,0
36734,-50,4,2,1,85,0,0
36827,-50,4,2,2,85,0,0
36920,-100,4,2,2,85,0,0
37105,-66.6666666666667,4,2,2,85,0,0
37197,-66.6666666666667,4,2,1,85,0,0
37475,-45.4545454545455,4,2,1,85,0,0
37568,-45.4545454545455,4,2,3,85,0,0
37660,-66.6666666666667,4,2,3,85,0,0
37938,-66.6666666666667,4,2,1,85,0,0
38309,-66.6666666666667,4,2,2,85,0,0
38580,-54.054054054054,4,2,2,85,0,0
38679,-54.054054054054,4,2,1,85,0,0
38957,-66.6666666666667,4,2,1,85,0,0
39049,-66.6666666666667,4,2,3,85,0,0
39327,-60.6060606060606,4,2,3,85,0,0
39420,-60.6060606060606,4,2,1,85,0,0
39790,-60.6060606060606,4,2,2,85,0,0
41549,-52.6315789473684,4,2,1,85,0,0
41918,-90.9090909090909,4,2,1,85,0,0
42012,-90.9090909090909,4,2,2,85,0,0
42290,-62.5,4,2,2,85,0,0
42383,-62.5,4,2,1,85,0,0
42753,-62.5,4,2,3,85,0,0
43031,-55.5555555555556,4,2,3,85,0,0
43123,-55.5555555555556,4,2,1,85,0,0
43401,-100,4,2,1,85,0,0
43494,-100,4,2,2,85,0,0
43771,-64.5161290322581,4,2,2,85,0,0
43864,-64.5161290322581,4,2,1,85,0,0
44142,-100,4,2,1,85,0,0
44235,-50,4,2,3,85,0,0
44327,-100,4,2,3,85,0,0
44512,-50,4,2,3,85,0,0
44605,-50,4,2,1,85,0,0
44883,-100,4,2,1,85,0,0
44975,-100,4,2,2,85,0,0
45253,-58.8235294117647,4,2,2,85,0,0
45346,-58.8235294117647,4,2,1,85,0,0
45562,-58.8235294117647,4,2,1,85,0,0
45716,-58.8235294117647,4,2,3,85,0,0
45808,-58.8235294117647,4,2,3,85,0,0
45901,-58.8235294117647,4,2,3,85,0,0
45994,-64.5161290322581,4,2,3,85,0,0
46086,-64.5161290322581,4,2,1,85,0,0
46364,-100,4,2,1,85,0,0
46457,-100,4,2,3,85,0,0
46734,-71.4285714285714,4,2,3,85,0,0
46827,-71.4285714285714,4,2,1,85,0,0
47105,-66.6666666666667,4,2,1,85,0,0
47197,-50,4,2,2,85,0,0
47290,-66.6666666666667,4,2,2,85,0,0
47475,-55.5555555555556,4,2,2,85,0,0
47568,-55.5555555555556,4,2,1,85,0,0
47845,-66.6666666666667,4,2,1,85,0,0
47938,-66.6666666666667,4,2,3,85,0,0
48216,-83.3333333333333,4,2,3,85,0,0
48309,-83.3333333333333,4,2,1,85,0,0
48586,-100,4,2,1,85,0,0
48679,-100,4,2,2,85,0,0
48957,-74.0740740740741,4,2,2,85,0,0
49049,-74.0740740740741,4,2,1,85,0,0
49327,-62.5,4,2,1,85,0,0
49420,-62.5,4,2,3,85,0,0
49697,-55.5555555555556,4,2,3,85,0,0
49790,-55.5555555555556,4,2,1,85,0,0
50068,-58.8235294117647,4,2,1,85,0,0
50161,-58.8235294117647,4,2,2,85,0,0
50438,-54.054054054054,4,2,2,85,0,0
50531,-54.054054054054,4,2,1,85,0,0
51734,-54.054054054054,4,2,2,85,0,0
51920,-54.054054054054,4,2,1,85,0,0
52290,-66.6666666666667,4,2,1,85,0,0
52660,-83.3333333333333,4,2,1,85,0,0
53031,-100,4,2,1,85,0,0
53401,-50,4,2,4,80,0,0
53771,-55.5555555555556,4,2,4,80,0,0
54142,-50,4,2,4,80,0,0
54605,-133.333333333333,4,2,4,80,0,0
55253,-50,4,2,4,80,0,0
55438,-55.5555555555556,4,2,4,80,0,0
55623,-50,4,2,4,80,0,0
56086,-133.333333333333,4,2,4,80,0,0
56364,-66.6666666666667,4,2,4,80,0,0
56503,-66.6666666666667,4,2,4,5,0,0
56549,-58.8235294117647,4,2,4,80,0,0
56688,-66.6666666666667,4,2,4,5,0,0
56734,-50,4,2,4,80,0,0
56873,-66.6666666666667,4,2,4,5,0,0
56920,-58.8235294117647,4,2,4,80,0,0
57845,-66.6666666666667,4,2,4,80,0,0
58031,-58.8235294117647,4,2,4,80,0,0
58216,-53.475935828877,4,2,4,80,0,0
58401,-50,4,2,4,80,0,0
58910,-66.6666666666667,4,2,4,5,0,0
58957,-50,4,2,4,80,0,0
59095,-66.6666666666667,4,2,4,5,0,0
59142,-50,4,2,4,80,0,0
59883,-66.6666666666667,4,2,4,80,0,0
60160,-50,4,2,4,80,0,0
62845,-66.6666666666667,4,2,4,80,0,0
63401,-44.4444444444445,4,2,4,80,0,0
63586,-50,4,2,4,80,0,0
63771,-100,4,2,4,80,0,0
64142,-66.6666666666667,4,2,4,80,0,0
64512,-50,4,2,4,80,0,0
65253,-76.9230769230769,4,2,4,80,0,0
65623,-133.333333333333,4,2,4,80,0,0
65994,-100,4,2,4,80,0,0
66179,-83.3333333333333,4,2,4,80,0,0
66364,-66.6666666666667,4,2,4,80,0,0
66734,-50,4,2,2,92,0,0
67197,-50,4,2,2,5,0,0
67290,-50,4,2,2,92,0,0
67475,-66.6666666666667,4,2,2,92,0,0
67614,-66.6666666666667,4,2,2,5,0,0
67660,-66.6666666666667,4,2,2,92,0,0
67984,-66.6666666666667,4,2,2,5,0,0
68031,-200,4,2,2,92,0,0
68216,-200,4,2,1,65,0,0
70438,-200,4,2,5,65,0,0
70623,-200,4,2,1,65,0,0
70808,-200,4,2,5,65,0,0
70994,-200,4,2,1,65,0,0
71179,-200,4,2,5,65,0,0
71271,-200,4,2,1,65,0,0
72660,-200,4,2,5,65,0,0
74142,-200,4,2,1,65,0,0
77105,-133.333333333333,4,2,5,65,0,0
77660,-133.333333333333,4,2,5,5,0,0
77845,-133.333333333333,4,2,5,65,0,0
78400,-133.333333333333,4,2,5,5,0,0
78586,-133.333333333333,4,2,5,65,0,0
78771,-133.333333333333,4,2,5,5,0,0
78957,-133.333333333333,4,2,5,65,0,0
79142,-133.333333333333,4,2,5,5,0,0
79327,-133.333333333333,4,2,5,65,0,0
85068,-133.333333333333,4,2,1,70,0,0
85253,-100,4,2,1,70,0,0
85994,-81.3008130081301,4,2,2,65,0,0
86271,-81.3008130081301,4,2,2,5,0,0
86364,-81.3008130081301,4,2,2,65,0,0
86641,-81.3008130081301,4,2,2,5,0,0
86734,-81.3008130081301,4,2,2,65,0,0
87011,-81.3008130081301,4,2,2,5,0,0
87105,-81.3008130081301,4,2,2,65,0,0
87382,-81.3008130081301,4,2,2,5,0,0
87475,-81.3008130081301,4,2,2,65,0,0
90068,-100,4,2,2,65,0,0
90994,-53.763440860215,4,2,2,65,0,0
91133,-53.763440860215,4,2,2,5,0,0
91179,-53.763440860215,4,2,2,65,0,0
91364,-80,4,2,2,65,0,0
91920,-64.5161290322581,4,2,2,65,0,0
93031,-55.5555555555556,4,2,2,65,0,0
93771,-66.6666666666667,4,2,2,65,0,0
94142,-55.5555555555556,4,2,2,65,0,0
95253,-66.6666666666667,4,2,2,65,0,0
95623,-81.3008130081301,4,2,2,65,0,0
95994,-55.5555555555556,4,2,2,65,0,0
96549,-66.6666666666667,4,2,2,65,0,0
97105,-55.5555555555556,4,2,2,65,0,0
97845,-100,4,2,2,72,0,0
98216,-66.6666666666667,4,2,2,72,0,0
98771,-83.3333333333333,4,2,2,72,0,0
98957,-100,4,2,2,72,0,0
99697,-83.3333333333333,4,2,2,72,0,0
99883,-66.6666666666667,4,2,2,72,0,0
100068,-55.5555555555556,4,2,2,72,0,0
100253,-66.6666666666667,4,2,2,72,0,0
100438,-83.3333333333333,4,2,2,72,0,0
100808,-83.3333333333333,4,2,1,80,0,0
101734,-66.6666666666667,4,2,1,85,0,0
102012,-66.6666666666667,4,2,2,85,0,0
102105,-50,4,2,1,85,0,0
102290,-50,4,2,2,85,0,0
102383,-50,4,2,1,85,0,0
102660,-43.4782608695652,4,2,1,85,0,0
103031,-40,4,2,1,85,0,0
103401,-36.3636363636364,4,2,1,85,0,0
103771,-36.3636363636364,4,2,1,60,0,0
109697,-100,4,2,3,60,0,0
114142,-100,4,2,2,70,0,0
114327,-66.6666666666667,4,2,2,70,0,0
114512,-66.6666666666667,4,2,2,60,0,0
114697,-83.3333333333333,4,2,2,60,0,0
114883,-83.3333333333333,4,2,1,78,0,0
115068,-100,4,2,1,78,0,0
115623,-50,4,2,2,80,0,1
115994,-66.6666666666667,4,2,2,80,0,1
116364,-57.1428571428571,4,2,2,80,0,1
116549,-133.333333333333,4,2,2,80,0,1
116734,-100,4,2,2,80,0,1
116920,-200,4,2,2,80,0,1
117105,-66.6666666666667,4,2,2,80,0,1
117475,-50,4,2,2,80,0,1
118170,-50,4,2,2,5,0,1
118216,-66.6666666666667,4,2,2,80,0,1
118586,-50,4,2,2,80,0,1
119512,-100,4,2,2,80,0,1
119697,-66.6666666666667,4,2,2,80,0,1
119883,-133.333333333333,4,2,2,80,0,1
120068,-50,4,2,2,80,0,1
120438,-57.1428571428571,4,2,2,80,0,1
120808,-50,4,2,2,80,0,1
120994,-100,4,2,2,80,0,1
121179,-56.8181818181818,4,2,2,80,0,1
122105,-100,4,2,2,80,0,1
122290,-56.8181818181818,4,2,2,80,0,1
123401,-66.6666666666667,4,2,2,80,0,1
123957,-100,4,2,2,80,0,1
124512,-50,4,2,2,80,0,1
124697,-66.6666666666667,4,2,2,80,0,1
124883,-50,4,2,2,80,0,1
125253,-66.6666666666667,4,2,2,80,0,1
125623,-58.8235294117647,4,2,2,80,0,1
126179,-66.6666666666667,4,2,2,80,0,1
126549,-58.8235294117647,4,2,2,80,0,1
126920,-50,4,2,2,80,0,1
127290,-43.4782608695652,4,2,2,80,0,1
127475,-43.4782608695652,4,2,2,90,0,1
130438,-40,4,2,2,95,0,1
130808,-37.037037037037,4,2,2,95,0,1
131179,-33.3333333333333,4,2,2,95,0,1
131549,-30.3030303030303,4,2,2,95,0,1
131920,-30.3030303030303,4,2,3,70,0,0
134142,-30.3030303030303,4,2,1,100,0,0
134883,-25,4,2,6,100,0,0
134929,-133.333333333333,4,2,6,100,0,0
134975,-133.333333333333,4,2,6,5,0,0

[Colours]
Combo1 : 255,98,21
Combo2 : 0,0,255
Combo3 : 255,0,128
Combo4 : 103,103,103

[HitObjects]
91,138,17846,6,0,P|92:84|93:138,1,165.000005035401,0|2,3:2|0:0,0:0:0:0:
96,206,18216,5,2,0:0:0:0:
97,216,18308,1,2,0:0:0:0:
98,226,18401,1,2,0:0:0:0:
99,236,18494,1,2,0:0:0:0:
100,246,18586,6,0,L|105:306,3,37.5000014305115,2|2|2|2,0:0|0:0|0:0|0:0,0:0:0:0:
184,321,18957,2,0,L|189:261,1,37.5000014305115,2|2,0:0|0:0,0:0:0:0:
251,181,19142,6,0,L|256:244,1,59.9999981689454,2|2,3:0|0:0,0:0:0:0:
323,282,19327,6,0,L|383:277,3,37.5000014305115,2|2|2|2,3:0|0:0|0:0|0:0,0:0:0:0:
415,223,19697,2,0,L|475:228,3,37.5000014305115,2|2|2|2,0:0|0:0|0:0|0:0,0:0:0:0:
495,163,20068,5,2,0:0:0:0:
494,153,20160,1,2,0:0:0:0:
493,143,20253,1,2,0:0:0:0:
492,133,20346,1,2,0:0:0:0:
491,123,20438,6,0,L|487:85,3,37.5000014305115,2|2|2|2,0:0|0:0|0:0|0:0,0:0:0:0:
478,15,20808,6,0,B|446:9|446:9|431:14|431:14|385:7,1,75.0000028610231,2|2,3:2|0:0,0:0:0:0:
301,83,20994,2,0,B|333:77|333:77|348:82|348:82|374:78,1,75.0000028610231,2|2,0:0|0:0,0:0:0:0:
257,23,21179,6,0,B|225:17|225:17|210:22|210:22|164:15,3,75.0000028610231,2|2|2|2,0:0|0:0|0:0|0:0,0:0:0:0:
110,13,21549,6,0,B|104:45|104:45|109:60|109:60|102:105,1,75.0000028610231,2|2,3:2|0:0,0:0:0:0:
178,190,21735,2,0,B|172:158|172:158|177:143|177:143|173:116,1,75.0000028610231,2|2,0:0|0:0,0:0:0:0:
118,234,21920,6,0,B|112:266|112:266|117:281|117:281|110:326,3,75.0000028610231,2|2|2|2,0:0|0:0|0:0|0:0,0:0:0:0:
70,368,22290,6,0,B|104:386|104:386|157:372,1,75.0000028610231,2|2,3:2|0:0,0:0:0:0:
256,327,22475,2,0,B|222:309|222:309|169:323,1,75.0000028610231,2|2,0:0|0:0,0:0:0:0:
320,370,22660,6,0,B|338:336|338:336|324:283,3,75.0000028610231,2|2|2|2,0:0|0:0|0:0|0:0,0:0:0:0:
392,260,23031,6,0,B|374:226|374:226|388:173,1,75.0000028610231,2|2,3:2|0:0,0:0:0:0:
433,74,23216,2,0,B|451:108|451:108|437:161,1,75.0000028610231,2|2,0:0|0:0,0:0:0:0:
390,10,23401,6,0,B|424:-8|424:-8|477:6,3,75.0000028610231,2|2|2|2,0:0|0:0|0:0|0:0,0:0:0:0:
358,79,23771,5,2,3:2:0:0:
342,80,23864,1,2,0:0:0:0:
327,82,23957,1,2,0:0:0:0:
312,85,24049,1,2,0:0:0:0:
297,87,24142,6,0,B|265:93|265:93|250:88|250:88|223:91,1,75.0000028610231,2|2,3:2|0:0,0:0:0:0:
159,167,24327,2,0,B|186:164|186:164|201:169|201:169|233:163,1,75.0000028610231,2|2,0:0|0:0,0:0:0:0:
309,162,24512,5,2,3:2:0:0:
325,163,24605,1,2,0:0:0:0:
340,165,24698,1,2,0:0:0:0:
355,168,24790,1,2,0:0:0:0:
370,170,24883,6,0,B|402:176|402:176|417:171|417:171|444:174,1,75.0000028610231,2|2,3:2|0:0,0:0:0:0:
508,250,25068,2,0,B|481:247|481:247|466:252|466:252|434:246,1,75.0000028610231,2|2,0:0|0:0,0:0:0:0:
356,248,25253,5,2,3:2:0:0:
340,249,25346,1,2,0:0:0:0:
325,251,25439,1,2,0:2:0:0:
310,254,25531,1,2,0:0:0:0:
295,256,25624,6,0,B|263:262|263:262|248:257|248:257|221:260,1,75.0000028610231,2|2,3:2|0:0,0:0:0:0:
157,336,25809,2,0,B|184:333|184:333|199:338|199:338|231:332,1,75.0000028610231,2|2,0:2|0:0,0:0:0:0:
146,265,25994,6,0,P|157:217|204:189,1,100,2|2,3:2|0:0,0:0:0:0:
193,114,26179,2,0,P|234:87|287:101,1,100,2|2,3:2|0:0,0:0:0:0:
364,62,26364,2,0,P|412:72|440:120,1,100,2|2,3:2|0:0,0:0:0:0:
497,191,26549,2,0,P|523:232|509:285,1,100,2|2,3:2|0:0,0:0:0:0:
443,375,26734,5,6,0:2:0:0:
256,192,26827,12,2,28957,3:2:0:0:
55,105,29327,5,2,3:2:0:0:
55,105,29697,6,0,B|84:81|84:81|115:117,3,75.0000028610231,4|2|2|2,3:2|0:0|0:0|0:0,0:0:0:0:
2,201,30068,1,0,3:2:0:0:
9,213,30160,2,0,L|4:265,2,50,2|2|2,0:0|0:0|0:0,0:0:0:0:
143,179,30438,5,6,3:2:0:0:
173,152,30531,1,2,0:0:0:0:
219,136,30623,1,2,0:0:0:0:
264,106,30716,1,2,0:0:0:0:
277,38,30808,5,2,3:2:0:0:
264,106,30901,1,2,0:0:0:0:
295,140,30994,1,2,0:0:0:0:
344,159,31086,1,2,0:0:0:0:
385,146,31179,6,0,B|378:121|378:121|390:107|390:107|398:128|398:128|391:137,3,75.0000028610231,4|2|2|2,3:2|0:0|0:0|0:0,0:0:0:0:
427,37,31549,1,0,3:2:0:0:
447,26,31642,2,0,L|500:30,2,50,2|2|2,0:0|0:0|0:0,0:0:0:0:
405,157,31920,5,6,3:2:0:0:
383,189,32012,1,2,0:0:0:0:
387,226,32105,1,2,0:0:0:0:
423,258,32197,1,2,0:0:0:0:
463,312,32290,5,2,3:2:0:0:
423,258,32383,1,2,0:0:0:0:
369,259,32475,1,2,0:0:0:0:
333,278,32568,1,2,0:0:0:0:
321,309,32660,6,0,B|303:294|303:294|246:312,3,75.0000028610231,4|2|2|2,3:2|0:0|0:0|0:0,0:0:0:0:
151,365,33031,1,0,3:2:0:0:
139,352,33123,2,0,L|146:263,2,75.0000028610231,2|2|2,0:0|0:0|0:0,0:0:0:0:
59,204,33401,5,6,3:2:0:0:
17,166,33494,1,2,0:0:0:0:
14,109,33586,1,2,0:0:0:0:
53,70,33679,1,2,0:0:0:0:
89,13,33771,5,2,3:2:0:0:
53,70,33864,1,2,0:0:0:0:
87,117,33957,1,2,0:0:0:0:
132,123,34049,1,2,0:0:0:0:
160,117,34142,6,0,B|190:103|190:103|223:45,1,100,4|2,3:2|0:0,0:0:0:0:
401,189,34327,2,0,B|371:175|371:175|338:117,1,100,2|2,0:2|0:0,0:0:0:0:
102,48,34512,6,0,B|105:31|90:13|90:13|105:30|134:32,1,75.0000028610231,6|2,3:2|0:0,0:0:0:0:
437,119,34697,2,0,B|434:102|449:84|449:84|434:101|405:103,1,75.0000028610231,2|2,0:0|0:0,0:0:0:0:
283,224,34883,6,0,B|283:242|283:242|294:242|294:242|294:223,1,50,6|2,3:2|0:0,0:0:0:0:
155,150,35068,2,0,B|155:131|155:131|143:131|143:131|143:150,1,50,2|2,0:0|0:0,0:0:0:0:
103,261,35253,5,4,3:2:0:0:
100,275,35345,1,2,0:0:0:0:
96,289,35438,1,2,0:0:0:0:
93,303,35531,1,2,0:0:0:0:
118,333,35623,6,0,P|105:356|110:330,3,75.0000028610231,4|2|2|2,3:2|0:0|0:0|0:0,0:0:0:0:
190,279,35994,5,2,3:2:0:0:
248,245,36086,1,2,0:0:0:0:
290,265,36179,1,2,0:0:0:0:
327,242,36271,1,2,0:0:0:0:
385,190,36364,6,0,L|391:110,2,75.0000028610231,4|2|2,3:2|0:0|0:0,0:0:0:0:
432,265,36642,1,2,0:0:0:0:
432,265,36734,6,0,B|443:303|443:303|434:319|434:319|446:363,3,100,0|2|2|2,3:2|0:0|0:0|0:0,0:0:0:0:
459,84,37105,6,0,B|455:46|455:46|408:50,3,75.0000028610231,4|2|2|2,3:2|0:0|0:0|0:0,0:0:0:0:
385,190,37475,5,2,3:2:0:0:
317,182,37568,1,2,0:0:0:0:
294,139,37660,1,2,0:0:0:0:
308,105,37753,1,2,0:0:0:0:
333,89,37845,6,0,P|321:70|253:27,2,75.0000028610231,4|2|2,3:2|0:0|0:0,0:0:0:0:
317,182,38123,1,2,0:0:0:0:
317,182,38216,2,0,P|305:201|237:244,1,75.0000028610231,0|2,3:2|0:0,0:0:0:0:
177,179,38401,5,2,0:0:0:0:
167,186,38463,5,2,0:0:0:0:
155,190,38525,5,2,0:0:0:0:
140,188,38586,6,0,B|135:144|113:126|113:126|129:105|127:54|127:54|135:98|156:125|156:125|141:149|145:190,1,277.499998941422,4|2,3:2|0:0,0:0:0:0:
264,234,38957,5,0,3:2:0:0:
269,287,39049,1,2,0:0:0:0:
231,326,39142,1,2,0:0:0:0:
194,332,39234,1,2,0:0:0:0:
241,371,39327,6,0,B|187:347|187:347|267:330|267:330|273:317|273:317|374:294,1,247.500002360344,4|0,3:2|0:0,0:0:0:0:
465,264,39697,5,2,3:2:0:0:
456,300,39790,1,2,0:0:0:0:
464,322,39883,1,2,0:0:0:0:
479,333,39975,1,2,0:0:0:0:
492,323,40068,5,6,3:2:0:0:
454,243,40253,5,2,0:0:0:0:
356,209,40438,5,2,0:0:0:0:
284,245,40623,5,2,0:0:0:0:
175,290,40808,5,2,0:0:0:0:
66,256,40994,5,2,0:0:0:0:
13,127,41179,5,2,0:0:0:0:
96,4,41364,5,2,0:0:0:0:
330,82,41549,6,0,B|271:140|209:102|209:102|224:72|275:82,1,189.999994926453,4|0,3:2|0:0,0:0:0:0:
366,150,41827,1,2,0:0:0:0:
351,172,41920,2,0,L|357:241,3,55.0000016784668,0|2|2|2,3:2|0:0|0:0|0:0,0:0:0:0:
241,274,42290,6,0,P|290:254|373:317,1,160,4|0,3:2|0:0,0:0:0:0:
480,354,42568,1,2,0:0:0:0:
480,354,42660,2,0,P|449:272|463:194,1,160,4|0,3:2|0:0,0:0:0:0:
496,133,42938,1,2,0:0:0:0:
496,133,43031,6,0,B|422:141|461:88|361:105|361:105|373:147,1,179.999994506836,4|0,3:2|0:0,0:0:0:0:
286,91,43308,1,2,0:0:0:0:
269,76,43401,2,0,L|274:18,3,50,0|2|2|2,3:2|0:0|0:0|0:0,0:0:0:0:
224,152,43771,6,0,B|241:166|264:169|264:169|213:175|213:175|201:181|201:181|156:186,1,155.000001182556,4|0,3:2|0:0,0:0:0:0:
84,148,44049,1,2,0:0:0:0:
105,127,44142,2,0,L|99:69,3,50,0|2|2|2,3:2|0:0|0:0|0:0,0:0:0:0:
88,239,44512,6,0,B|79:258|58:269|58:269|83:288|92:313|92:313|104:291|128:276|128:276|104:258|97:238,1,200,4|0,3:2|0:0,0:0:0:0:
161,340,44790,1,2,0:0:0:0:
178,355,44883,2,0,L|235:349,3,50,0|2|2|2,3:2|0:0|0:0|0:0,0:0:0:0:
286,298,45253,6,0,P|376:315|458:288,1,170.000003242493,0|0,3:2|0:0,0:0:0:0:
399,156,45531,1,2,0:0:0:0:
399,156,45623,6,0,P|392:193|422:229,1,85.0000016212464,4|2,3:2|0:0,0:0:0:0:
441,297,45808,2,0,P|462:328|508:332,1,85.0000016212464,6|2,0:0|0:0,0:0:0:0:
462,90,45994,6,0,B|399:98|399:98|365:101|357:134|373:161|407:154,1,155.000001182556,4|0,3:2|0:0,0:0:0:0:
337,45,46271,1,2,0:0:0:0:
325,26,46364,2,0,L|267:20,3,50,0|2|2|2,3:2|0:0|0:0|0:0,0:0:0:0:
281,126,46734,6,0,B|275:185|275:185|282:209|282:209|277:267,1,139.999995727539,4|0,3:2|0:0,0:0:0:0:
206,302,47012,1,2,0:0:0:0:
177,331,47105,5,0,3:2:0:0:
131,320,47197,1,2,0:0:0:0:
90,308,47290,1,2,0:0:0:0:
70,323,47383,1,2,0:0:0:0:
44,248,47475,6,0,B|127:248|134:314|134:314|154:322|154:322|187:387|258:363,1,269.999991760254,4|2,3:2|0:0,0:0:0:0:
435,257,47845,6,0,B|341:267|390:200|264:221|264:221|279:274,1,225.000008583069,4|2,3:2|0:0,0:0:0:0:
419,180,48216,6,0,B|425:125|425:125|432:111|432:111|439:49|439:49|443:77|459:98,1,179.999994506836,4|2,3:2|0:0,0:0:0:0:
367,34,48586,6,0,B|361:79|361:79|355:91|355:91|349:142|349:142|346:119|332:102,1,150,4|2,3:2|0:0,0:0:0:0:
150,55,48957,6,0,P|214:-1|215:81,1,202.500000772476,4|2,3:2|0:0,0:0:0:0:
27,154,49327,6,0,B|93:121|152:146|152:146|176:204|250:184,1,240,4|2,3:2|0:0,0:0:0:0:
377,303,49697,6,0,B|388:194|311:251|336:105|336:105|397:123,1,269.999991760254,4|2,3:2|0:0,0:0:0:0:
469,85,50068,6,0,L|525:95,6,42.5000008106232,4|0|0|0|2|0|0,3:2|0:0|0:0|0:0|0:0|0:0|0:0,0:0:0:0:
391,133,50438,6,0,P|378:186|433:197,1,92.4999996471405,4|0,3:2|0:0,0:0:0:0:
388,276,50623,5,2,0:0:0:0:
388,276,50716,1,2,0:0:0:0:
388,276,50808,2,0,P|341:304|340:342,1,92.4999996471405,6|0,3:2|0:0,0:0:0:0:
276,369,50994,5,2,0:0:0:0:
276,369,51087,1,2,0:0:0:0:
276,369,51179,2,0,P|223:356|190:373,1,92.4999996471405,4|0,3:2|0:0,0:0:0:0:
122,337,51364,5,2,0:0:0:0:
123,327,51457,1,2,0:0:0:0:
124,318,51549,2,0,L|132:220,1,92.4999996471405,0|0,3:2|0:0,0:0:0:0:
112,125,51734,5,2,0:0:0:0:
102,141,51796,5,2,0:0:0:0:
84,151,51858,5,2,0:0:0:0:
53,152,51920,6,0,P|61:98|174:90,1,184.999999294281,6|0,3:2|0:0,0:0:0:0:
258,50,52197,1,2,0:0:0:0:
258,50,52290,2,0,P|325:106|330:180,1,150.000005722046,6|0,3:2|0:0,0:0:0:0:
371,235,52568,1,2,0:0:0:0:
371,235,52660,2,0,P|355:299|291:356,1,119.999996337891,6|0,3:2|0:0,0:0:0:0:
248,279,52938,1,2,0:0:0:0:
247,269,53031,6,0,P|274:225|258:275,1,150,6|0,3:2|0:0,0:0:0:0:
333,164,53401,6,0,P|357:110|347:51,1,100,6|0,3:2|0:0,0:0:0:0:
215,12,53586,2,0,P|237:67|286:101,1,100,2|0,0:0|0:0,0:0:0:0:
503,36,53771,5,2,3:2:0:0:
450,20,53863,1,2,0:0:0:0:
395,32,53956,1,2,0:0:0:0:
355,70,54048,1,2,0:0:0:0:
354,124,54142,6,0,B|333:148|301:155|301:155|347:172|373:154|373:154|391:162|391:162|414:172|439:161,1,200,2|2,3:2|0:0,0:0:0:0:
459,161,54420,1,2,0:0:0:0:
143,53,54605,6,0,L|148:111,2,37.5000014305115,2|2|2,0:0|0:0|0:0,0:0:0:0:
85,141,54883,5,2,3:2:0:0:
82,190,54975,1,2,0:0:0:0:
80,240,55068,1,2,0:0:0:0:
78,290,55160,1,2,0:0:0:0:
77,339,55253,6,0,B|119:335|119:335|132:329|132:329|175:325,1,100,2|2,3:2|0:0,0:0:0:0:
311,244,55438,2,0,B|271:247|271:247|259:252|259:252|220:255,1,89.9999972534181,2|2,0:0|0:0,0:0:0:0:
409,324,55623,6,0,B|375:325|357:359|357:359|388:365|429:353|429:353|456:340|495:356,1,200,2|2,3:2|0:0,0:0:0:0:
512,364,55901,1,2,0:0:0:0:
503,132,56086,6,0,L|507:93,2,37.5000014305115,2|2|2,0:0|0:0|0:0,0:0:0:0:
441,35,56364,6,0,L|427:170,1,112.500004291535,2|0,3:2|0:0,0:0:0:0:
356,163,56549,6,0,L|370:25,1,127.50000243187,2|0,0:0|0:0,0:0:0:0:
298,33,56734,6,0,L|282:182,1,150,2|0,3:2|0:0,0:0:0:0:
269,253,56920,6,0,P|218:222|219:164,1,85.0000016212464,2|2,0:0|0:0,0:0:0:0:
62,45,57105,5,2,3:2:0:0:
114,72,57197,1,2,0:0:0:0:
145,122,57290,1,2,0:0:0:0:
146,181,57382,1,2,0:0:0:0:
118,233,57475,6,0,P|94:129|118:65,1,170.000003242493,2|2,3:2|0:0,0:0:0:0:
170,21,57753,1,2,0:0:0:0:
170,21,57845,6,0,B|204:24|204:24|215:28|215:28|251:32,1,75.0000028610231,2|2,3:2|0:0,0:0:0:0:
357,111,58031,2,0,B|324:108|324:108|311:102|311:102|269:98,1,85.0000016212464,2|2,0:0|0:0,0:0:0:0:
420,68,58216,6,0,P|436:125|389:176,1,93.4999981452942,2|2,3:2|0:0,0:0:0:0:
353,278,58401,2,0,P|337:231|355:185,1,100,2|2,0:0|0:0,0:0:0:0:
429,350,58586,5,2,3:2:0:0:
429,350,58679,1,2,0:0:0:0:
429,350,58771,6,0,B|369:386|321:347|321:347|344:356|366:347,1,150,2|0,0:0|0:0,0:0:0:0:
276,290,58957,6,0,B|213:294|213:294|196:304|196:304|126:309,1,150,2|0,3:2|0:0,0:0:0:0:
56,315,59142,5,2,0:0:0:0:
134,14,59327,5,2,3:2:0:0:
138,34,59420,1,2,0:0:0:0:
92,94,59512,5,2,0:0:0:0:
96,114,59605,1,2,0:0:0:0:
162,160,59697,6,0,B|205:156|205:156|220:159|220:159|267:155,1,100,2|2,3:2|0:0,0:0:0:0:
335,151,59883,1,2,0:0:0:0:
335,151,59975,1,2,0:0:0:0:
487,23,60160,5,2,0:0:0:0:
490,72,60252,1,2,0:0:0:0:
492,122,60345,1,2,0:0:0:0:
495,171,60438,6,0,B|491:213|491:213|485:226|485:226|481:269,1,100,6|2,3:2|0:0,0:0:0:0:
403,257,60623,2,0,B|406:214|406:214|412:201|412:201|416:158,1,100,2|2,0:0|0:0,0:0:0:0:
361,88,60808,5,0,3:2:0:0:
341,91,60901,1,2,0:0:0:0:
282,164,60993,5,2,0:0:0:0:
262,168,61086,1,2,0:0:0:0:
156,66,61179,6,0,P|217:69|247:132,1,100,0|2,3:2|0:0,0:0:0:0:
200,221,61364,2,0,P|151:223|114:191,1,100,2|2,0:0|0:0,0:0:0:0:
15,2,61549,5,4,3:2:0:0:
18,51,61641,1,2,0:0:0:0:
20,101,61734,1,2,0:0:0:0:
22,151,61827,1,2,0:0:0:0:
24,201,61920,6,0,B|73:216|73:216|117:189,1,100,4|2,3:2|0:0,0:0:0:0:
241,95,62105,2,0,B|290:80|290:80|334:107,1,100,2|2,0:0|0:0,0:0:0:0:
415,166,62290,5,2,3:2:0:0:
411,186,62383,1,2,0:0:0:0:
457,246,62475,5,2,0:0:0:0:
453,266,62568,1,2,0:0:0:0:
389,318,62660,6,0,B|347:314|347:314|333:308|333:308|289:304,1,100,2|2,3:2|0:0,0:0:0:0:
217,293,62845,1,2,0:0:0:0:
217,293,62938,1,2,0:0:0:0:
27,350,63123,5,2,0:0:0:0:
65,314,63216,1,2,0:0:0:0:
81,264,63308,1,2,0:0:0:0:
77,211,63401,6,0,P|52:165|0:134,1,112.500004291535,6|2,3:2|0:0,0:0:0:0:
146,159,63586,2,0,P|190:132|215:88,1,100,2|2,0:0|0:0,0:0:0:0:
276,43,63771,6,0,B|295:36|295:36|225:43,3,50,0|2|2|2,3:2|0:0|0:0|0:0,0:0:0:0:
333,115,64142,6,0,B|314:108|314:108|384:115,3,75.0000028610231,0|2|2|2,3:2|0:0|0:0|0:0,0:0:0:0:
298,201,64512,6,0,B|318:193|318:193|241:201,3,100,0|2|2|2,3:2|0:0|0:0|0:0,0:0:0:0:
357,264,64883,6,0,P|334:303|367:377,1,100,0|2,3:2|0:0,0:0:0:0:
512,300,65068,2,0,P|497:253|456:226,1,100,2|2,0:0|0:0,0:0:0:0:
465,125,65253,5,0,3:2:0:0:
465,125,65315,1,2,0:0:0:0:
465,125,65376,1,2,0:0:0:0:
465,125,65438,2,0,L|506:69,1,64.9999970245363,2|2,0:0|0:0,0:0:0:0:
412,6,65623,5,0,3:2:0:0:
397,8,65716,1,2,0:0:0:0:
382,10,65808,2,0,L|317:19,1,37.5000014305115,2|2,0:0|0:0,0:0:0:0:
284,54,65994,6,0,P|293:79|291:123,1,50,0|2,3:2|0:0,0:0:0:0:
270,233,66179,2,0,P|269:203|279:175,1,59.9999981689454,2|2,0:0|0:0,0:0:0:0:
224,126,66364,6,0,B|192:128|192:128|182:133|182:133|149:135,1,75.0000028610231,0|0,3:2|0:0,0:0:0:0:
69,188,66549,1,2,0:0:0:0:
69,188,66642,1,2,0:0:0:0:
69,188,66734,6,0,B|123:226|123:226|47:345,1,200,6|0,0:0|3:0,0:0:0:0:
50,338,67012,2,0,B|-22:225|-22:225|32:187,1,200,2|0,0:0|0:0,0:0:0:0:
50,116,67290,1,2,3:2:0:0:
175,22,67475,6,0,B|198:14|226:25|226:25|232:33|232:33|255:43|290:33,1,112.500004291535,2|0,3:2|0:0,0:0:0:0:
350,18,67660,1,2,3:2:0:0:
347,264,67845,6,0,B|339:241|350:213|350:213|358:207|358:207|368:184|358:149,1,112.500004291535,2|0,3:2|0:0,0:0:0:0:
336,87,68030,1,2,0:0:0:0:
322,94,68123,1,2,0:0:0:0:
309,102,68216,5,2,3:2:0:0:
360,157,68401,1,2,0:0:0:0:
200,168,68586,5,2,3:2:0:0:
288,171,68771,1,2,0:0:0:0:
150,321,68957,5,2,3:2:0:0:
243,233,69142,1,2,0:0:0:0:
78,76,69327,5,2,3:2:0:0:
78,76,69512,1,2,0:0:0:0:
200,168,69697,5,2,3:2:0:0:
200,168,69882,1,2,0:0:0:0:
243,233,70068,5,2,3:2:0:0:
243,233,70253,1,2,0:0:0:0:
411,335,70438,6,0,L|481:345,1,50,2|2,3:2|0:0,0:0:0:0:
338,289,70808,2,0,L|268:299,1,50,2|2,3:2|0:0,0:0:0:0:
409,259,71179,5,2,3:2:0:0:
409,259,71549,1,0,3:2:0:0:
409,259,71920,1,0,3:2:0:0:
409,259,72290,1,0,3:2:0:0:
409,259,72660,1,2,3:2:0:0:
409,259,73030,1,2,3:2:0:0:
409,259,73401,1,2,3:2:0:0:
409,259,73771,1,2,3:2:0:0:
409,259,74142,5,2,3:2:0:0:
354,310,74327,1,2,0:0:0:0:
343,150,74512,5,2,3:2:0:0:
340,237,74697,1,2,0:0:0:0:
190,100,74883,5,2,3:2:0:0:
278,193,75068,1,2,0:0:0:0:
435,28,75253,5,2,3:2:0:0:
435,28,75438,1,2,0:0:0:0:
343,150,75623,5,2,3:2:0:0:
343,150,75808,1,2,0:0:0:0:
278,193,75994,5,2,3:2:0:0:
278,193,76179,1,2,0:0:0:0:
135,294,76364,6,0,L|109:359,1,50,2|2,3:2|0:0,0:0:0:0:
296,239,76734,2,0,L|270:173,1,50,2|2,3:2|0:0,0:0:0:0:
48,139,77105,6,0,B|36:115|-3:111|-3:111|35:83|88:104|98:155|184:130,1,225.000008583069,2|0,3:2|0:0,0:0:0:0:
277,192,77845,2,0,B|258:148|268:111|268:111|237:119|217:146|237:188|172:209,1,225.000008583069,2|0,3:2|0:0,0:0:0:0:
84,300,78586,6,0,P|125:279|160:283,1,75.0000028610231,2|0,3:2|0:0,0:0:0:0:
284,301,78957,2,0,P|240:286|218:259,1,75.0000028610231,2|0,3:2|0:0,0:0:0:0:
277,192,79327,5,2,3:2:0:0:
291,196,79512,1,2,0:0:0:0:
305,199,79697,1,2,3:2:0:0:
472,233,80068,5,4,0:0:0:0:
489,172,85068,5,8,0:0:0:0:
489,172,85160,1,8,0:0:0:0:
489,172,85253,6,0,B|487:150|487:150|483:145|483:145|481:117,1,50,10|10,0:2|0:2,0:0:0:0:
409,130,85438,2,0,B|410:151|410:151|413:158|413:158|415:179,1,50,10|10,0:2|0:2,0:0:0:0:
456,238,85623,5,10,0:2:0:0:
440,65,85808,1,2,3:2:0:0:
383,246,85994,6,0,B|326:246|320:293|320:293|306:299|306:299|284:344|235:326,1,184.500002815247,2|0,3:2|0:0,0:0:0:0:
170,285,86364,2,0,B|158:261|167:241|167:241|173:225|173:225|182:191|168:158|168:158|176:186|200:205,1,184.500002815247,2|0,3:2|0:0,0:0:0:0:
247,145,86734,6,0,B|310:187|369:155|369:155|331:170|317:156,1,184.500002815247,2|0,3:2|0:0,0:0:0:0:
197,87,87105,2,0,B|214:64|243:56|243:56|176:61|176:61|160:55|160:55|116:58,1,184.500002815247,2|0,3:2|0:0,0:0:0:0:
41,66,87475,5,2,3:2:0:0:
116,57,87660,1,2,0:0:0:0:
197,87,87845,1,2,3:2:0:0:
302,130,88031,5,2,0:0:0:0:
308,120,88123,2,0,L|306:83,2,30.7500004692078,2|2|2,0:0|0:0|3:2,0:0:0:0:
125,130,88494,5,2,0:0:0:0:
125,130,88586,1,2,3:2:0:0:
35,55,88771,5,2,0:0:0:0:
78,188,88957,6,0,P|115:208|186:164,1,123.000001876831,2|2,3:2|0:0,0:0:0:0:
413,111,89327,2,0,P|373:89|303:133,1,123.000001876831,2|2,3:2|0:0,0:0:0:0:
317,197,89605,1,2,0:0:0:0:
317,197,89697,6,0,L|322:262,1,61.5000009384155,2|0,3:2|0:0,0:0:0:0:
419,173,89883,2,0,L|413:111,1,61.5000009384155,2|0,0:0|0:0,0:0:0:0:
329,328,90068,6,0,L|334:393,1,50,2|0,3:2|0:0,0:0:0:0:
430,295,90254,2,0,L|424:233,1,50,2|0,0:0|0:0,0:0:0:0:
249,300,90438,5,2,3:2:0:0:
211,296,90530,1,2,0:0:0:0:
174,293,90623,1,2,0:0:0:0:
136,290,90715,1,2,0:0:0:0:
99,286,90808,5,2,3:2:0:0:
13,157,90994,6,0,B|71:164|71:164|93:158|93:158|156:166,1,139.500004363632,2|0,0:0|0:0,0:0:0:0:
222,174,91179,1,6,3:2:0:0:
197,47,91364,6,0,B|192:77|192:77|195:88|195:88|191:121,1,62.5,2|0,0:0|0:0,0:0:0:0:
285,179,91549,2,0,B|264:176|264:176|253:178|253:178|223:174,1,62.5,2|0,3:2|0:0,0:0:0:0:
174,293,91734,2,0,B|175:272|175:272|173:261|173:261|177:231,1,62.5,2|0,0:0|0:0,0:0:0:0:
300,102,91920,6,0,B|349:102|354:142|354:142|366:147|366:147|385:186|427:171,1,155.000001182556,6|2,3:2|0:0,0:0:0:0:
294,364,92290,2,0,B|244:364|239:323|239:323|227:318|227:318|208:279|166:294,1,155.000001182556,2|2,3:2|0:0,0:0:0:0:
160,299,92568,1,2,0:0:0:0:
152,314,92660,5,2,3:2:0:0:
53,131,92845,2,0,P|37:88|-2:57,1,77.5000005912781,2|0,0:0|0:0,0:0:0:0:
12,281,93031,6,0,B|-16:272|-28:242|-15:213|23:206|23:206|148:192,1,179.999994506836,2|2,3:2|0:0,0:0:0:0:
469,19,93586,5,2,0:0:0:0:
365,157,93771,2,0,P|348:210|370:259,1,75.0000028610231,2|0,3:2|0:0,0:0:0:0:
496,212,93957,2,0,L|420:205,1,75.0000028610231,2|0,0:0|0:0,0:0:0:0:
174,112,94142,6,0,B|264:16|264:16|354:235,1,359.999989013672,2|2,3:2|3:2,0:0:0:0:
16,352,95068,5,2,0:0:0:0:
157,257,95253,2,0,P|211:246|242:263,1,75.0000028610231,2|0,3:2|0:0,0:0:0:0:
312,292,95438,5,2,0:0:0:0:
313,264,95531,1,2,0:0:0:0:
314,237,95623,6,0,B|316:216|316:216|313:206|313:206|318:175,1,62.5,2|0,3:2|0:0,0:0:0:0:
407,57,95808,2,0,B|403:88|403:88|406:98|406:98|403:118,1,62.5,2|0,0:0|0:0,0:0:0:0:
170,91,95994,6,0,B|213:88|213:88|228:94|228:94|293:89|293:89|265:97|249:120,1,179.999994506836,2|2,3:2|0:0,0:0:0:0:
408,325,96549,5,2,0:0:0:0:
248,120,96734,2,0,P|231:156|223:203,1,75.0000028610231,2|0,3:2|0:0,0:0:0:0:
93,95,96920,2,0,P|84:58|68:24,1,75.0000028610231,2|0,0:0|0:0,0:0:0:0:
0,255,97105,6,0,B|-48:233|-45:169|15:133|69:141|120:169|157:246|171:323,1,359.999989013672,2|2,3:2|3:2,0:0:0:0:
473,53,97845,6,0,L|469:106,3,50,6|2|2|2,3:2|0:0|0:0|0:0,0:0:0:0:
397,204,98216,6,0,B|399:177|399:177|394:164|394:164|401:124,3,75.0000028610231,2|2|2|2,3:2|0:0|0:0|0:0,0:0:0:0:
318,191,98586,6,0,B|320:164|320:164|315:151|315:151|322:111,1,75.0000028610231,2|2,3:2|0:0,0:0:0:0:
241,111,98771,2,0,B|237:136|237:136|241:147|241:147|239:171,1,59.9999981689454,2|2,0:0|0:0,0:0:0:0:
162,152,98957,6,0,B|163:131|163:131|160:121|160:121|163:98,3,50,2|2|2|2,3:2|0:0|0:0|0:0,0:0:0:0:
83,68,99327,6,0,L|30:73,3,50,6|2|2|2,3:2|0:0|0:0|0:0,0:0:0:0:
162,152,99697,6,0,B|138:154|138:154|126:159|126:159|102:159,1,59.9999981689454,2|2,3:2|0:0,0:0:0:0:
24,255,99883,2,0,B|55:254|55:254|68:247|68:247|97:245,1,75.0000028610231,2|2,0:0|0:0,0:0:0:0:
199,335,100068,2,0,B|164:338|164:338|148:345|148:345|109:346,1,89.9999972534181,2|2,3:2|0:0,0:0:0:0:
24,255,100253,2,0,B|55:254|55:254|68:247|68:247|97:245,1,75.0000028610231,2|2,0:0|0:0,0:0:0:0:
162,152,100438,6,0,B|138:154|138:154|126:159|126:159|102:159,3,59.9999981689454,2|2|2|2,3:2|0:0|0:0|0:0,0:0:0:0:
240,187,100808,5,6,3:2:0:0:
249,246,100900,1,2,0:0:0:0:
258,305,100993,1,2,0:0:0:0:
267,364,101085,1,2,0:0:0:0:
299,325,101179,6,0,P|322:308|372:307,1,59.9999981689454,2|2,3:2|0:0,0:0:0:0:
403,244,101364,2,0,P|431:248|467:282,1,59.9999981689454,2|2,0:0|0:0,0:0:0:0:
512,205,101549,6,0,L|506:141,1,59.9999981689454,6|10,3:2|0:0,0:0:0:0:
421,23,101734,1,2,0:0:0:0:
421,23,101827,2,0,L|414:97,1,75.0000028610231,2|2,0:0|3:2,0:0:0:0:
328,229,102012,1,2,0:0:0:0:
328,229,102105,2,0,L|317:112,1,100,10|10,0:0|0:0,0:0:0:0:
257,30,102290,6,0,B|207:39|207:39|253:57,3,100,6|10|10|10,3:2|0:0|0:0|0:0,0:0:0:0:
140,114,102660,6,0,B|197:124|197:124|144:144,3,115.000002193451,2|10|10|10,3:2|0:0|0:0|0:0,0:0:0:0:
328,229,103031,6,0,B|270:206|270:206|333:195,3,125,6|10|10|10,3:2|0:0|0:0|0:0,0:0:0:0:
149,347,103401,6,0,B|213:321|213:321|143:309,3,137.500001311302,2|10|10|10,3:2|0:0|0:0|0:0,0:0:0:0:
286,316,103771,5,4,0:0:0:0:
463,40,109697,6,0,P|446:94|456:151,1,100,2|2,3:2|0:0,0:0:0:0:
309,5,110068,2,0,P|325:51|321:101,1,100,2|2,3:2|0:0,0:0:0:0:
140,157,110438,6,0,B|121:180|93:189|93:189|130:202|159:186|159:186|203:162|254:185,1,200,2|2,3:2|3:2,0:0:0:0:
321,101,110994,1,2,0:0:0:0:
231,177,111179,6,0,B|208:158|199:130|199:130|186:167|202:196|202:196|226:240|203:291,1,200,2|2,3:2|3:2,0:0:0:0:
279,360,111734,1,2,0:0:0:0:
211,267,111920,6,0,B|230:244|258:235|258:235|221:222|192:238|192:238|148:262|97:239,1,200,2|2,3:2|3:2,0:0:0:0:
279,360,112475,1,2,0:0:0:0:
334,297,112660,6,0,P|388:283|462:295,1,100,2|2,3:2|0:0,0:0:0:0:
271,140,113031,2,0,P|325:154|399:142,1,100,2|2,3:2|0:0,0:0:0:0:
501,49,113401,6,0,B|524:4|460:-22|428:-13|397:53|424:103,1,200,2|2,3:2|3:2,0:0:0:0:
495,228,113957,1,2,0:0:0:0:
495,228,114049,1,0,0:0:0:0:
495,228,114142,5,2,3:2:0:0:
262,166,114327,2,0,P|239:194|229:252,1,75.0000028610231,2|0,0:0|0:0,0:0:0:0:
495,228,114512,5,2,3:2:0:0:
304,230,114697,2,0,P|307:266|341:314,1,59.9999981689454,2|0,0:0|0:0,0:0:0:0:
495,228,114883,5,10,3:2:0:0:
378,245,115068,2,0,P|406:268|464:278,1,50,10|0,0:0|0:0,0:0:0:0:
262,166,115253,5,10,3:2:0:0:
212,161,115345,1,10,0:0:0:0:
162,156,115438,1,10,0:0:0:0:
112,151,115530,1,10,0:0:0:0:
63,146,115623,6,0,B|64:86|64:86|71:71|71:71|72:5|72:5|78:33|100:54,1,200,2|2,3:2|0:0,0:0:0:0:
173,61,115901,1,0,0:0:0:0:
173,61,115994,6,0,B|235:66|235:66|263:57|263:57|322:63,1,150.000005722046,2|2,3:2|0:0,0:0:0:0:
393,75,116271,1,0,0:0:0:0:
393,75,116364,6,0,L|384:168,1,87.500000834465,2|0,3:2|0:0,0:0:0:0:
459,168,116549,2,0,L|464:102,1,37.5000014305115,2|0,0:0|0:0,0:0:0:0:
385,162,116734,6,0,L|291:153,1,50,2|0,3:2|0:0,0:0:0:0:
328,231,116920,2,0,L|366:234,1,25,2|0,0:0|0:0,0:0:0:0:
469,306,117105,6,0,B|406:300|406:300|378:309|378:309|319:303,1,150.000005722046,2|2,3:2|0:0,0:0:0:0:
248,297,117383,1,0,0:0:0:0:
248,297,117475,6,0,B|171:287|171:287|130:283|120:242|139:209|181:218,1,200,2|2,3:2|0:0,0:0:0:0:
253,221,117753,1,0,0:0:0:0:
253,221,117845,6,0,L|262:115,1,100,2|0,3:2|0:0,0:0:0:0:
266,44,118031,6,0,B|206:37|206:37|175:33|161:61|170:89|201:90,1,150,10|0,0:0|0:0,0:0:0:0:
261,121,118216,6,0,L|358:129,1,75.0000028610231,14|0,3:2|0:0,0:0:0:0:
510,51,118401,1,10,0:0:0:0:
447,79,118494,1,10,0:2:0:0:
411,137,118586,6,0,B|417:195|417:195|425:210|425:210|432:276|432:276|436:247|455:224,1,200,6|2,3:2|0:0,0:0:0:0:
510,287,118864,1,0,0:0:0:0:
510,287,118957,6,0,P|457:353|359:306,1,200,2|2,3:2|0:0,0:0:0:0:
322,252,119234,1,0,0:0:0:0:
322,252,119327,6,0,L|208:261,1,100,2|0,3:2|0:0,0:0:0:0:
213,333,119512,2,0,L|295:325,1,50,2|0,0:0|0:0,0:0:0:0:
222,260,119697,6,0,L|212:146,1,75.0000028610231,2|0,3:2|0:0,0:0:0:0:
144,179,119883,2,0,L|149:239,1,37.5000014305115,2|0,0:0|0:0,0:0:0:0:
34,299,120068,6,0,B|97:268|152:292|152:292|175:347|245:328,1,200,2|2,3:2|0:0,0:0:0:0:
282,374,120345,1,0,0:0:0:0:
282,374,120438,6,0,B|310:355|332:368|332:368|345:360|345:360|371:369|403:354|403:354|378:350|358:334,1,175.00000166893,2|2,3:2|0:0,0:0:0:0:
411,276,120716,1,0,0:0:0:0:
411,276,120808,6,0,B|404:240|404:240|393:225|393:225|388:172,1,100,6|0,3:2|0:0,0:0:0:0:
463,176,120994,6,0,B|465:198|465:198|470:207|470:207|473:225,1,50,2|0,0:0|0:0,0:0:0:0:
388,180,121179,5,14,3:2:0:0:
329,176,121271,1,8,0:0:0:0:
271,172,121364,1,10,0:0:0:0:
212,167,121456,1,10,0:0:0:0:
154,165,121549,6,0,B|96:165|91:211|91:211|77:217|77:217|54:262|5:245,1,176.000005371094,14|2,3:2|0:0,0:0:0:0:
17,174,121827,1,0,0:0:0:0:
17,174,121920,6,0,L|25:80,1,88.0000026855469,2|0,3:2|0:0,0:0:0:0:
161,235,122105,2,0,L|153:322,1,50,2|0,0:0|0:0,0:0:0:0:
240,31,122290,6,0,B|297:31|302:77|302:77|316:83|316:83|339:128|388:111,1,176.000005371094,2|2,3:2|0:0,0:0:0:0:
450,107,122568,1,0,0:0:0:0:
450,107,122660,6,0,P|435:73|375:41,1,88.0000026855469,2|0,3:2|0:0,0:0:0:0:
234,103,122845,2,0,P|249:137|309:169,1,88.0000026855469,2|0,0:0|0:0,0:0:0:0:
420,178,123031,6,0,B|414:205|430:246|430:246|439:272|422:303|422:303|414:278|394:261,1,176.000005371094,6|2,3:2|0:0,0:0:0:0:
348,321,123308,1,0,0:0:0:0:
348,321,123401,6,0,P|319:351|312:394,1,75.0000028610231,2|0,3:2|0:0,0:0:0:0:
325,227,123586,2,0,P|299:201|289:166,1,75.0000028610231,2|0,0:0|0:0,0:0:0:0:
234,103,123771,6,0,L|142:94,1,75.0000028610231,2|0,3:2|0:0,0:0:0:0:
161,167,123957,2,0,L|210:171,1,50,2|0,0:0|0:0,0:0:0:0:
381,45,124142,5,10,3:2:0:0:
326,40,124234,1,8,0:0:0:0:
271,35,124327,1,10,0:0:0:0:
216,30,124419,1,10,0:0:0:0:
162,25,124512,6,0,P|107:42|91:95,1,100,14|0,3:2|0:0,0:0:0:0:
201,227,124697,2,0,P|172:175|107:156,1,75.0000028610231,2|0,0:0|0:0,0:0:0:0:
61,278,124883,2,0,B|31:310|62:352|116:353|154:281|117:225,1,200,2|2,3:2|0:0,0:0:0:0:
326,40,125253,6,0,B|325:74|325:74|333:86|333:86|335:113,1,75.0000028610231,6|0,3:2|0:0,0:0:0:0:
479,273,125438,2,0,B|453:248|453:248|440:244|440:244|418:227,1,75.0000028610231,2|0,0:0|0:0,0:0:0:0:
205,341,125623,2,0,B|235:299|235:299|248:290|248:290|282:243|282:243|272:267|278:293,1,170.000003242493,2|2,3:2|0:0,0:0:0:0:
326,40,125994,5,6,3:2:0:0:
252,46,126179,2,0,L|162:53,1,75.0000028610231,2|0,0:0|0:0,0:0:0:0:
10,121,126364,5,6,3:2:0:0:
84,127,126549,2,0,L|174:134,1,85.0000016212464,2|0,0:0|0:0,0:0:0:0:
353,266,126734,5,6,3:2:0:0:
282,211,126920,2,0,L|274:313,1,100,2|0,0:0|0:0,0:0:0:0:
5,318,127105,5,6,3:2:0:0:
74,384,127291,2,0,L|82:269,1,115.000002193451,2|0,0:0|0:0,0:0:0:0:
10,107,127475,6,0,B|9:160|9:160|21:179|21:179|25:221,1,115.000002193451,14|0,3:2|0:0,0:0:0:0:
74,384,127660,1,10,0:0:0:0:
86,87,127845,6,0,B|85:140|85:140|97:159|97:159|101:201,1,115.000002193451,14|0,3:2|0:0,0:0:0:0:
151,365,128030,1,10,0:0:0:0:
163,67,128216,6,0,B|162:120|162:120|174:139|174:139|178:181,1,115.000002193451,14|0,3:2|0:0,0:0:0:0:
229,345,128401,1,10,0:0:0:0:
239,47,128586,6,0,B|238:100|238:100|250:119|250:119|254:161,1,115.000002193451,14|0,3:2|0:0,0:0:0:0:
305,326,128771,1,10,0:0:0:0:
10,107,128957,6,0,B|9:160|9:160|21:179|21:179|25:221,1,115.000002193451,14|0,3:2|0:0,0:0:0:0:
114,309,129142,2,0,B|111:270|111:270|99:251|99:251|100:198,1,115.000002193451,10|0,0:0|0:0,0:0:0:0:
163,67,129327,6,0,B|162:120|162:120|174:139|174:139|177:178,1,115.000002193451,14|0,3:2|0:0,0:0:0:0:
267,269,129512,2,0,B|264:230|264:230|252:211|252:211|253:158,1,115.000002193451,10|0,0:0|0:0,0:0:0:0:
363,14,129697,6,0,B|308:15|308:15|289:3|289:3|247:-1,1,115.000002193451,14|0,3:2|0:0,0:0:0:0:
163,67,129883,6,0,B|162:120|162:120|174:139|174:139|177:178,1,115.000002193451,10|0,0:0|0:0,0:0:0:0:
267,269,130068,6,0,B|320:270|320:270|339:258|339:258|378:254,1,115.000002193451,14|0,3:2|0:0,0:0:0:0:
449,183,130252,6,0,B|448:128|448:128|460:109|460:109|464:71,1,115.000002193451,10|0,0:0|0:0,0:0:0:0:
153,0,130438,5,6,3:2:0:0:
109,28,130530,1,2,0:0:0:0:
82,72,130623,1,10,0:0:0:0:
74,123,130715,1,2,0:0:0:0:
88,173,130808,1,6,3:2:0:0:
102,223,130901,1,2,0:0:0:0:
94,274,130993,1,10,0:0:0:0:
67,318,131086,1,2,0:0:0:0:
23,346,131179,5,6,3:2:0:0:
42,289,131271,1,2,0:0:0:0:
86,249,131364,1,10,0:0:0:0:
143,233,131456,1,2,0:0:0:0:
201,246,131549,5,6,3:2:0:0:
266,254,131642,5,2,0:0:0:0:
332,234,131734,5,10,0:0:0:0:
380,184,131827,5,2,0:0:0:0:
392,114,131919,5,6,0:0:0:0:
172,72,134142,5,10,3:2:0:0:
213,132,134234,1,8,0:0:0:0:
255,191,134327,1,8,0:0:0:0:
295,252,134419,1,8,0:0:0:0:
336,313,134512,1,8,0:0:0:0:
233,215,134883,6,0,P|285:178|230:212,1,200,4|0,0:0|0:0,0:0:0:0:
