osu file format v14

[General]
AudioFilename: audio.mp3
AudioLeadIn: 0
PreviewTime: 26734
Countdown: 0
SampleSet: Soft
StackLeniency: 0.3
Mode: 0
LetterboxInBreaks: 0
WidescreenStoryboard: 1

[Editor]
DistanceSpacing: 0.3
BeatDivisor: 8
GridSize: 16
TimelineZoom: 2.899999

[Metadata]
Title:World's End Valentine
TitleUnicode:World's End Valentine
Artist:Pedro Silva
ArtistUnicode:Pedro Silva
Creator:Fall
Version:Hooni's Insane
Source:OMORI
Tags:video game videogame ost soundtrack original electronic instrumental boss fight sweetheart kel aubrey hero omori sunny mari basil chiptune _tranquility hooni wither wanpachi cycopton omocat 086 86 vgm
BeatmapID:2940376
BeatmapSetID:1412590

[Difficulty]
HPDrainRate:5
CircleSize:3.5
OverallDifficulty:8
ApproachRate:9
SliderMultiplier:2
SliderTickRate:1

[Events]
//Background and Video events
0,0,"mari best girl.jpg",0,0
//Break Periods
2,26934,28357
2,80268,84468
2,103971,113542
//Storyboard Layer 0 (Background)
//Storyboard Layer 1 (Fail)
//Storyboard Layer 2 (Pass)
//Storyboard Layer 3 (Foreground)
//Storyboard Layer 4 (Overlay)
//Storyboard Sound Samples

[TimingPoints]
246,400,4,2,0,60,1,0
17846,370.37037037037,4,2,1,60,1,0
17846,-200,4,2,1,60,0,0
20808,-100,4,2,2,69,0,0
23771,-83.3333333333333,4,2,2,69,0,0
25253,-83.3333333333333,4,2,2,75,0,0
26920,-83.3333333333333,4,2,3,45,0,0
28957,-250,4,2,3,45,0,0
29234,-250,4,2,3,5,0,0
29327,-250,4,2,3,45,0,0
29605,-250,4,2,3,5,0,0
29697,-83.3333333333333,4,2,1,85,0,1
30160,-83.3333333333333,4,2,2,85,0,1
30531,-83.3333333333333,4,2,1,85,0,1
30901,-83.3333333333333,4,2,3,85,0,1
31271,-83.3333333333333,4,2,1,85,0,1
31642,-83.3333333333333,4,2,2,85,0,1
32012,-83.3333333333333,4,2,1,85,0,1
32383,-83.3333333333333,4,2,3,85,0,1
32753,-83.3333333333333,4,2,1,85,0,1
33123,-83.3333333333333,4,2,2,85,0,1
33494,-83.3333333333333,4,2,1,85,0,1
33864,-83.3333333333333,4,2,3,85,0,1
34142,-83.3333333333333,4,2,3,85,0,1
34234,-83.3333333333333,4,2,1,85,0,1
34605,-83.3333333333333,4,2,3,85,0,1
34975,-83.3333333333333,4,2,1,85,0,1
35345,-83.3333333333333,4,2,2,85,0,1
35577,-83.3333333333333,4,2,2,85,0,1
35582,-83.3333333333333,4,2,2,85,0,1
35716,-83.3333333333333,4,2,1,85,0,1
36086,-83.3333333333333,4,2,3,85,0,1
36457,-83.3333333333333,4,2,1,85,0,1
36827,-83.3333333333333,4,2,2,85,0,1
37197,-83.3333333333333,4,2,1,85,0,1
37568,-83.3333333333333,4,2,3,85,0,1
37938,-83.3333333333333,4,2,1,85,0,1
38309,-83.3333333333333,4,2,2,85,0,1
38586,-71.4285714285714,4,2,2,85,0,1
38679,-71.4285714285714,4,2,1,85,0,1
38957,-83.3333333333333,4,2,1,85,0,1
39049,-83.3333333333333,4,2,3,85,0,1
39327,-71.4285714285714,4,2,3,85,0,1
39420,-71.4285714285714,4,2,1,85,0,1
39698,-83.3333333333333,4,2,1,85,0,1
39790,-83.3333333333333,4,2,2,85,0,1
40068,-100,4,2,2,85,0,0
41549,-83.3333333333333,4,2,1,85,0,1
41920,-100,4,2,1,85,0,1
42012,-100,4,2,2,85,0,1
42383,-100,4,2,1,85,0,1
42753,-100,4,2,3,85,0,1
43031,-83.3333333333333,4,2,3,85,0,1
43123,-83.3333333333333,4,2,1,85,0,1
43401,-100,4,2,1,85,0,1
43494,-100,4,2,2,85,0,1
43864,-100,4,2,1,85,0,1
44235,-100,4,2,3,85,0,1
44512,-83.3333333333333,4,2,3,85,0,1
44605,-83.3333333333333,4,2,1,85,0,1
44883,-100,4,2,1,85,0,1
44975,-100,4,2,2,85,0,1
45346,-100,4,2,1,85,0,1
45499,-100,4,2,1,5,0,1
45562,-100,4,2,1,85,0,1
45716,-100,4,2,3,85,0,1
45994,-83.3333333333333,4,2,3,85,0,1
46086,-83.3333333333333,4,2,1,85,0,1
46364,-100,4,2,1,85,0,1
46457,-100,4,2,3,85,0,1
46734,-83.3333333333333,4,2,3,85,0,1
46827,-83.3333333333333,4,2,1,85,0,1
47197,-83.3333333333333,4,2,2,85,0,1
47568,-83.3333333333333,4,2,1,85,0,1
47845,-166.666666666667,4,2,1,85,0,1
47938,-166.666666666667,4,2,3,85,0,1
48216,-83.3333333333333,4,2,3,85,0,1
48309,-83.3333333333333,4,2,1,85,0,1
48586,-166.666666666667,4,2,1,85,0,1
48679,-166.666666666667,4,2,2,85,0,1
49049,-166.666666666667,4,2,1,85,0,1
49420,-166.666666666667,4,2,3,85,0,1
49790,-166.666666666667,4,2,1,85,0,1
50068,-83.3333333333334,4,2,1,85,0,1
50161,-83.3333333333334,4,2,2,85,0,1
50438,-71.4285714285714,4,2,2,85,0,1
50531,-71.4285714285714,4,2,1,85,0,1
50808,-100,4,2,1,85,0,1
51179,-83.3333333333333,4,2,1,85,0,1
51734,-83.3333333333333,4,2,2,85,0,1
51920,-83.3333333333333,4,2,1,85,0,1
53401,-83.3333333333333,4,2,4,80,0,0
56503,-83.3333333333333,4,2,4,5,0,0
56549,-83.3333333333333,4,2,4,80,0,0
56688,-83.3333333333333,4,2,4,5,0,0
56734,-83.3333333333333,4,2,4,80,0,0
56873,-83.3333333333333,4,2,4,5,0,0
56920,-83.3333333333333,4,2,4,80,0,0
58910,-83.3333333333333,4,2,4,5,0,0
58957,-83.3333333333333,4,2,4,80,0,0
59095,-83.3333333333333,4,2,4,5,0,0
59142,-83.3333333333333,4,2,4,80,0,0
66734,-83.3333333333333,4,2,2,92,0,0
67197,-83.3333333333333,4,2,2,5,0,0
67290,-83.3333333333333,4,2,2,92,0,0
67614,-83.3333333333333,4,2,2,5,0,0
67660,-83.3333333333333,4,2,2,92,0,0
67984,-83.3333333333333,4,2,2,5,0,0
68031,-83.3333333333333,4,2,2,92,0,0
68216,-142.857142857143,4,2,1,65,0,0
70438,-142.857142857143,4,2,5,65,0,0
70623,-142.857142857143,4,2,1,65,0,0
70808,-142.857142857143,4,2,5,65,0,0
70994,-142.857142857143,4,2,1,65,0,0
71179,-142.857142857143,4,2,5,65,0,0
71271,-142.857142857143,4,2,1,65,0,0
72660,-142.857142857143,4,2,5,65,0,0
72753,-142.857142857143,4,2,5,5,0,0
73031,-142.857142857143,4,2,5,65,0,0
73124,-142.857142857143,4,2,5,5,0,0
73401,-142.857142857143,4,2,5,65,0,0
73494,-142.857142857143,4,2,5,5,0,0
73771,-142.857142857143,4,2,5,65,0,0
74142,-142.857142857143,4,2,1,65,0,0
77105,-142.857142857143,4,2,5,65,0,0
77660,-142.857142857143,4,2,5,5,0,0
77845,-142.857142857143,4,2,5,65,0,0
78400,-142.857142857143,4,2,5,5,0,0
78586,-142.857142857143,4,2,5,65,0,0
78771,-142.857142857143,4,2,5,5,0,0
78957,-142.857142857143,4,2,5,65,0,0
79142,-142.857142857143,4,2,5,5,0,0
79327,-142.857142857143,4,2,5,65,0,0
85068,-100,4,2,1,70,0,0
85994,-142.857142857143,4,2,2,65,0,0
86271,-142.857142857143,4,2,2,5,0,0
86364,-142.857142857143,4,2,2,65,0,0
86641,-142.857142857143,4,2,2,5,0,0
86734,-142.857142857143,4,2,2,65,0,0
87011,-142.857142857143,4,2,2,5,0,0
87105,-142.857142857143,4,2,2,65,0,0
87382,-142.857142857143,4,2,2,5,0,0
87475,-142.857142857143,4,2,2,65,0,0
91133,-142.857142857143,4,2,2,5,0,0
91179,-142.857142857143,4,2,2,65,0,0
97845,-100,4,2,2,72,0,0
100808,-100,4,2,1,80,0,0
101734,-100,4,2,1,85,0,0
102012,-100,4,2,2,85,0,0
102105,-100,4,2,1,85,0,0
102290,-83.3333333333333,4,2,2,85,0,0
102383,-83.3333333333333,4,2,1,85,0,0
103771,-83.3333333333333,4,2,1,60,0,0
109697,-83.3333333333333,4,2,3,60,0,0
114142,-142.857142857143,4,2,2,70,0,0
114512,-142.857142857143,4,2,2,60,0,0
114883,-142.857142857143,4,2,1,78,0,0
115623,-125,4,2,2,80,0,1
118170,-125,4,2,2,5,0,1
118216,-83.3333333333333,4,2,2,80,0,1
118586,-125,4,2,2,80,0,1
120808,-100,4,2,2,80,0,1
121549,-125,4,2,2,80,0,1
125994,-83.3333333333333,4,2,2,80,0,1
127475,-83.3333333333333,4,2,2,90,0,1
130438,-83.3333333333333,4,2,2,95,0,1
131920,-142.857142857143,4,2,3,70,0,0
134142,-142.857142857143,4,2,1,100,0,0
134883,-142.857142857143,4,2,6,100,0,0
134975,-142.857142857143,4,2,6,5,0,0

[Colours]
Combo1 : 255,98,21
Combo2 : 0,0,255
Combo3 : 255,0,128
Combo4 : 103,103,103

[HitObjects]
26,90,17846,6,0,B|36:15|149:-11|158:104|152:150|71:193,1,300,0|2,3:2|0:0,0:0:0:0:
145,294,19142,5,2,3:0:0:0:
160,281,19327,2,0,B|200:241|264:253|291:315|277:310|293:377|364:394|408:358,1,300,2|2,3:0|0:0,0:0:0:0:
447,61,20808,6,0,P|424:50|399:52,7,50,2|2|2|2|2|2|2|2,3:2|0:0|0:0|0:0|0:0|0:0|0:0|0:0,0:0:0:0:
381,151,21549,2,0,P|403:161|428:159,7,50,2|2|2|2|2|2|2|2,3:2|0:0|0:0|0:0|0:0|0:0|0:0|0:0,0:0:0:0:
285,81,22290,6,0,L|235:72,7,50,2|2|2|2|2|2|2|2,3:2|0:0|0:0|0:0|0:0|0:0|0:0|0:0,0:0:0:0:
166,0,23031,2,0,L|116:8,7,50,2|2|2|2|2|2|2|2,3:2|0:0|0:0|0:0|0:0|0:0|0:0|0:0,0:0:0:0:
39,100,23771,6,0,B|26:127|26:127|29:156,3,59.9999981689454,2|2|2|2,3:2|0:0|0:0|0:0,0:0:0:0:
139,172,24142,2,0,B|151:144|151:144|148:115,3,59.9999981689454,2|2|2|2,3:2|0:0|0:0|0:0,0:0:0:0:
68,263,24512,6,0,L|54:345,3,59.9999981689454,2|2|2|2,3:2|0:0|0:0|0:0,0:0:0:0:
141,384,24883,2,0,L|223:370,3,59.9999981689454,2|2|2|2,3:2|0:0|0:0|0:0,0:0:0:0:
256,288,25253,5,2,3:2:0:0:
280,263,25345,1,2,0:0:0:0:
315,258,25438,1,2,0:2:0:0:
346,275,25530,1,2,0:0:0:0:
361,306,25623,1,2,3:2:0:0:
378,336,25716,1,2,0:0:0:0:
408,353,25808,1,2,0:2:0:0:
443,348,25901,1,2,0:0:0:0:
469,323,25994,6,0,L|482:247,1,59.9999981689454,2|2,3:2|0:0,0:0:0:0:
418,133,26179,2,0,L|407:192,1,59.9999981689454,2|2,3:2|0:0,0:0:0:0:
486,328,26364,6,0,L|499:252,1,59.9999981689454,2|2,3:2|0:0,0:0:0:0:
398,128,26549,2,0,L|387:187,1,59.9999981689454,2|2,3:2|0:0,0:0:0:0:
256,288,26734,5,6,0:2:0:0:
25,79,28957,6,0,L|89:67,1,60,2|0,3:2|0:0,0:0:0:0:
101,163,29327,2,0,L|41:173,1,60,2|0,3:2|0:0,0:0:0:0:
196,53,29697,6,0,B|235:23|235:23|315:37|315:37|344:78,1,179.999994506836,4|2,3:2|0:0,0:0:0:0:
445,121,30068,2,0,L|455:61,1,59.9999981689454,0|2,3:2|0:0,0:0:0:0:
361,179,30253,2,0,L|371:238,1,59.9999981689454,2|2,0:0|0:0,0:0:0:0:
270,328,30438,6,0,B|209:316|209:316|158:342|158:342|98:331,1,179.999994506836,6|2,3:2|0:0,0:0:0:0:
43,238,30808,1,2,3:2:0:0:
46,223,30901,1,2,0:0:0:0:
49,208,30994,2,0,L|62:139,1,59.9999981689454,2|2,0:0|0:0,0:0:0:0:
167,3,31179,6,0,B|174:46|174:46|198:78|198:78|186:120|186:120|196:171,1,179.999994506836,4|2,3:2|0:0,0:0:0:0:
187,279,31549,2,0,B|213:266|213:266|243:269,1,59.9999981689454,0|2,3:2|0:0,0:0:0:0:
262,370,31734,2,0,B|235:382|235:382|205:379,1,59.9999981689454,2|2,0:0|0:0,0:0:0:0:
353,248,31920,6,0,B|399:239|428:285|428:285|438:232|487:227,1,179.999994506836,6|2,3:2|0:0,0:0:0:0:
409,152,32290,1,2,3:2:0:0:
406,137,32383,1,2,0:0:0:0:
403,122,32476,2,0,L|390:53,1,59.9999981689454,2|2,0:0|0:0,0:0:0:0:
258,182,32660,6,0,B|197:170|197:170|146:196|146:196|86:185,1,179.999994506836,4|2,3:2|0:0,0:0:0:0:
5,276,33031,2,0,L|64:286,1,59.9999981689454,0|2,3:2|0:0,0:0:0:0:
134,362,33216,2,0,L|193:351,1,59.9999981689454,2|2,0:0|0:0,0:0:0:0:
350,290,33401,6,0,B|313:266|313:266|281:298|281:333|300:363|333:377,1,179.999994506836,6|2,3:2|0:0,0:0:0:0:
457,303,33771,1,2,3:2:0:0:
460,288,33864,1,2,0:0:0:0:
463,273,33957,2,0,L|476:204,1,59.9999981689454,2|2,0:0|0:0,0:0:0:0:
400,76,34142,6,0,B|357:39|313:83|326:91|284:138|240:110,1,179.999994506836,4|2,3:2|0:0,0:0:0:0:
70,45,34512,2,0,B|116:37|145:83|145:83|155:30|204:25,1,179.999994506836,6|2,3:2|0:0,0:0:0:0:
108,222,34883,2,0,B|81:257|81:257|40:238|28:205|36:170|62:146,1,179.999994506836,6|2,3:2|0:0,0:0:0:0:
219,199,35253,5,4,3:2:0:0:
242,218,35346,1,2,0:0:0:0:
254,245,35438,1,2,0:0:0:0:
253,275,35531,1,2,0:0:0:0:
241,302,35623,6,0,B|302:290|302:290|353:316|353:316|413:305,1,179.999994506836,4|2,3:2|0:0,0:0:0:0:
469,197,35994,2,0,B|439:200|439:200|412:188,1,59.9999981689454,2|2,3:2|0:0,0:0:0:0:
431,87,36179,2,0,B|461:84|461:84|487:97,1,59.9999981689454,2|2,0:0|0:0,0:0:0:0:
305,168,36364,6,0,B|258:160|247:107|247:107|219:153|171:141,1,179.999994506836,4|2,3:2|0:0,0:0:0:0:
73,72,36734,1,0,3:2:0:0:
70,87,36827,1,2,0:0:0:0:
67,102,36920,2,0,L|54:171,1,59.9999981689454,2|2,0:0|0:0,0:0:0:0:
1,308,37105,6,0,B|30:267|30:267|110:253|110:253|149:283,1,179.999994506836,4|2,3:2|0:0,0:0:0:0:
245,332,37475,2,0,L|256:273,1,59.9999981689454,2|2,3:2|0:0,0:0:0:0:
360,292,37660,2,0,L|348:350,1,59.9999981689454,2|2,0:0|0:0,0:0:0:0:
138,369,37845,6,0,B|148:318|148:318|136:276|136:276|160:244|160:244|167:201,1,179.999994506836,4|2,3:2|0:0,0:0:0:0:
141,81,38216,1,0,3:2:0:0:
156,84,38309,1,2,0:0:0:0:
171,87,38402,2,0,L|240:100,1,59.9999981689454,2|2,0:0|0:0,0:0:0:0:
423,126,38586,6,0,B|436:74|362:26|326:106|319:140|365:192,1,209.999993591309,4|2,3:2|0:0,0:0:0:0:
424,258,38957,1,0,3:2:0:0:
439,255,39050,1,2,0:0:0:0:
454,252,39143,2,0,L|523:239,1,59.9999981689454,2|2,0:0|0:0,0:0:0:0:
329,340,39327,6,0,B|276:381|231:321|248:311|207:253|153:281,1,209.999993591309,4|0,3:2|0:0,0:0:0:0:
50,328,39697,1,2,3:2:0:0:
47,313,39790,1,2,0:0:0:0:
44,298,39883,2,0,L|31:229,1,59.9999981689454,2|2,0:0|0:0,0:0:0:0:
5,81,40068,5,6,3:2:0:0:
103,65,40253,1,2,0:0:0:0:
185,121,40438,1,2,0:0:0:0:
284,106,40623,1,2,0:0:0:0:
381,27,40808,5,2,0:0:0:0:
401,151,40994,1,2,0:0:0:0:
489,300,41179,5,2,0:0:0:0:
512,176,41365,1,2,0:0:0:0:
386,322,41549,6,0,B|326:333|326:333|275:307|275:307|214:319,1,179.999994506836,4|2,3:2|0:0,0:0:0:0:
102,338,41920,1,0,3:2:0:0:
99,323,42013,1,2,0:0:0:0:
96,308,42106,2,0,L|84:243,1,50,2|2,0:0|0:0,0:0:0:0:
66,130,42290,6,0,P|124:87|194:107,1,150,4|2,3:2|0:0,0:0:0:0:
291,194,42660,2,0,P|286:120|322:50,1,150,4|2,3:2|0:0,0:0:0:0:
452,128,43031,6,0,B|425:93|425:93|384:112|372:145|380:180|406:204,1,179.999994506836,4|2,3:2|0:0,0:0:0:0:
463,286,43401,2,0,L|512:295,1,50,0|2,3:2|0:0,0:0:0:0:
369,342,43586,2,0,L|320:333,1,50,2|2,0:0|0:0,0:0:0:0:
193,250,43771,6,0,P|213:319|170:377,1,150,4|2,3:2|0:0,0:0:0:0:
84,296,44142,1,0,3:2:0:0:
81,281,44235,1,2,0:0:0:0:
78,266,44328,2,0,L|66:201,1,50,2|2,0:0|0:0,0:0:0:0:
48,69,44512,6,0,B|91:32|135:76|122:84|164:131|208:103,1,179.999994506836,4|2,3:2|0:0,0:0:0:0:
306,60,44883,2,0,L|314:109,1,50,0|2,3:2|0:0,0:0:0:0:
426,90,45068,2,0,L|417:40,1,50,2|2,0:0|0:0,0:0:0:0:
386,188,45253,6,0,B|396:251|396:251|415:262|415:262|427:324,1,150,0|0,3:2|0:0,0:0:0:0:
330,383,45623,2,0,L|265:371,1,50,4|2,3:2|0:0,0:0:0:0:
164,305,45808,2,0,L|213:296,1,50,6|2,0:0|0:0,0:0:0:0:
386,188,45994,6,0,B|340:179|311:225|311:225|301:172|252:167,1,179.999994506836,4|2,3:2|0:0,0:0:0:0:
142,181,46364,1,0,3:2:0:0:
145,166,46457,1,2,0:0:0:0:
148,151,46550,2,0,L|159:86,1,50,2|2,0:0|0:0,0:0:0:0:
42,32,46734,6,0,B|35:75|35:75|11:107|11:107|23:149|23:149|13:200,1,179.999994506836,4|2,3:2|0:0,0:0:0:0:
41,344,47105,5,0,3:2:0:0:
60,321,47198,1,2,0:0:0:0:
87,309,47290,1,2,0:0:0:0:
117,310,47383,1,2,0:0:0:0:
144,322,47475,6,0,B|132:261|132:261|158:210|158:210|147:150,1,179.999994506836,4|2,3:2|0:0,0:0:0:0:
150,54,47845,6,0,B|120:20|120:20|104:62,1,89.9999972534181,4|2,3:2|0:0,0:0:0:0:
253,132,48216,6,0,B|296:169|340:125|327:117|369:70|413:98,1,179.999994506836,4|2,3:2|0:0,0:0:0:0:
494,172,48586,6,0,B|475:171|456:190|456:190|464:214|489:220,1,89.9999972534181,4|2,3:2|0:0,0:0:0:0:
380,275,48957,5,4,3:2:0:0:
411,96,49142,1,0,0:0:0:0:
289,252,49327,5,4,3:2:0:0:
257,72,49512,1,0,0:0:0:0:
210,307,49697,5,4,3:2:0:0:
119,149,49882,1,0,0:0:0:0:
289,252,50068,6,0,L|281:210,6,29.9999990844727,4|0|0|0|2|0|0,3:2|0:0|0:0|0:0|0:0|0:0|0:0,0:0:0:0:
345,114,50438,6,0,B|289:126|256:72|256:72|243:134|190:143,1,209.999993591309,4|2,3:2|0:0,0:0:0:0:
91,83,50808,1,6,3:2:0:0:
88,98,50901,1,0,0:0:0:0:
85,113,50994,2,0,L|73:178,1,50,2|2,0:0|0:0,0:0:0:0:
30,318,51179,6,0,B|6:280|6:280|38:248|73:248|103:268|117:300,1,179.999994506836,4|2,3:2|0:0,0:0:0:0:
218,338,51549,5,0,3:2:0:0:
221,320,51642,1,2,0:0:0:0:
225,302,51734,2,0,L|234:238,1,59.9999981689454,2|2,0:0|0:0,0:0:0:0:
259,151,51919,5,6,3:2:0:0:
285,123,52012,1,0,0:0:0:0:
323,118,52105,1,0,0:0:0:0:
358,136,52196,1,2,0:0:0:0:
374,170,52289,1,6,3:2:0:0:
393,203,52382,1,0,0:0:0:0:
426,222,52474,1,0,0:0:0:0:
464,217,52567,1,2,0:0:0:0:
493,189,52660,6,0,L|507:105,3,59.9999981689454,6|0|0|2,3:2|0:0|0:0|0:0,0:0:0:0:
425,64,53031,2,0,L|439:-20,3,59.9999981689454,6|0|0|0,3:2|0:0|0:0|0:0,0:0:0:0:
322,142,53401,6,0,B|291:145|291:145|265:131,1,59.9999981689454,6|0,0:0|0:0,0:0:0:0:
188,60,53586,2,0,B|157:56|157:56|131:70,1,59.9999981689454,2|0,0:0|0:0,0:0:0:0:
51,152,53771,5,2,3:2:0:0:
56,182,53863,1,2,0:0:0:0:
62,212,53956,1,2,0:0:0:0:
67,242,54048,1,2,0:0:0:0:
72,272,54142,6,0,B|119:236|119:236|177:253,1,119.999996337891,2|2,3:2|0:0,0:0:0:0:
260,319,54420,2,0,B|318:336|318:336|365:300,1,119.999996337891,2|2,0:0|0:0,0:0:0:0:
423,213,54697,2,0,L|408:133,1,59.9999981689454,2|2,0:0|0:0,0:0:0:0:
324,79,54883,5,2,3:2:0:0:
298,107,54976,1,2,0:0:0:0:
260,112,55069,1,2,0:0:0:0:
225,94,55160,1,2,0:0:0:0:
209,60,55253,5,2,3:2:0:0:
190,27,55346,1,2,0:0:0:0:
157,8,55438,1,2,0:0:0:0:
119,13,55531,1,2,0:0:0:0:
90,41,55623,6,0,B|82:86|82:86|93:107|93:107|84:156,1,119.999996337891,2|2,3:2|0:0,0:0:0:0:
16,270,55901,2,0,B|42:249|42:249|96:259|96:259|115:284,1,119.999996337891,2|2,0:0|0:0,0:0:0:0:
210,331,56179,2,0,L|220:271,1,59.9999981689454,2|2,0:0|0:0,0:0:0:0:
260,65,56364,5,2,3:2:0:0:
320,223,56549,1,2,0:0:0:0:
154,195,56734,1,2,3:2:0:0:
376,117,56920,6,0,L|386:57,1,59.9999981689454,2|2,0:0|0:0,0:0:0:0:
454,206,57105,5,2,3:2:0:0:
466,232,57198,1,2,0:0:0:0:
467,261,57290,1,2,0:0:0:0:
454,287,57383,1,2,0:0:0:0:
431,307,57475,2,0,L|355:319,1,59.9999981689454,2|0,3:2|0:0,0:0:0:0:
293,382,57660,2,0,L|217:369,1,59.9999981689454,2|2,0:0|0:0,0:0:0:0:
139,296,57845,6,0,L|63:309,3,59.9999981689454,2|2|2|2,3:2|0:0|0:0|0:0,0:0:0:0:
6,209,58216,5,2,3:2:0:0:
36,204,58308,1,2,0:0:0:0:
66,198,58401,1,2,0:0:0:0:
96,193,58493,1,2,0:0:0:0:
126,188,58586,2,0,L|185:178,1,59.9999981689454,2|2,3:2|0:0,0:0:0:0:
303,47,58771,6,0,B|274:31|274:31|240:36,1,59.9999981689454,2|0,0:0|0:0,0:0:0:0:
303,205,58957,2,0,B|330:187|330:187|341:162,1,59.9999981689454,2|0,3:2|0:0,0:0:0:0:
167,124,59142,2,0,B|167:156|167:156|184:178,1,59.9999981689454,2|0,0:0|0:0,0:0:0:0:
307,31,59327,6,0,B|278:15|278:15|244:20,3,59.9999981689454,2|2|2|2,3:2|0:0|0:0|0:0,0:0:0:0:
406,78,59697,5,2,3:2:0:0:
426,74,59789,1,2,0:0:0:0:
447,70,59882,1,2,0:0:0:0:
468,66,59974,1,2,0:0:0:0:
449,222,60160,5,2,0:0:0:0:
446,237,60253,2,0,L|435:296,1,59.9999981689454,2|2,0:0|0:0,0:0:0:0:
353,362,60438,5,6,3:2:0:0:
326,374,60531,1,2,0:0:0:0:
298,375,60623,1,2,0:0:0:0:
272,362,60716,1,2,0:0:0:0:
252,339,60808,6,0,L|240:263,3,59.9999981689454,0|2|2|2,3:2|0:0|0:0|0:0,0:0:0:0:
317,208,61179,2,0,L|329:132,3,59.9999981689454,0|2|2|2,3:2|0:0|0:0|0:0,0:0:0:0:
248,57,61549,5,4,3:2:0:0:
226,36,61642,1,2,0:0:0:0:
200,25,61734,1,2,0:0:0:0:
171,29,61827,1,2,0:0:0:0:
145,44,61919,2,0,L|133:120,3,59.9999981689454,4|2|2|2,3:2|0:0|0:0|0:0,0:0:0:0:
48,169,62290,6,0,L|57:228,3,59.9999981689454,2|2|2|2,3:2|0:0|0:0|0:0,0:0:0:0:
144,293,62660,5,2,3:2:0:0:
140,313,62752,1,2,0:0:0:0:
136,334,62845,1,2,0:0:0:0:
132,355,62937,1,2,0:0:0:0:
268,257,63123,5,2,0:0:0:0:
280,248,63216,2,0,B|306:244|306:244|335:260,1,59.9999981689454,2|2,0:0|0:0,0:0:0:0:
436,347,63401,5,6,3:2:0:0:
441,317,63493,1,2,0:0:0:0:
447,287,63586,1,2,0:0:0:0:
452,257,63678,1,2,0:0:0:0:
457,227,63771,6,0,L|469:151,3,59.9999981689454,0|2|2|2,3:2|0:0|0:0|0:0,0:0:0:0:
388,91,64142,2,0,L|397:31,3,59.9999981689454,0|2|2|2,3:2|0:0|0:0|0:0,0:0:0:0:
293,140,64512,5,0,3:2:0:0:
258,158,64605,1,2,0:0:0:0:
220,153,64696,1,2,0:0:0:0:
194,125,64789,1,2,0:0:0:0:
168,84,64883,5,0,3:2:0:0:
126,62,64974,1,2,0:0:0:0:
81,68,65067,1,2,0:0:0:0:
49,102,65160,1,2,0:0:0:0:
40,146,65253,6,0,L|48:198,2,39.9999987792969,0|2|2,3:2|0:0|0:0,0:0:0:0:
117,239,65438,5,2,0:0:0:0:
114,254,65531,1,2,0:0:0:0:
111,269,65624,2,0,L|98:338,3,59.9999981689454,0|2|2|2,3:2|0:0|0:0|0:0,0:0:0:0:
206,351,65994,2,0,L|217:292,3,59.9999981689454,0|2|2|2,3:2|0:0|0:0|0:0,0:0:0:0:
187,191,66364,5,0,3:2:0:0:
219,157,66457,1,0,0:0:0:0:
264,151,66550,1,2,0:0:0:0:
306,173,66641,1,2,0:0:0:0:
327,217,66734,6,0,B|346:242|346:242|400:252|400:252|426:231,1,119.999996337891,6|0,0:0|3:0,0:0:0:0:
506,157,67012,2,0,B|497:108|497:108|508:87|508:87|500:42,1,119.999996337891,2|0,0:0|0:0,0:0:0:0:
403,0,67290,1,2,3:2:0:0:
264,151,67475,5,2,3:2:0:0:
331,77,67660,1,2,3:2:0:0:
158,128,67845,5,2,3:2:0:0:
119,34,68030,1,2,0:0:0:0:
61,233,68216,6,0,P|95:229|125:245,1,69.9999978637696,2|2,3:2|0:0,0:0:0:0:
103,355,68586,2,0,P|68:358|38:342,1,69.9999978637696,2|2,3:2|0:0,0:0:0:0:
206,322,68957,5,2,3:2:0:0:
309,341,69142,1,2,0:0:0:0:
398,286,69327,1,2,3:2:0:0:
501,305,69512,1,2,0:0:0:0:
466,199,69697,6,0,L|480:115,1,69.9999978637696,2|2,3:2|0:0,0:0:0:0:
391,70,70068,2,0,L|379:0,1,69.9999978637696,2|2,3:2|0:0,0:0:0:0:
310,146,70438,6,0,P|279:162|245:158,1,69.9999978637696,2|2,3:2|0:0,0:0:0:0:
95,102,70808,2,0,P|125:85|159:89,1,69.9999978637696,2|2,3:2|0:0,0:0:0:0:
29,246,71179,6,0,L|13:159,1,69.9999978637696,2|0,3:2|0:0,0:0:0:0:
138,322,71549,5,0,3:2:0:0:
202,162,71920,1,0,3:2:0:0:
309,293,72290,1,0,3:2:0:0:
138,322,72660,6,0,L|77:372,1,69.9999978637696,2|0,3:2|0:0,0:0:0:0:
202,162,73031,2,0,L|188:84,1,69.9999978637696,2|0,3:2|0:0,0:0:0:0:
309,293,73401,2,0,L|383:320,1,69.9999978637696,2|0,3:2|0:0,0:0:0:0:
219,255,73771,5,2,3:2:0:0:
448,48,74142,6,0,P|414:44|384:60,1,69.9999978637696,2|2,3:2|0:0,0:0:0:0:
406,170,74512,2,0,P|441:173|471:157,1,69.9999978637696,2|2,3:2|0:0,0:0:0:0:
303,138,74883,5,2,3:2:0:0:
200,157,75068,1,2,0:0:0:0:
111,102,75253,1,2,3:2:0:0:
8,121,75438,1,2,0:0:0:0:
77,209,75623,6,0,L|88:278,1,69.9999978637696,2|2,3:2|0:0,0:0:0:0:
192,338,75994,2,0,L|203:268,1,69.9999978637696,2|2,3:2|0:0,0:0:0:0:
323,327,76364,6,0,P|352:343|387:339,1,69.9999978637696,2|2,3:2|0:0,0:0:0:0:
512,261,76734,2,0,P|482:244|447:248,1,69.9999978637696,2|2,3:2|0:0,0:0:0:0:
284,138,77105,6,0,B|315:167|357:173|396:156|415:105|415:105|399:84|378:79,1,209.999993591309,2|0,3:2|0:0,0:0:0:0:
243,46,77845,6,0,B|190:55|177:117|177:117|144:63|88:75,1,209.999993591309,2|0,3:2|0:0,0:0:0:0:
22,219,78586,6,0,L|8:141,1,69.9999978637696,2|0,3:2|0:0,0:0:0:0:
121,286,78957,2,0,L|108:354,1,69.9999978637696,2|0,3:2|0:0,0:0:0:0:
220,220,79327,5,2,3:2:0:0:
313,305,79512,1,2,0:0:0:0:
429,256,79697,1,2,3:2:0:0:
255,74,80068,5,4,0:0:0:0:
55,55,85068,5,8,0:0:0:0:
70,58,85161,1,8,0:0:0:0:
85,61,85254,2,0,L|150:73,1,50,10|10,0:2|0:2,0:0:0:0:
118,168,85438,2,0,L|68:158,1,50,10|10,0:2|0:2,0:0:0:0:
218,135,85623,1,10,0:2:0:0:
290,204,85808,1,2,3:2:0:0:
382,30,85994,6,0,L|394:98,1,69.9999978637696,2|0,3:2|0:0,0:0:0:0:
475,166,86364,2,0,L|462:234,1,69.9999978637696,2|0,3:2|0:0,0:0:0:0:
327,307,86734,6,0,B|361:303|361:303|392:320,1,69.9999978637696,2|0,3:2|0:0,0:0:0:0:
230,367,87105,2,0,B|196:371|196:371|164:353,1,69.9999978637696,2|0,3:2|0:0,0:0:0:0:
74,288,87475,5,2,3:2:0:0:
140,216,87660,1,2,0:0:0:0:
97,128,87845,1,2,3:2:0:0:
177,49,88031,5,2,0:0:0:0:
192,52,88124,1,2,0:0:0:0:
207,55,88217,2,0,L|290:69,1,69.9999978637696,2|0,3:2|0:0,0:0:0:0:
338,128,88494,1,2,0:0:0:0:
353,125,88587,2,0,L|436:110,1,69.9999978637696,2|2,3:2|0:0,0:0:0:0:
406,237,88957,5,2,3:2:0:0:
423,341,89142,1,2,0:0:0:0:
320,359,89327,1,2,3:2:0:0:
300,256,89511,5,2,0:0:0:0:
298,241,89604,1,2,0:0:0:0:
294,225,89697,1,2,3:2:0:0:
212,160,89883,1,2,0:0:0:0:
109,178,90068,1,2,3:2:0:0:
43,262,90253,1,2,0:0:0:0:
138,345,90438,5,2,3:2:0:0:
154,341,90531,1,2,0:0:0:0:
170,338,90624,1,2,0:0:0:0:
186,335,90715,1,2,0:0:0:0:
201,332,90808,2,0,L|284:317,1,69.9999978637696,2|2,3:2|0:0,0:0:0:0:
446,256,91179,5,6,3:2:0:0:
338,234,91363,1,2,0:0:0:0:
363,124,91549,1,2,3:2:0:0:
471,146,91733,1,2,0:0:0:0:
295,28,91920,5,6,3:2:0:0:
223,94,92105,1,2,0:0:0:0:
135,51,92290,1,2,3:2:0:0:
63,127,92475,5,2,0:0:0:0:
66,142,92568,1,2,0:0:0:0:
69,157,92661,2,0,L|83:240,1,69.9999978637696,2|2,3:2|0:0,0:0:0:0:
171,280,93031,1,2,3:2:0:0:
245,206,93216,2,0,L|232:137,1,69.9999978637696,2|0,0:0|0:0,0:0:0:0:
334,63,93586,5,2,0:0:0:0:
399,145,93771,2,0,B|429:160|429:160|464:155,1,69.9999978637696,2|2,3:2|0:0,0:0:0:0:
488,30,94142,2,0,B|457:14|457:14|422:19,1,69.9999978637696,2|0,3:2|0:0,0:0:0:0:
319,63,94512,1,2,3:2:0:0:
462,271,94883,5,0,0:0:0:0:
370,321,95068,1,2,0:0:0:0:
293,250,95253,2,0,B|262:234|262:234|227:239,1,69.9999978637696,2|2,3:2|0:0,0:0:0:0:
158,293,95531,1,2,0:0:0:0:
146,300,95623,2,0,B|111:305|111:305|80:289,1,69.9999978637696,2|2,3:2|0:0,0:0:0:0:
27,198,95994,1,2,3:2:0:0:
111,135,96179,2,0,B|146:130|146:130|177:146,1,69.9999978637696,2|0,0:0|0:0,0:0:0:0:
227,238,96549,5,2,0:0:0:0:
309,152,96734,2,0,L|296:73,1,69.9999978637696,2|2,3:2|0:0,0:0:0:0:
428,0,97105,2,0,L|416:69,1,69.9999978637696,2|0,3:2|0:0,0:0:0:0:
294,156,97475,2,0,L|281:77,1,69.9999978637696,2|0,3:2|0:0,0:0:0:0:
444,3,97845,5,6,3:2:0:0:
441,20,97937,1,2,0:0:0:0:
438,37,98030,1,2,0:0:0:0:
435,54,98122,1,2,0:0:0:0:
432,72,98216,2,0,L|422:121,3,50,2|2|2|2,3:2|0:0|0:0|0:0,0:0:0:0:
479,198,98586,2,0,L|469:247,3,50,2|2|2|2,3:2|0:0|0:0|0:0,0:0:0:0:
391,303,98957,2,0,L|381:352,3,50,2|2|2|2,3:2|0:0|0:0|0:0,0:0:0:0:
295,217,99327,5,6,3:2:0:0:
273,207,99419,1,2,0:0:0:0:
249,206,99512,1,2,0:0:0:0:
227,216,99604,1,2,0:0:0:0:
212,234,99697,2,0,L|202:283,3,50,2|2|2|2,3:2|0:0|0:0|0:0,0:0:0:0:
99,325,100068,2,0,L|61:292,3,50,2|2|2|2,3:2|0:0|0:0|0:0,0:0:0:0:
76,181,100438,2,0,L|123:164,3,50,2|2|2|2,3:2|0:0|0:0|0:0,0:0:0:0:
212,234,100808,5,6,3:2:0:0:
242,239,100900,1,2,0:0:0:0:
272,245,100993,1,2,0:0:0:0:
302,250,101085,1,2,0:0:0:0:
332,255,101179,2,0,L|396:266,3,50,2|2|2|2,3:2|0:0|0:0|0:0,0:0:0:0:
461,165,101549,5,6,3:2:0:0:
482,130,101642,1,10,0:0:0:0:
479,93,101733,1,2,0:0:0:0:
451,65,101826,1,2,0:0:0:0:
412,57,101920,1,2,3:2:0:0:
377,75,102011,1,2,0:0:0:0:
360,110,102104,1,10,0:0:0:0:
368,147,102197,1,10,0:0:0:0:
406,186,102290,6,0,L|392:258,3,59.9999981689454,6|10|10|10,3:2|0:0|0:0|0:0,0:0:0:0:
273,281,102660,2,0,L|284:222,3,59.9999981689454,2|10|10|10,3:2|0:0|0:0|0:0,0:0:0:0:
176,342,103031,5,14,3:2:0:0:
137,364,103123,1,10,0:0:0:0:
93,362,103216,1,10,0:0:0:0:
56,336,103308,1,10,0:0:0:0:
39,295,103401,1,10,3:2:0:0:
47,252,103493,1,10,0:0:0:0:
77,219,103586,1,10,0:0:0:0:
120,208,103679,1,10,0:0:0:0:
175,228,103771,5,6,0:0:0:0:
47,332,114142,6,0,L|29:238,1,69.9999978637696,2|2,3:2|0:0,0:0:0:0:
148,140,114512,2,0,L|135:208,1,69.9999978637696,2|2,3:2|0:0,0:0:0:0:
255,35,114883,5,10,3:2:0:0:
296,205,115068,1,10,0:0:0:0:
424,39,115253,5,10,3:2:0:0:
419,63,115345,1,10,0:0:0:0:
415,87,115438,1,10,0:0:0:0:
411,112,115530,1,10,0:0:0:0:
406,138,115624,6,0,L|392:216,1,80,2|2,3:2|0:0,0:0:0:0:
311,290,115901,1,0,0:0:0:0:
314,306,115994,2,0,L|327:384,1,80,2|2,3:2|0:0,0:0:0:0:
197,184,116364,5,2,3:2:0:0:
134,365,116549,1,2,0:0:0:0:
19,211,116734,1,2,3:2:0:0:
204,289,116920,1,2,0:0:0:0:
91,96,117105,6,0,L|169:82,1,80,2|2,3:2|0:0,0:0:0:0:
251,9,117382,1,0,0:0:0:0:
267,12,117475,2,0,L|345:25,1,80,2|2,3:2|0:0,0:0:0:0:
512,175,117845,5,2,3:2:0:0:
334,145,118031,1,10,0:0:0:0:
442,41,118216,6,0,L|431:100,1,59.9999981689454,14|0,3:2|0:0,0:0:0:0:
405,242,118401,2,0,L|395:302,1,59.9999981689454,10|10,0:0|0:2,0:0:0:0:
255,70,118586,6,0,B|220:52|220:52|180:57,1,80,6|2,3:2|0:0,0:0:0:0:
153,165,118864,1,0,0:0:0:0:
162,185,118957,2,0,B|196:202|196:202|236:197,1,80,2|2,3:2|0:0,0:0:0:0:
431,99,119327,5,2,3:2:0:0:
395,302,119512,1,2,0:0:0:0:
334,145,119697,1,2,3:2:0:0:
512,175,119883,1,2,0:0:0:0:
288,322,120068,6,0,L|210:336,1,80,2|2,3:2|0:0,0:0:0:0:
127,267,120345,1,0,0:0:0:0:
111,264,120438,2,0,L|33:251,1,80,2|2,3:2|0:0,0:0:0:0:
34,73,120808,6,0,B|76:81|76:81|106:72|106:72|132:90|132:90|174:99,1,150,6|0,3:2|0:0,0:0:0:0:
273,125,121179,5,14,3:2:0:0:
289,150,121272,1,8,0:0:0:0:
291,180,121364,1,10,0:0:0:0:
279,208,121457,1,10,0:0:0:0:
259,229,121549,6,0,L|181:243,1,80,14|2,3:2|0:0,0:0:0:0:
182,348,121827,1,0,0:0:0:0:
198,345,121920,2,0,L|276:332,1,80,2|2,3:2|0:0,0:0:0:0:
371,213,122290,5,2,3:2:0:0:
396,355,122475,1,2,0:0:0:0:
506,120,122660,1,2,3:2:0:0:
481,262,122845,1,2,0:0:0:0:
380,43,123031,6,0,B|340:38|340:38|305:56,1,80,6|2,3:2|0:0,0:0:0:0:
316,167,123309,1,0,0:0:0:0:
331,182,123402,2,0,B|368:186|368:186|404:167,1,80,2|2,3:2|0:0,0:0:0:0:
193,61,123771,1,2,3:2:0:0:
232,237,123957,1,2,0:0:0:0:
70,120,124142,5,10,3:2:0:0:
65,144,124234,1,8,0:0:0:0:
61,168,124327,1,10,0:0:0:0:
57,193,124419,1,10,0:0:0:0:
52,219,124513,6,0,L|38:297,1,80,14|2,3:2|0:0,0:0:0:0:
120,361,124790,1,0,0:0:0:0:
136,358,124883,2,0,L|214:345,1,80,2|2,3:2|0:0,0:0:0:0:
341,155,125253,5,6,3:2:0:0:
186,187,125439,1,2,0:0:0:0:
214,344,125623,1,2,3:2:0:0:
372,314,125809,1,2,0:0:0:0:
75,274,125994,6,0,B|87:213|87:213|61:162|61:162|72:102,1,179.999994506836,6|0,3:2|0:0,0:0:0:0:
249,26,126364,2,0,B|203:18|174:64|174:64|164:11|115:6,1,179.999994506836,6|0,3:2|0:0,0:0:0:0:
273,136,126734,6,0,B|315:162|357:115|344:107|388:63|431:100,1,179.999994506836,6|0,3:2|0:0,0:0:0:0:
512,222,127105,2,0,B|487:195|452:188|419:200|400:241|400:241|416:263|436:267,1,179.999994506836,6|0,3:2|0:0,0:0:0:0:
308,322,127475,6,0,L|293:241,1,59.9999981689454,14|0,3:2|0:0,0:0:0:0:
273,136,127660,1,10,0:0:0:0:
205,341,127845,2,0,L|190:260,1,59.9999981689454,14|0,3:2|0:0,0:0:0:0:
170,155,128030,1,10,0:0:0:0:
95,358,128216,6,0,B|88:315|88:315|64:283|64:283|76:241|76:241|66:190,1,179.999994506836,14|0,3:2|0:0,0:0:0:0:
43,77,128586,2,0,B|72:36|72:36|152:22|152:22|191:52,1,179.999994506836,14|0,3:2|0:0,0:0:0:0:
273,136,128957,5,14,3:2:0:0:
474,104,129142,1,10,0:0:0:0:
400,294,129327,1,14,3:2:0:0:
364,81,129512,1,10,0:0:0:0:
273,306,129697,6,0,L|288:225,1,59.9999981689454,14|0,3:2|0:0,0:0:0:0:
153,128,129883,2,0,L|163:186,1,59.9999981689454,10|0,0:0|0:0,0:0:0:0:
289,308,130068,2,0,L|304:227,1,59.9999981689454,14|0,3:2|0:0,0:0:0:0:
171,127,130254,2,0,L|181:185,1,59.9999981689454,10|0,0:0|0:0,0:0:0:0:
108,349,130438,5,6,3:2:0:0:
105,334,130531,1,2,0:0:0:0:
102,319,130624,2,0,L|89:250,1,59.9999981689454,10|2,0:0|0:0,0:0:0:0:
5,201,130808,1,6,3:2:0:0:
8,186,130901,1,2,0:0:0:0:
11,171,130994,2,0,L|24:102,1,59.9999981689454,10|2,0:0|0:0,0:0:0:0:
126,35,131179,5,6,3:2:0:0:
168,4,131272,1,2,0:0:0:0:
219,5,131365,1,10,0:0:0:0:
261,30,131457,1,2,0:0:0:0:
282,76,131550,1,6,3:2:0:0:
274,127,131642,1,2,0:0:0:0:
239,163,131735,1,10,0:0:0:0:
190,177,131827,1,2,0:0:0:0:
147,156,131919,5,6,0:0:0:0:
255,191,134142,5,10,3:2:0:0:
289,164,134234,1,8,0:0:0:0:
332,162,134327,1,8,0:0:0:0:
369,184,134419,1,8,0:0:0:0:
387,223,134512,1,8,0:0:0:0:
61,321,134883,5,4,0:0:0:0:
