osu file format v14

[General]
AudioFilename: audio.mp3
AudioLeadIn: 0
PreviewTime: 36757
Countdown: 0
SampleSet: Soft
StackLeniency: 0.7
Mode: 2
LetterboxInBreaks: 0
WidescreenStoryboard: 1

[Editor]
Bookmarks: 36757,81756
DistanceSpacing: 1.3
BeatDivisor: 6
GridSize: 8
TimelineZoom: 0.8000001

[Metadata]
Title:Trees...
TitleUnicode:Trees...
Artist:Pedro Silva
ArtistUnicode:Pedro Silva
Creator:Hivie
Version:Cup...
Source:OMORI
Tags:video game videogame vgm ost soundtrack original instrumental kel aubrey hero omori sunny mari basil chiptune tranquility omocat 012 12
BeatmapID:3508082
BeatmapSetID:1716701

[Difficulty]
HPDrainRate:4
CircleSize:3
OverallDifficulty:5
ApproachRate:5
SliderMultiplier:3.59999990463257
SliderTickRate:1

[Events]
//Background and Video events
0,0,"play omori.jpg",0,0
//Break Periods
2,2200,5943
2,8628,12372
2,15057,18861
2,21485,25227
//Storyboard Layer 0 (Background)
//Storyboard Layer 1 (Fail)
//Storyboard Layer 2 (Pass)
//Storyboard Layer 3 (Foreground)
//Storyboard Layer 4 (Overlay)
//Storyboard Sound Samples

[TimingPoints]
715,1285.70510210641,5,2,0,55,1,0
715,-66.6666666666667,5,2,0,55,0,0
20061,1224.48979591837,6,2,0,55,1,0
20061,-66.6666666666667,6,2,0,55,0,0
26427,1285.70510210641,5,2,0,55,1,0
26427,-66.6666666666667,5,2,0,55,0,0
30418,1224.48979591837,5,2,0,55,1,0
30418,-66.6666666666667,5,2,0,55,0,0
31616,1285.70510210641,5,2,0,55,1,0
31616,-66.6666666666667,5,2,0,55,0,0
36712,1285.70510210641,5,2,0,55,1,0
36712,-66.6666666666667,5,2,0,55,0,0
54712,1285.70510210641,4,2,0,55,1,0
54712,-66.6666666666667,4,2,0,55,0,0
59854,1285.70510210641,5,2,0,55,1,0
59854,-66.6666666666667,5,2,0,55,0,0
71425,1285.70510210641,4,2,0,55,1,0
71425,-66.6666666666667,4,2,0,55,0,0
110421,-66.6666666666667,3,2,0,50,0,0
110850,-66.6666666666667,3,2,0,45,0,0
111279,-66.6666666666667,3,2,0,40,0,0
111707,-66.6666666666667,3,2,0,35,0,0
112136,-66.6666666666667,3,2,0,30,0,0
112564,-66.6666666666667,3,2,0,25,0,0
112993,-66.6666666666667,3,2,0,20,0,0
113421,-66.6666666666667,3,2,0,15,0,0
113850,-66.6666666666667,3,2,0,10,0,0
114279,-66.6666666666667,3,2,0,5,0,0

[Colours]
Combo1 : 151,64,255
Combo2 : 115,235,242
Combo3 : 200,155,255
Combo4 : 245,108,102

[HitObjects]
38,355,715,54,0,P|207:200|34:9,1,539.999985694885,0|2,0:0|0:0,0:0:0:0:
474,355,7143,6,0,P|305:200|478:9,1,539.999985694885,0|2,0:0|0:0,0:0:0:0:
36,326,13572,6,0,P|303:254|357:20,1,539.999985694885,0|2,0:0|0:0,0:0:0:0:
476,326,20061,6,0,P|209:254|153:20,1,539.999985694885,2|2,0:0|0:0,0:0:0:0:
154,360,26427,6,0,P|224:113|476:58,1,539.999985694885,0|2,0:0|0:0,0:0:0:0:
354,50,30418,1,0,0:0:0:0:
358,360,31616,6,0,P|288:113|36:58,1,539.999985694885,2|0,0:0|0:0,0:0:0:0:
256,192,34187,12,0,36330,0:0:0:0:
314,288,36712,6,0,P|431:161|295:114,1,359.999990463257,2|0,0:0|0:0,0:0:0:0:
198,288,37997,2,0,P|81:161|217:114,1,359.999990463257,2|0,0:0|0:0,0:0:0:0:
380,335,39283,6,0,P|310:88|58:33,1,539.999985694885,2|2,0:0|0:0,0:0:0:0:
97,125,40997,1,0,0:0:0:0:
202,206,41425,1,0,0:0:0:0:
332,307,41854,2,0,P|234:267|211:38,1,359.999990463257,2|0,0:0|0:0,0:0:0:0:
418,246,43140,6,0,P|485:118|303:54,1,359.999990463257,2|0,0:0|0:0,0:0:0:0:
175,50,44425,2,0,P|58:172|186:265,1,359.999990463257,2|0,0:0|0:0,0:0:0:0:
355,370,45711,6,0,P|435:186|378:11,1,359.999990463257,2|0,0:0|0:0,0:0:0:0:
289,33,46996,2,0,P|203:99|199:345,1,359.999990463257,2|0,0:0|0:0,0:0:0:0:
292,282,48282,2,0,B|107:280|107:280|108:72,1,359.999990463257
325,288,49569,6,0,P|442:161|306:114,1,359.999990463257,2|0,0:0|0:0,0:0:0:0:
209,288,50853,2,0,P|92:161|228:114,1,359.999990463257,2|0,0:0|0:0,0:0:0:0:
400,41,52140,6,0,P|148:95|78:343,1,539.999985694885,2|2,0:0|0:0,0:0:0:0:
203,333,53854,1,0,0:0:0:0:
319,330,54283,1,0,0:0:0:0:
112,333,54711,6,0,P|166:138|227:331,1,539.999985694885,2|2,0:0|0:0,0:0:0:0:
122,86,56426,1,0,0:0:0:0:
71,85,56854,1,0,0:0:0:0:
151,32,57283,6,0,B|311:32|311:32|311:280,1,359.999990463257,2|0,0:0|0:0,0:0:0:0:
471,32,58569,2,0,B|311:32|311:32|311:280,1,359.999990463257,2|0,0:0|0:0,0:0:0:0:
127,273,59854,6,0,P|10:146|146:99,1,359.999990463257,2|0,0:0|0:0,0:0:0:0:
243,273,61139,2,0,P|360:146|224:99,1,359.999990463257,2|0,0:0|0:0,0:0:0:0:
96,186,62426,6,0,B|96:331|96:331|354:331,1,359.999990463257,2|0,0:0|0:0,0:0:0:0:
415,333,63711,2,0,P|404:169|175:175,1,359.999990463257
67,227,64997,2,0,B|155:225|155:225|155:122,1,179.999995231629,2|0,0:0|0:0,0:0:0:0:
155,49,65854,1,0,0:0:0:0:
371,263,66283,6,0,P|438:135|256:71,1,359.999990463257,2|0,0:0|0:0,0:0:0:0:
136,76,67568,2,0,P|19:198|147:291,1,359.999990463257,2|0,0:0|0:0,0:0:0:0:
320,216,68854,6,0,B|320:312|320:312|208:312,1,179.999995231629,2|0,0:0|0:0,0:0:0:0:
146,312,69711,1,0,0:0:0:0:
56,312,70140,2,0,P|26:162|154:9,1,359.999990463257,2|0,0:0|0:0,0:0:0:0:
368,253,71425,6,0,P|485:126|349:79,1,359.999990463257,2|0,0:0|0:0,0:0:0:0:
252,253,72711,2,0,P|135:126|271:79,1,359.999990463257,2|0,0:0|0:0,0:0:0:0:
434,37,73997,6,0,B|132:37|132:37|130:343,1,539.999985694885,2|2,0:0|0:0,0:0:0:0:
245,297,75711,2,0,B|336:296|336:296|336:192,1,179.999995231629
129,300,76568,6,0,P|183:105|244:298,1,539.999985694885,2|2,0:0|0:0,0:0:0:0:
139,53,78283,1,0,0:0:0:0:
91,53,78711,1,0,0:0:0:0:
272,52,79140,6,0,B|136:53|136:53|136:301,1,359.999990463257,2|0,0:0|0:0,0:0:0:0:
0,52,80425,2,0,B|136:53|136:53|136:301,1,359.999990463257,2|0,0:0|0:0,0:0:0:0:
362,349,81711,6,0,P|149:333|40:47,1,539.999985694885,2|0,0:0|0:0,0:0:0:0:
358,360,84283,2,0,P|288:113|36:58,1,539.999985694885,2|0,0:0|0:0,0:0:0:0:
448,354,86854,6,0,P|279:199|452:8,1,539.999985694885,2|0,0:0|0:0,0:0:0:0:
114,208,89425,2,0,P|248:295|498:75,1,539.999985694885,2|0,0:0|0:0,0:0:0:0:
64,354,91997,6,0,P|233:199|60:8,1,539.999985694885,2|0,0:0|0:0,0:0:0:0:
349,203,94568,2,0,P|264:295|26:74,1,539.999985694885,2|0,0:0|0:0,0:0:0:0:
322,326,97140,6,0,P|385:134|438:329,1,539.999985694885,2|0,0:0|0:0,0:0:0:0:
483,108,99710,2,0,P|402:253|158:66,1,539.999985694885,2|0,0:0|0:0,0:0:0:0:
475,316,102281,6,0,P|177:254|96:3,1,539.999985694885,2|0,0:0|0:0,0:0:0:0:
345,369,104853,2,0,P|390:167|95:79,1,539.999985694885,2|0,0:0|0:0,0:0:0:0:
416,345,107425,6,0,B|453:-24|31:353|123:-7,1,539.999985694885,2|0,0:0|0:0,0:0:0:0:
256,192,109996,12,0,118567,0:0:0:0:
