osu file format v14

[General]
AudioFilename: audio.mp3
AudioLeadIn: 0
PreviewTime: 760
Countdown: 0
SampleSet: Normal
StackLeniency: 0.7
Mode: 1
LetterboxInBreaks: 0
WidescreenStoryboard: 1

[Editor]
DistanceSpacing: 1.3
BeatDivisor: 4
GridSize: 32
TimelineZoom: 2.3

[Metadata]
Title:Trees...
TitleUnicode:Trees...
Artist:Pedro Silva
ArtistUnicode:Pedro Silva
Creator:Friggy-chan
Version:Kantan...
Source:OMORI
Tags:video game videogame vgm ost soundtrack original instrumental kel aubrey hero omori sunny mari basil chiptune tranquility omocat 012 12
BeatmapID:3276207
BeatmapSetID:1604344

[Difficulty]
HPDrainRate:10
CircleSize:5
OverallDifficulty:2
ApproachRate:5
SliderMultiplier:1.4
SliderTickRate:1

[Events]
//Background and Video events
0,0,"wallpaperflare.com_wallpaper.jpg",0,-120
//Break Periods
2,2245,5988
2,8673,12416
2,15101,18905
2,21529,25272
2,31814,35557
//Storyboard Layer 0 (Background)
//Storyboard Layer 1 (Fail)
//Storyboard Layer 2 (Pass)
//Storyboard Layer 3 (Foreground)
//Storyboard Layer 4 (Overlay)
//Storyboard Sound Samples

[TimingPoints]
760,857.142857142857,8,1,0,55,1,0
7188,857.142857142857,8,1,0,55,1,0
13616,857.142857142857,8,1,0,55,1,0
20105,857.142857142857,8,1,0,55,1,0
26472,857.142857142857,6,1,0,55,1,0
36757,857.142857142857,3,1,0,55,1,0
39328,857.142857142857,5,1,0,55,1,0
43185,857.142857142857,3,1,0,55,1,0
45756,857.142857142857,5,1,0,55,1,0
49614,857.142857142857,3,1,0,55,1,0
62471,857.142857142857,5,1,0,55,1,0
66328,857.142857142857,3,1,0,55,1,0
110470,-100,3,1,0,50,0,0
110899,-100,3,1,0,45,0,0
111328,-100,3,1,0,40,0,0
111756,-100,3,1,0,35,0,0
112185,-100,3,1,0,30,0,0
112613,-100,3,1,0,25,0,0
113042,-100,3,1,0,20,0,0
113470,-100,3,1,0,15,0,0
113899,-100,3,1,0,10,0,0
114328,-100,3,1,0,5,0,0

[HitObjects]
256,192,760,5,0,0:0:0:0:
256,192,2045,1,8,0:0:0:0:
256,192,7188,5,0,0:0:0:0:
256,192,8473,1,8,0:0:0:0:
256,192,13616,5,0,0:0:0:0:
256,192,14901,1,8,0:0:0:0:
256,192,20105,5,8,0:0:0:0:
256,192,21329,1,8,0:0:0:0:
256,192,26472,5,0,0:0:0:0:
256,192,27757,1,8,0:0:0:0:
256,192,30472,1,0,0:0:0:0:
256,192,31614,1,8,0:0:0:0:
256,192,36757,5,0,0:0:0:0:
256,192,38042,1,0,0:0:0:0:
256,192,39328,1,8,0:0:0:0:
256,192,43185,5,8,0:0:0:0:
256,192,44470,1,8,0:0:0:0:
256,192,45756,1,0,0:0:0:0:
256,192,49613,5,0,0:0:0:0:
256,192,50899,1,8,0:0:0:0:
256,192,52185,1,0,0:0:0:0:
256,192,53471,1,0,0:0:0:0:
256,192,54756,5,8,0:0:0:0:
256,192,57328,5,8,0:0:0:0:
256,192,59899,5,0,0:0:0:0:
256,192,61185,1,8,0:0:0:0:
256,192,63756,5,8,0:0:0:0:
256,192,66328,5,0,0:0:0:0:
256,192,67613,1,0,0:0:0:0:
256,192,68899,1,8,0:0:0:0:
256,192,71470,5,0,0:0:0:0:
256,192,72756,1,8,0:0:0:0:
256,192,75328,1,0,0:0:0:0:
256,192,76613,1,8,0:0:0:0:
256,192,79185,5,8,0:0:0:0:
256,192,81756,5,8,0:0:0:0:
256,192,83042,1,0,0:0:0:0:
256,192,84328,1,8,0:0:0:0:
256,192,86899,1,8,0:0:0:0:
256,192,88185,1,0,0:0:0:0:
256,192,89470,1,8,0:0:0:0:
256,192,92042,1,8,0:0:0:0:
256,192,93328,1,0,0:0:0:0:
256,192,94613,1,8,0:0:0:0:
256,192,97185,1,0,0:0:0:0:
256,192,97828,1,8,0:0:0:0:
256,192,98470,1,0,0:0:0:0:
256,192,99756,1,8,0:0:0:0:
256,192,102328,1,8,0:0:0:0:
256,192,103613,1,0,0:0:0:0:
256,192,104899,1,8,0:0:0:0:
256,192,107470,1,8,0:0:0:0:
256,192,108756,1,0,0:0:0:0:
256,192,110042,1,8,0:0:0:0:
256,192,110470,12,0,115613,0:0:0:0:
