osu file format v14

[General]
AudioFilename: audio.mp3
AudioLeadIn: 0
PreviewTime: 303
Countdown: 0
SampleSet: Soft
StackLeniency: 0.7
Mode: 2
LetterboxInBreaks: 0
WidescreenStoryboard: 0

[Editor]
Bookmarks: 303,8162,16021,23880,31739
DistanceSpacing: 5.7
BeatDivisor: 4
GridSize: 16
TimelineZoom: 1

[Metadata]
Title:Push & Shove
TitleUnicode:Push & Shove
Artist:Pedro Silva
ArtistUnicode:Pedro Silva
Creator:Mniam
Version:Cup
Source:OMORI
Tags:vgm video game original sunny kel chiptune soundtrack ost 009 instrumental fight and Natsuko -Rustyy Phob r-34 kfc nugget
BeatmapID:3611351
BeatmapSetID:1764363

[Difficulty]
HPDrainRate:2
CircleSize:1.5
OverallDifficulty:6
ApproachRate:6
SliderMultiplier:2.05
SliderTickRate:0.5

[Events]
//Background and Video events
0,0,"1148024.png",0,0
//Break Periods
//Storyboard Layer 0 (Background)
//Storyboard Layer 1 (Fail)
//Storyboard Layer 2 (Pass)
//Storyboard Layer 3 (Foreground)
//Storyboard Layer 4 (Overlay)
//Storyboard Sound Samples

[TimingPoints]
300,491.311966721803,4,2,1,30,1,0
300,-36.2190812720848,4,2,1,30,0,0
8160,-36.2190812720848,4,2,1,40,0,0
16021,-36.2190812720848,4,2,1,30,0,0
23882,-36.2190812720848,4,2,1,40,0,0
31743,-36.2190812720848,4,2,1,30,0,0
33709,-36.2190812720848,4,2,1,25,0,0
35674,-36.2190812720848,4,2,1,20,0,0
36165,-36.2190812720848,4,2,1,18,0,0
36657,-36.2190812720848,4,2,1,16,0,0
37148,-36.2190812720848,4,2,1,14,0,0
37639,-36.2190812720848,4,2,1,12,0,0
38131,-36.2190812720848,4,2,1,10,0,0
38622,-36.2190812720848,4,2,1,8,0,0
39113,-36.2190812720848,4,2,1,6,0,0
39604,-36.2190812720848,4,2,1,5,0,0

[Colours]
Combo1 : 189,233,141
Combo2 : 192,122,216
Combo3 : 225,140,204
Combo4 : 250,206,163

[HitObjects]
160,192,300,6,0,L|198:246|198:246|217:309|217:309|233:373|233:373|240:308|240:308|262:246|262:246|301:194|301:194|326:133|326:133|364:80|364:80|365:39|365:39,1,566,10|10,0:3|3:3,0:0:0:0:
208,192,1159,2,0,B|185:272|185:272|161:352|161:352|132:274|132:274|104:196|104:196|114:113|114:113|139:33|139:33|148:116|148:116|196:231|196:231,1,707.5,10|8,0:3|0:0,0:0:0:0:
432,192,2265,6,0,L|426:257|426:257|393:313|393:313|343:355|343:355|320:294|320:294|300:231|300:231|297:166|297:166|282:102|282:102|227:10|227:10,1,566,10|10,0:3|3:3,0:0:0:0:
384,192,3124,2,0,B|401:274|401:274|446:344|446:344|459:262|459:262|488:184|488:184|477:102|477:102|461:20|461:20|425:95|425:95|396:216|396:216,1,707.5,10|8,0:3|0:0,0:0:0:0:
288,48,3984,1,2,3:1:0:0:
160,192,4230,6,0,L|198:246|198:246|225:306|225:306|246:368|246:368|242:303|242:303|262:240|262:240|302:188|302:188|332:130|332:130|365:28|365:28,1,566,10|10,0:3|3:3,0:0:0:0:
208,224,5090,2,0,B|179:302|179:302|131:370|131:370|128:287|128:287|98:209|98:209|81:127|81:127|79:44|79:44|93:126|93:126|146:239|146:239,1,707.5,10|8,0:3|0:0,0:0:0:0:
384,192,6195,6,0,L|345:245|345:245|320:305|320:305|304:369|304:369|305:303|305:303|260:255|260:255|253:190|253:190|232:128|232:128|179:35|179:35,1,566,10|10,0:3|3:3,0:0:0:0:
336,208,7055,2,0,B|344:291|344:291|387:362|387:362|372:280|372:280|381:197|381:197|378:114|378:114|344:38|344:38|325:119|325:119|273:232|273:232,1,707.5,10|8,0:3|0:0,0:0:0:0:
160,224,7915,1,2,0:1:0:0:
32,224,8160,5,10,0:3:0:0:
32,224,8406,1,10,0:1:0:0:
32,224,8652,1,10,3:3:0:0:
192,224,9020,2,0,L|227:313|227:313|278:232|278:232|311:142|311:142|346:9|346:9,1,424.5,8|10,0:1|3:1,0:0:0:0:
352,112,9634,1,8,0:1:0:0:
112,128,10126,5,10,0:3:0:0:
112,128,10372,1,10,0:1:0:0:
112,128,10618,1,10,3:3:0:0:
272,224,10986,2,0,L|299:316|299:316|353:237|353:237|395:151|395:151|426:17|426:17,1,424.5,8|10,0:1|3:1,0:0:0:0:
432,112,11600,1,8,0:1:0:0:
320,112,11845,1,10,3:1:0:0:
448,224,12091,5,10,0:3:0:0:
448,224,12337,1,10,0:1:0:0:
448,224,12583,1,10,3:3:0:0:
288,224,12951,2,0,L|257:315|257:315|229:224|229:224|176:144|176:144|134:13|134:13,1,424.5,8|10,0:1|3:1,0:0:0:0:
128,112,13565,1,8,0:1:0:0:
368,128,14057,5,10,0:3:0:0:
368,128,14303,1,10,0:1:0:0:
160,128,14793,1,2,0:3:0:0:
272,128,15039,1,0,0:0:0:0:
384,128,15285,1,2,0:1:0:0:
384,128,15531,1,8,3:0:0:0:
272,128,15776,1,2,0:1:0:0:
400,128,16021,6,0,B|424:195|424:195|426:266|426:266|477:315|477:315|470:385|470:385|466:314|466:314|482:245|482:245|484:174|484:174|488:103|488:103|478:33|478:33|459:101|459:101|475:170|475:170|446:234|446:234|432:303|432:303|396:364|396:364|367:299|367:299|351:230|351:230|324:133|324:133|289:38|289:38|241:127|241:127|208:222|208:222|195:322|195:322|178:222|178:222|185:121|185:121|197:263|197:263,1,1981,10|10,0:3|3:1,0:0:0:0:
314,214,17987,6,0,B|339:280|339:280|340:351|340:351|320:283|320:283|309:213|309:213|314:142|314:142|291:75|291:75|279:5|279:5|241:64|241:64|251:134|251:134|200:183|200:183|204:254|204:254|154:304|154:304|124:368|124:368|119:297|119:297|94:231|94:231|68:165|68:165|38:69|38:69|42:170|42:170|11:266|11:266|8:367|8:367|35:270|35:270|41:169|41:169|57:69|57:69|112:200|112:200,1,1981,10|2,0:3|3:1,0:0:0:0:
224,64,19952,6,0,B|253:129|253:129|273:197|273:197|312:256|312:256|322:326|322:326|330:256|330:256|373:200|373:200|391:132|391:132|426:71|426:71|437:1|437:1|435:72|435:72|425:142|425:142|434:212|434:212|435:283|435:283|443:353|443:353|417:287|417:287|422:216|422:216|385:122|385:122|384:21|384:21|350:116|350:116|301:204|301:204|279:303|279:303|216:382|216:382|210:281|210:281|158:148|158:148,1,1981,10|2,0:3|3:1,0:0:0:0:
48,224,21917,6,0,B|36:294|36:294|40:365|40:365|28:295|28:295|29:224|29:224|33:153|33:153|36:82|36:82|47:12|47:12|43:83|43:83|71:148|71:148|104:211|104:211|126:278|126:278|153:344|153:344|167:275|167:275|186:207|186:207|233:154|233:154|240:84|240:84|260:183|260:183|305:273|305:273|312:374|312:374|355:283|355:283|368:183|368:183|375:82|375:82|340:177|340:177|339:319|339:319,1,1981,10|2,0:3|0:1,0:0:0:0:
208,256,23882,5,10,0:3:0:0:
96,256,24128,1,10,0:1:0:0:
208,256,24374,1,10,0:3:0:0:
368,160,24742,2,0,L|323:245|323:245|280:330|280:330|280:234|280:234|214:114|214:114,1,424.5,8|10,0:1|0:1,0:0:0:0:
112,160,25356,1,8,0:1:0:0:
352,64,25848,5,10,0:3:0:0:
464,64,26094,1,10,0:1:0:0:
352,64,26340,1,10,0:3:0:0:
192,160,26708,2,0,L|232:247|232:247|255:340|255:340|284:249|284:249|346:126|346:126,1,424.5,8|10,0:1|0:1,0:0:0:0:
448,160,27322,1,8,0:1:0:0:
448,160,27567,1,10,0:3:0:0:
320,192,27813,5,10,0:3:0:0:
208,192,28059,1,10,0:1:0:0:
320,192,28305,1,10,0:3:0:0:
480,240,28673,2,0,L|457:333|457:333|424:243|424:243|394:152|394:152|326:33|326:33,1,424.5,8|10,0:1|0:1,0:0:0:0:
224,240,29287,1,8,0:1:0:0:
464,64,29778,5,10,0:3:0:0:
352,64,30024,1,10,0:1:0:0:
144,160,30515,1,2,0:3:0:0:
256,160,30761,1,0,0:0:0:0:
368,160,31007,1,2,0:1:0:0:
368,160,31253,1,8,0:0:0:0:
256,160,31498,1,2,0:2:0:0:
128,160,31743,6,0,B|102:220|102:220|95:285|95:285|58:339|58:339|41:276|41:276|64:215|64:215|72:150|72:150|74:84|74:84|122:180|122:180,1,566,10|10,0:3|3:3,0:0:0:0:
288,160,32603,2,0,L|249:233|249:233|221:311|221:311|199:231|199:231|161:157|161:157|142:76|142:76|113:154|113:154|58:216|58:216|32:338|32:338,1,707.5,10|8,0:3|0:0,0:0:0:0:
272,160,33709,6,0,B|299:220|299:220|318:283|318:283|321:348|321:348|361:296|361:296|328:239|328:239|331:174|331:174|319:110|319:110|278:11|278:11,1,566,10|10,0:3|3:3,0:0:0:0:
112,160,34569,2,0,L|134:240|134:240|172:314|172:314|187:232|187:232|244:171|244:171|278:95|278:95|299:14|299:14|340:86|340:86|368:207|368:207,1,707.5,10|8,0:3|0:0,0:0:0:0:
256,192,35674,12,0,39604,0:0:0:0:
