osu file format v14

[General]
AudioFilename: justleavemealone.ogg
AudioLeadIn: 0
PreviewTime: 895
Countdown: 0
SampleSet: Soft
StackLeniency: 0.7
Mode: 3
LetterboxInBreaks: 0
SpecialStyle: 0
WidescreenStoryboard: 0

[Editor]
DistanceSpacing: 0.8
BeatDivisor: 4
GridSize: 16
TimelineZoom: 2.2

[Metadata]
Title:Just Leave Me Alone
TitleUnicode:Just Leave Me Alone
Artist:Pedro Silva
ArtistUnicode:Pedro Silva
Creator:Shad0wStar
Version:Who cares what MARI thinks?
Source:OMORI
Tags:ost original soundtrack pt 1 track 057 aubrey video game videogame instrumental chordjack faraway town
BeatmapID:4063522
BeatmapSetID:1960740

[Difficulty]
HPDrainRate:8.5
CircleSize:4
OverallDifficulty:8.5
ApproachRate:5
SliderMultiplier:1.4
SliderTickRate:1

[Events]
//Background and Video events
0,0,"342.jpg",0,0
//Break Periods
//Storyboard Layer 0 (Background)
//Storyboard Layer 1 (Fail)
//Storyboard Layer 2 (Pass)
//Storyboard Layer 3 (Foreground)
//Storyboard Layer 4 (Overlay)
//Storyboard Sound Samples

[TimingPoints]
895,312.5,4,2,1,50,1,0
15895,-100,4,2,1,50,0,1
22145,-100,4,2,1,50,0,0
22223,312.5,4,2,1,50,1,0
29019,312.5,4,2,1,50,1,0
29644,312.5,4,2,1,50,1,0
34917,312.5,4,2,1,50,1,0
35854,312.5,4,2,1,50,1,0

[HitObjects]
64,192,895,5,8,0:0:0:35:
320,192,895,1,4,0:0:0:20:
448,192,895,1,0,0:0:0:0:
64,192,1207,1,4,0:0:0:20:
192,192,1207,1,8,0:0:0:35:
448,192,1207,1,0,0:0:0:0:
64,192,1520,1,8,0:0:0:35:
320,192,1520,1,4,0:0:0:20:
448,192,1520,1,0,0:0:0:0:
64,192,1676,1,2,0:0:0:35:
192,192,1676,1,0,0:0:0:0:
64,192,1832,1,8,0:0:0:35:
320,192,1832,1,0,0:0:0:0:
448,192,1832,1,0,0:0:0:0:
192,192,1988,1,2,0:0:0:35:
448,192,1988,1,0,0:0:0:0:
64,192,2145,1,4,0:0:0:20:
320,192,2145,1,8,0:0:0:35:
448,192,2145,1,0,0:0:0:0:
64,192,2457,1,8,0:0:0:35:
320,192,2457,1,4,0:0:0:20:
448,192,2457,1,0,0:0:0:0:
64,192,2770,1,8,0:0:0:35:
320,192,2770,1,4,0:0:0:20:
448,192,2770,1,0,0:0:0:0:
64,192,2926,1,2,0:0:0:35:
192,192,2926,1,0,0:0:0:0:
64,192,3082,1,8,0:0:0:35:
320,192,3082,1,0,0:0:0:0:
448,192,3082,1,0,0:0:0:0:
192,192,3238,1,2,0:0:0:35:
448,192,3238,1,0,0:0:0:0:
64,192,3395,1,8,0:0:0:35:
320,192,3395,1,4,0:0:0:20:
448,192,3395,1,0,0:0:0:0:
64,192,3551,1,2,0:0:0:35:
192,192,3551,1,0,0:0:0:0:
64,192,3707,1,2,0:0:0:35:
192,192,3707,1,0,0:0:0:0:
192,192,3863,1,8,0:0:0:35:
320,192,3863,1,4,0:0:0:20:
448,192,3863,1,0,0:0:0:0:
64,192,4020,1,2,0:0:0:35:
448,192,4020,1,0,0:0:0:0:
64,192,4176,1,2,0:0:0:35:
448,192,4176,1,0,0:0:0:0:
64,192,4332,1,8,0:0:0:35:
192,192,4332,1,4,0:0:0:20:
320,192,4332,1,0,0:0:0:0:
320,192,4488,1,2,0:0:0:35:
448,192,4488,1,0,0:0:0:0:
64,192,4645,1,4,0:0:0:20:
192,192,4645,1,8,0:0:0:35:
320,192,4723,1,8,0:0:0:35:
448,192,4723,1,0,0:0:0:0:
192,192,4801,1,8,0:0:0:35:
64,192,4879,1,8,0:0:0:35:
320,192,4957,1,8,0:0:0:35:
448,192,4957,1,0,0:0:0:0:
64,192,5035,1,8,0:0:0:35:
192,192,5035,1,0,0:0:0:0:
320,192,5113,1,8,0:0:0:35:
448,192,5191,1,8,0:0:0:35:
64,192,5270,1,4,0:0:0:20:
192,192,5270,1,8,0:0:0:35:
192,192,5426,1,2,0:0:0:35:
320,192,5426,1,8,0:0:0:35:
448,192,5426,1,0,0:0:0:0:
64,192,5582,1,2,0:0:0:35:
320,192,5582,1,8,0:0:0:35:
448,192,5582,1,4,0:0:0:20:
64,192,5738,1,2,0:0:0:35:
192,192,5738,1,8,0:0:0:35:
448,192,5738,1,0,0:0:0:0:
192,192,5895,1,2,0:0:0:35:
320,192,5895,1,0,0:0:0:0:
64,192,6207,1,8,0:0:0:35:
320,192,6207,1,4,0:0:0:20:
448,192,6207,1,0,0:0:0:0:
64,192,6441,1,8,0:0:0:35:
320,192,6441,1,0,0:0:0:0:
448,192,6441,1,0,0:0:0:0:
64,192,6520,1,2,0:0:0:35:
192,192,6520,1,0,0:0:0:0:
320,192,6676,1,2,0:0:0:35:
448,192,6676,1,0,0:0:0:0:
64,192,6832,1,8,0:0:0:35:
192,192,6832,1,4,0:0:0:20:
448,192,6832,1,0,0:0:0:0:
64,192,7066,1,8,0:0:0:35:
192,192,7066,1,0,0:0:0:0:
320,192,7066,1,0,0:0:0:0:
64,192,7145,1,2,0:0:0:35:
448,192,7145,1,0,0:0:0:0:
192,192,7301,1,2,0:0:0:35:
448,192,7301,1,0,0:0:0:0:
64,192,7457,1,8,0:0:0:35:
192,192,7457,1,4,0:0:0:20:
320,192,7457,1,0,0:0:0:0:
64,192,7613,1,8,0:0:0:35:
320,192,7613,1,0,0:0:0:0:
448,192,7613,1,0,0:0:0:0:
64,192,7770,1,2,0:0:0:35:
192,192,7770,1,0,0:0:0:0:
320,192,7926,1,2,0:0:0:35:
448,192,7926,1,0,0:0:0:0:
64,192,8082,1,8,0:0:0:35:
192,192,8082,1,4,0:0:0:20:
448,192,8082,1,0,0:0:0:0:
64,192,8316,1,8,0:0:0:35:
320,192,8316,1,0,0:0:0:0:
448,192,8316,1,0,0:0:0:0:
192,192,8395,1,2,0:0:0:35:
320,192,8395,1,0,0:0:0:0:
64,192,8707,1,8,0:0:0:35:
192,192,8707,1,4,0:0:0:20:
448,192,8707,1,0,0:0:0:0:
192,192,8941,1,8,0:0:0:35:
320,192,8941,1,0,0:0:0:0:
448,192,8941,1,0,0:0:0:0:
64,192,9020,1,2,0:0:0:35:
320,192,9020,1,0,0:0:0:0:
64,192,9176,1,2,0:0:0:35:
320,192,9176,1,0,0:0:0:0:
64,192,9332,1,8,0:0:0:35:
192,192,9332,1,4,0:0:0:20:
448,192,9332,1,0,0:0:0:0:
192,192,9566,1,8,0:0:0:35:
320,192,9566,1,0,0:0:0:0:
448,192,9566,1,0,0:0:0:0:
64,192,9645,1,2,0:0:0:35:
448,192,9645,1,0,0:0:0:0:
192,192,9801,1,2,0:0:0:35:
320,192,9801,1,0,0:0:0:0:
64,192,9957,1,8,0:0:0:35:
192,192,9957,1,4,0:0:0:20:
320,192,10035,1,8,0:0:0:35:
448,192,10035,1,0,0:0:0:0:
192,192,10113,1,8,0:0:0:35:
64,192,10191,1,8,0:0:0:35:
320,192,10270,1,2,0:0:0:35:
448,192,10270,1,0,0:0:0:0:
320,192,10426,1,2,0:0:0:35:
448,192,10426,1,0,0:0:0:0:
64,192,10582,1,4,0:0:0:20:
192,192,10582,1,8,0:0:0:35:
448,192,10582,1,0,0:0:0:0:
64,192,10738,1,8,0:0:0:35:
448,192,10738,1,0,0:0:0:0:
192,192,10816,1,8,0:0:0:35:
64,192,10895,1,2,0:0:0:35:
320,192,10895,1,0,0:0:0:0:
64,192,11207,1,8,0:0:0:35:
192,192,11207,1,4,0:0:0:20:
448,192,11207,1,0,0:0:0:0:
64,192,11441,1,8,0:0:0:35:
192,192,11441,1,0,0:0:0:0:
448,192,11441,1,0,0:0:0:0:
320,192,11520,1,2,0:0:0:35:
448,192,11520,1,0,0:0:0:0:
64,192,11676,1,2,0:0:0:35:
192,192,11676,1,0,0:0:0:0:
64,192,11832,1,4,0:0:0:20:
320,192,11832,1,8,0:0:0:35:
448,192,11832,1,0,0:0:0:0:
192,192,12066,1,8,0:0:0:35:
320,192,12066,1,0,0:0:0:0:
448,192,12066,1,0,0:0:0:0:
64,192,12145,1,2,0:0:0:35:
448,192,12145,1,0,0:0:0:0:
64,192,12301,1,2,0:0:0:35:
320,192,12301,1,0,0:0:0:0:
192,192,12457,1,8,0:0:0:35:
320,192,12457,1,4,0:0:0:20:
448,192,12457,1,0,0:0:0:0:
64,192,12613,1,8,0:0:0:35:
192,192,12613,1,0,0:0:0:0:
448,192,12613,1,0,0:0:0:0:
320,192,12770,1,2,0:0:0:35:
448,192,12770,1,0,0:0:0:0:
64,192,12926,1,2,0:0:0:35:
192,192,12926,1,0,0:0:0:0:
64,192,13082,1,8,0:0:0:35:
320,192,13082,1,4,0:0:0:20:
448,192,13082,1,0,0:0:0:0:
64,192,13316,1,8,0:0:0:35:
192,192,13316,1,0,0:0:0:0:
448,192,13316,1,0,0:0:0:0:
192,192,13395,1,2,0:0:0:35:
320,192,13395,1,0,0:0:0:0:
64,192,13707,1,8,0:0:0:35:
320,192,13707,1,4,0:0:0:20:
448,192,13707,1,0,0:0:0:0:
64,192,13941,1,8,0:0:0:35:
192,192,13941,1,0,0:0:0:0:
320,192,13941,1,0,0:0:0:0:
192,192,14020,1,2,0:0:0:35:
448,192,14020,1,0,0:0:0:0:
192,192,14176,1,2,0:0:0:35:
448,192,14176,1,0,0:0:0:0:
64,192,14332,1,8,0:0:0:35:
320,192,14332,1,4,0:0:0:20:
448,192,14332,1,0,0:0:0:0:
64,192,14566,1,8,0:0:0:35:
192,192,14566,1,0,0:0:0:0:
320,192,14566,1,0,0:0:0:0:
64,192,14645,1,2,0:0:0:35:
448,192,14645,1,0,0:0:0:0:
320,192,14801,1,2,0:0:0:35:
448,192,14801,1,0,0:0:0:0:
320,192,14957,1,2,0:0:0:35:
448,192,14957,1,0,0:0:0:0:
320,192,15113,1,2,0:0:0:35:
448,192,15113,1,0,0:0:0:0:
64,192,15270,1,2,0:0:0:35:
192,192,15270,1,0,0:0:0:0:
64,192,15426,1,2,0:0:0:35:
192,192,15426,1,0,0:0:0:0:
64,192,15582,1,8,0:0:0:35:
320,192,15582,1,4,0:0:0:20:
448,192,15582,1,0,0:0:0:0:
64,192,15738,1,8,0:0:0:35:
448,192,15738,1,0,0:0:0:0:
320,192,15816,1,8,0:0:0:35:
64,192,15895,1,8,0:0:0:35:
192,192,15895,1,4,0:0:0:20:
448,192,15895,1,0,0:0:0:0:
192,192,16051,1,2,0:0:0:35:
320,192,16051,1,0,0:0:0:0:
64,192,16207,1,8,0:0:0:35:
320,192,16207,1,4,0:0:0:20:
448,192,16207,1,0,0:0:0:0:
64,192,16363,1,2,0:0:0:35:
192,192,16363,1,0,0:0:0:0:
64,192,16520,1,8,0:0:0:35:
320,192,16520,1,4,0:0:0:20:
448,192,16520,1,0,0:0:0:0:
192,192,16676,1,2,0:0:0:35:
448,192,16676,1,0,0:0:0:0:
192,192,16832,1,8,0:0:0:35:
320,192,16832,1,4,0:0:0:20:
448,192,16832,1,0,0:0:0:0:
64,192,16988,1,2,0:0:0:35:
320,192,16988,1,0,0:0:0:0:
64,192,17145,1,4,0:0:0:20:
192,192,17145,1,8,0:0:0:35:
448,192,17145,1,0,0:0:0:0:
320,192,17301,1,2,0:0:0:35:
448,192,17301,1,0,0:0:0:0:
64,192,17457,1,8,0:0:0:35:
192,192,17457,1,4,0:0:0:20:
320,192,17457,1,0,0:0:0:0:
192,192,17613,1,2,0:0:0:35:
320,192,17613,1,0,0:0:0:0:
64,192,17770,1,8,0:0:0:35:
192,192,17770,1,4,0:0:0:20:
448,192,17770,1,0,0:0:0:0:
64,192,17926,1,2,0:0:0:35:
448,192,17926,1,0,0:0:0:0:
192,192,18082,1,8,0:0:0:35:
320,192,18082,1,4,0:0:0:20:
448,192,18082,1,0,0:0:0:0:
64,192,18238,1,2,0:0:0:35:
192,192,18238,1,0,0:0:0:0:
64,192,18395,1,8,0:0:0:35:
320,192,18395,1,4,0:0:0:20:
448,192,18395,1,0,0:0:0:0:
192,192,18473,1,8,0:0:0:35:
64,192,18551,1,2,0:0:0:35:
448,192,18551,1,0,0:0:0:0:
192,192,18707,1,8,0:0:0:35:
320,192,18707,1,4,0:0:0:20:
448,192,18707,1,0,0:0:0:0:
64,192,18785,1,8,0:0:0:35:
192,192,18863,1,2,0:0:0:35:
320,192,18863,1,0,0:0:0:0:
64,192,19020,1,4,0:0:0:20:
192,192,19020,1,8,0:0:0:35:
448,192,19020,1,0,0:0:0:0:
320,192,19098,1,8,0:0:0:35:
64,192,19176,1,2,0:0:0:35:
448,192,19176,1,0,0:0:0:0:
192,192,19254,1,2,0:0:0:35:
64,192,19332,1,8,0:0:0:35:
320,192,19332,1,4,0:0:0:20:
448,192,19332,1,0,0:0:0:0:
64,192,19488,1,2,0:0:0:35:
192,192,19488,1,0,0:0:0:0:
320,192,19566,1,2,0:0:0:35:
448,192,19566,1,0,0:0:0:0:
64,192,19645,1,4,0:0:0:20:
192,192,19645,1,8,0:0:0:35:
320,192,19723,1,2,0:0:0:35:
64,192,19801,1,4,0:0:0:20:
192,192,19801,1,8,0:0:0:35:
448,192,19879,1,2,0:0:0:35:
64,192,19957,1,4,0:0:0:20:
192,192,19957,1,8,0:0:0:35:
320,192,20035,1,2,0:0:0:35:
64,192,20113,1,8,0:0:0:35:
192,192,20113,1,4,0:0:0:20:
448,192,20191,1,2,0:0:0:35:
64,192,20270,1,8,0:0:0:35:
192,192,20270,1,4,0:0:0:20:
320,192,20348,1,2,0:0:0:35:
64,192,20426,1,4,0:0:0:20:
192,192,20426,1,8,0:0:0:35:
448,192,20504,1,2,0:0:0:35:
64,192,20582,1,8,0:0:0:35:
192,192,20582,1,4,0:0:0:20:
320,192,20660,1,2,0:0:0:35:
64,192,20738,1,8,0:0:0:35:
448,192,20738,1,4,0:0:0:20:
192,192,20816,1,2,0:0:0:35:
320,192,20895,1,4,0:0:0:20:
448,192,20895,1,8,0:0:0:35:
64,192,20973,1,2,0:0:0:35:
320,192,21051,1,4,0:0:0:20:
448,192,21051,1,8,0:0:0:35:
192,192,21129,1,2,0:0:0:35:
320,192,21207,1,8,0:0:0:35:
448,192,21207,1,4,0:0:0:20:
64,192,21285,1,2,0:0:0:35:
320,192,21363,1,8,0:0:0:35:
448,192,21363,1,4,0:0:0:20:
192,192,21441,1,2,0:0:0:35:
320,192,21520,1,4,0:0:0:20:
448,192,21520,1,8,0:0:0:35:
64,192,21598,1,2,0:0:0:35:
320,192,21676,1,4,0:0:0:20:
448,192,21676,1,8,0:0:0:35:
192,192,21754,1,2,0:0:0:35:
320,192,21832,1,8,0:0:0:35:
448,192,21832,1,4,0:0:0:20:
64,192,21910,1,2,0:0:0:35:
192,192,21988,1,8,0:0:0:35:
448,192,21988,1,4,0:0:0:20:
320,192,22066,1,2,0:0:0:35:
64,192,22145,1,4,0:0:0:20:
192,192,22145,128,2,22457:0:0:0:35:
448,192,22145,1,0,0:0:0:0:
320,192,22457,1,0,0:0:0:0:
192,192,22535,1,0,0:0:0:0:
320,192,22613,1,0,0:0:0:0:
64,192,22691,1,4,0:0:0:20:
192,192,22691,128,8,22926:0:0:0:35:
448,192,22691,1,0,0:0:0:0:
320,192,22926,1,0,0:0:0:0:
192,192,23004,1,0,0:0:0:0:
320,192,23082,1,0,0:0:0:0:
64,192,23160,1,8,0:0:0:35:
192,192,23160,128,4,23394:0:0:0:20:
448,192,23160,1,0,0:0:0:0:
64,192,23394,1,0,0:0:0:0:
448,192,23473,1,0,0:0:0:0:
64,192,23551,1,0,0:0:0:0:
192,192,23629,1,8,0:0:0:35:
320,192,23629,128,4,23863:0:0:0:20:
448,192,23629,1,0,0:0:0:0:
192,192,23863,1,0,0:0:0:0:
320,192,23941,1,0,0:0:0:0:
192,192,24019,1,0,0:0:0:0:
64,192,24098,1,8,0:0:0:35:
320,192,24098,128,4,24332:0:0:0:20:
448,192,24098,1,0,0:0:0:0:
192,192,24332,1,0,0:0:0:0:
64,192,24410,1,8,0:0:0:35:
448,192,24410,1,4,0:0:0:20:
192,192,24488,1,0,0:0:0:0:
320,192,24566,1,2,0:0:0:35:
448,192,24566,1,0,0:0:0:0:
192,192,24644,1,0,0:0:0:0:
64,192,24723,1,4,0:0:0:20:
320,192,24723,128,2,24957:0:0:0:35:
448,192,24723,1,0,0:0:0:0:
192,192,24957,1,0,0:0:0:0:
320,192,25035,1,0,0:0:0:0:
192,192,25113,1,0,0:0:0:0:
64,192,25191,1,8,0:0:0:35:
320,192,25191,128,4,25426:0:0:0:20:
448,192,25191,1,0,0:0:0:0:
448,192,25426,1,0,0:0:0:0:
320,192,25504,1,0,0:0:0:0:
448,192,25582,1,0,0:0:0:0:
64,192,25660,1,8,0:0:0:35:
192,192,25660,128,4,25894:0:0:0:20:
320,192,25660,1,0,0:0:0:0:
320,192,25894,1,0,0:0:0:0:
192,192,25973,1,0,0:0:0:0:
320,192,26051,1,0,0:0:0:0:
64,192,26129,1,8,0:0:0:35:
192,192,26129,128,4,26363:0:0:0:20:
448,192,26129,1,0,0:0:0:0:
320,192,26363,1,0,0:0:0:0:
192,192,26441,1,0,0:0:0:0:
320,192,26519,1,0,0:0:0:0:
64,192,26598,1,8,0:0:0:35:
192,192,26598,128,4,26832:0:0:0:20:
448,192,26598,1,0,0:0:0:0:
320,192,26832,1,0,0:0:0:0:
64,192,26910,1,8,0:0:0:35:
448,192,26910,1,4,0:0:0:20:
192,192,26988,1,0,0:0:0:0:
320,192,27066,1,2,0:0:0:35:
448,192,27066,1,0,0:0:0:0:
192,192,27144,1,0,0:0:0:0:
64,192,27223,1,8,0:0:0:35:
320,192,27223,1,4,0:0:0:20:
448,192,27223,128,0,27457:0:0:0:0:
320,192,27457,1,0,0:0:0:0:
192,192,27535,1,0,0:0:0:0:
320,192,27613,1,0,0:0:0:0:
64,192,27691,1,8,0:0:0:35:
192,192,27691,1,4,0:0:0:20:
448,192,27691,128,0,27926:0:0:0:0:
320,192,27926,1,0,0:0:0:0:
192,192,28004,1,0,0:0:0:0:
320,192,28082,1,0,0:0:0:0:
64,192,28160,1,8,0:0:0:35:
192,192,28160,1,4,0:0:0:20:
448,192,28160,128,0,28394:0:0:0:0:
320,192,28394,1,0,0:0:0:0:
192,192,28473,1,0,0:0:0:0:
320,192,28551,1,0,0:0:0:0:
64,192,28629,1,8,0:0:0:35:
192,192,28629,1,4,0:0:0:20:
448,192,28629,128,0,28863:0:0:0:0:
320,192,28863,1,0,0:0:0:0:
448,192,28941,1,0,0:0:0:0:
64,192,29019,1,8,0:0:0:35:
192,192,29019,1,4,0:0:0:20:
320,192,29019,1,0,0:0:0:0:
448,192,29097,1,0,0:0:0:0:
192,192,29175,1,2,0:0:0:35:
320,192,29175,1,0,0:0:0:0:
64,192,29331,1,8,0:0:0:35:
192,192,29331,1,4,0:0:0:20:
448,192,29331,1,0,0:0:0:0:
320,192,29487,1,2,0:0:0:35:
448,192,29487,1,0,0:0:0:0:
64,192,29644,128,8,29878:0:0:0:35:
192,192,29644,1,4,0:0:0:20:
320,192,29644,1,0,0:0:0:0:
320,192,29878,1,0,0:0:0:0:
192,192,29956,1,0,0:0:0:0:
320,192,30034,1,0,0:0:0:0:
64,192,30112,128,8,30347:0:0:0:35:
192,192,30112,1,4,0:0:0:20:
448,192,30112,1,0,0:0:0:0:
320,192,30347,1,0,0:0:0:0:
192,192,30425,1,0,0:0:0:0:
320,192,30503,1,0,0:0:0:0:
64,192,30581,1,8,0:0:0:35:
192,192,30581,1,4,0:0:0:20:
448,192,30581,128,0,30815:0:0:0:0:
192,192,30815,1,0,0:0:0:0:
64,192,30894,1,0,0:0:0:0:
192,192,30972,1,0,0:0:0:0:
64,192,31050,1,4,0:0:0:20:
320,192,31050,1,8,0:0:0:35:
448,192,31050,1,0,0:0:0:0:
192,192,31128,128,0,31362:0:0:0:0:
64,192,31362,1,8,0:0:0:35:
320,192,31362,1,4,0:0:0:20:
448,192,31362,1,0,0:0:0:0:
192,192,31519,1,8,0:0:0:35:
320,192,31519,1,4,0:0:0:20:
448,192,31519,1,0,0:0:0:0:
64,192,31675,1,2,0:0:0:35:
448,192,31675,1,0,0:0:0:0:
64,192,31831,1,8,0:0:0:35:
320,192,31831,1,4,0:0:0:20:
448,192,31831,1,0,0:0:0:0:
192,192,31987,1,2,0:0:0:35:
320,192,31987,1,0,0:0:0:0:
64,192,32144,1,8,0:0:0:35:
192,192,32144,1,4,0:0:0:20:
448,192,32144,1,0,0:0:0:0:
320,192,32300,1,2,0:0:0:35:
448,192,32300,1,0,0:0:0:0:
64,192,32456,1,8,0:0:0:35:
192,192,32456,1,4,0:0:0:20:
320,192,32456,1,0,0:0:0:0:
64,192,32612,1,2,0:0:0:35:
192,192,32612,1,0,0:0:0:0:
192,192,32769,1,8,0:0:0:35:
320,192,32769,1,4,0:0:0:20:
448,192,32769,1,0,0:0:0:0:
64,192,32925,1,2,0:0:0:35:
448,192,32925,1,0,0:0:0:0:
192,192,33081,1,8,0:0:0:35:
320,192,33081,1,4,0:0:0:20:
448,192,33081,1,0,0:0:0:0:
64,192,33237,1,2,0:0:0:35:
192,192,33237,1,0,0:0:0:0:
320,192,33394,1,4,0:0:0:20:
448,192,33394,1,8,0:0:0:35:
64,192,33472,1,8,0:0:0:35:
192,192,33472,1,0,0:0:0:0:
320,192,33550,1,8,0:0:0:35:
448,192,33628,1,8,0:0:0:35:
64,192,33706,1,8,0:0:0:35:
192,192,33706,1,0,0:0:0:0:
320,192,33784,1,8,0:0:0:35:
448,192,33784,1,0,0:0:0:0:
192,192,33862,1,8,0:0:0:35:
64,192,33940,1,8,0:0:0:35:
320,192,34019,1,8,0:0:0:35:
448,192,34019,1,0,0:0:0:0:
64,192,34097,1,8,0:0:0:35:
192,192,34097,1,0,0:0:0:0:
320,192,34175,1,8,0:0:0:35:
448,192,34253,1,8,0:0:0:35:
64,192,34331,1,8,0:0:0:35:
192,192,34331,1,0,0:0:0:0:
320,192,34409,1,8,0:0:0:35:
448,192,34409,1,0,0:0:0:0:
64,192,34487,1,8,0:0:0:35:
192,192,34565,1,8,0:0:0:35:
64,192,34644,1,8,0:0:0:35:
320,192,34644,1,4,0:0:0:20:
448,192,34644,1,0,0:0:0:0:
64,192,34917,1,8,0:0:0:35:
192,192,34917,1,4,0:0:0:20:
448,192,34917,1,0,0:0:0:0:
64,192,35229,1,4,0:0:0:20:
320,192,35229,1,8,0:0:0:35:
448,192,35229,1,0,0:0:0:0:
64,192,35385,1,2,0:0:0:35:
192,192,35385,1,0,0:0:0:0:
64,192,35542,1,8,0:0:0:35:
320,192,35542,1,0,0:0:0:0:
448,192,35542,1,0,0:0:0:0:
192,192,35698,1,2,0:0:0:35:
448,192,35698,1,0,0:0:0:0:
64,192,35854,1,4,0:0:0:20:
320,192,35854,1,8,0:0:0:35:
448,192,35854,1,0,0:0:0:0:
64,192,36166,1,8,0:0:0:35:
192,192,36166,1,4,0:0:0:20:
448,192,36166,1,0,0:0:0:0:
64,192,36479,1,8,0:0:0:35:
192,192,36479,1,4,0:0:0:20:
448,192,36479,1,0,0:0:0:0:
64,192,36635,1,2,0:0:0:35:
192,192,36635,1,0,0:0:0:0:
64,192,36791,1,8,0:0:0:35:
320,192,36791,1,0,0:0:0:0:
448,192,36791,1,0,0:0:0:0:
192,192,36947,1,2,0:0:0:35:
448,192,36947,1,0,0:0:0:0:
64,192,37104,1,8,0:0:0:35:
320,192,37104,1,4,0:0:0:20:
448,192,37104,1,0,0:0:0:0:
64,192,37260,1,2,0:0:0:35:
192,192,37260,1,0,0:0:0:0:
64,192,37416,1,2,0:0:0:35:
192,192,37416,1,0,0:0:0:0:
192,192,37572,1,8,0:0:0:35:
320,192,37572,1,4,0:0:0:20:
448,192,37572,1,0,0:0:0:0:
64,192,37729,1,2,0:0:0:35:
448,192,37729,1,0,0:0:0:0:
64,192,37885,1,2,0:0:0:35:
448,192,37885,1,0,0:0:0:0:
64,192,38041,1,4,0:0:0:20:
192,192,38041,1,8,0:0:0:35:
320,192,38041,1,0,0:0:0:0:
320,192,38197,1,2,0:0:0:35:
448,192,38197,1,0,0:0:0:0:
64,192,38354,1,8,0:0:0:35:
192,192,38354,1,4,0:0:0:20:
320,192,38432,1,8,0:0:0:35:
448,192,38432,1,0,0:0:0:0:
192,192,38510,1,8,0:0:0:35:
64,192,38588,1,8,0:0:0:35:
320,192,38666,1,8,0:0:0:35:
448,192,38666,1,0,0:0:0:0:
64,192,38744,1,8,0:0:0:35:
192,192,38744,1,0,0:0:0:0:
320,192,38822,1,8,0:0:0:35:
448,192,38900,1,8,0:0:0:35:
64,192,38979,1,8,0:0:0:35:
192,192,38979,1,4,0:0:0:20:
192,192,39135,1,8,0:0:0:35:
320,192,39135,1,2,0:0:0:35:
448,192,39135,1,0,0:0:0:0:
64,192,39291,1,2,0:0:0:35:
320,192,39291,1,8,0:0:0:35:
448,192,39291,1,4,0:0:0:20:
64,192,39447,1,2,0:0:0:35:
192,192,39447,1,8,0:0:0:35:
448,192,39447,1,0,0:0:0:0:
192,192,39604,1,2,0:0:0:35:
320,192,39604,1,4,0:0:0:20:
64,192,39916,1,0,0:0:0:0:
320,192,39916,1,0,0:0:0:0:
448,192,39916,1,0,0:0:0:0:
64,192,40150,1,0,0:0:0:0:
320,192,40150,1,0,0:0:0:0:
448,192,40150,1,0,0:0:0:0:
64,192,40229,1,0,0:0:0:0:
192,192,40229,1,0,0:0:0:0:
320,192,40385,1,0,0:0:0:0:
448,192,40385,1,0,0:0:0:0:
192,192,40541,1,0,0:0:0:0:
448,192,40541,1,0,0:0:0:0:
64,192,40775,1,0,0:0:0:0:
320,192,40775,1,0,0:0:0:0:
192,192,40854,1,0,0:0:0:0:
320,192,41010,1,0,0:0:0:0:
192,192,41166,1,0,0:0:0:0:
448,192,41166,1,0,0:0:0:0:
64,192,41322,1,0,0:0:0:0:
192,192,41479,1,0,0:0:0:0:
320,192,41635,1,0,0:0:0:0:
192,192,41791,1,0,0:0:0:0:
448,192,41791,1,0,0:0:0:0:
