osu file format v14

[General]
AudioFilename: justleavemealone.ogg
AudioLeadIn: 0
PreviewTime: 895
Countdown: 0
SampleSet: Soft
StackLeniency: 0.7
Mode: 3
LetterboxInBreaks: 0
SpecialStyle: 0
WidescreenStoryboard: 1

[Editor]
Bookmarks: 4977,9977,21227,23727,31227
DistanceSpacing: 0.8
BeatDivisor: 4
GridSize: 16
TimelineZoom: 2.2

[Metadata]
Title:Just Leave Me Alone
TitleUnicode:Just Leave Me Alone
Artist:Pedro Silva
ArtistUnicode:Pedro Silva
Creator:Shad0wStar
Version:Easy
Source:OMORI
Tags:ost original soundtrack pt 1 track 057 aubrey video game videogame instrumental chordjack faraway town
BeatmapID:4063517
BeatmapSetID:1960740

[Difficulty]
HPDrainRate:6.5
CircleSize:4
OverallDifficulty:6.5
ApproachRate:5
SliderMultiplier:1.4
SliderTickRate:1

[Events]
//Background and Video events
0,0,"342.jpg",0,0
//Break Periods
//Storyboard Layer 0 (Background)
//Storyboard Layer 1 (Fail)
//Storyboard Layer 2 (Pass)
//Storyboard Layer 3 (Foreground)
//Storyboard Layer 4 (Overlay)
//Storyboard Sound Samples

[TimingPoints]
895,312.5,4,2,1,50,1,0
15895,-100,4,2,1,50,0,1
22145,-100,4,2,1,50,0,0
22223,312.5,4,2,1,50,1,0
29019,312.5,4,2,1,50,1,0
29644,312.5,4,2,1,50,1,0
34917,312.5,4,2,1,50,1,0
35854,312.5,4,2,1,50,1,0

[HitObjects]
64,192,895,5,8,0:0:0:35:
448,192,895,1,4,0:0:0:20:
192,192,1207,1,12,0:0:0:20:
64,192,1520,1,8,0:0:0:35:
448,192,1520,1,4,0:0:0:20:
320,192,2145,1,4,0:0:0:20:
448,192,2145,1,8,0:0:0:35:
64,192,2457,1,12,0:0:0:35:
320,192,2770,1,8,0:0:0:35:
448,192,2770,1,4,0:0:0:20:
64,192,3395,1,8,0:0:0:35:
192,192,3395,1,4,0:0:0:20:
320,192,3863,1,8,0:0:0:35:
448,192,3863,1,4,0:0:0:20:
64,192,4332,1,8,0:0:0:35:
448,192,4332,1,4,0:0:0:20:
192,192,4645,1,12,0:0:0:20:
320,192,4801,1,8,0:0:0:35:
64,192,4957,1,8,0:0:0:35:
448,192,5113,1,8,0:0:0:35:
320,192,5270,1,12,0:0:0:20:
64,192,5582,1,14,0:0:0:35:
320,192,5738,1,10,0:0:0:35:
192,192,5895,1,2,0:0:0:35:
448,192,6207,1,12,0:0:0:35:
64,192,6520,1,2,0:0:0:35:
192,192,6676,1,2,0:0:0:35:
448,192,6832,1,12,0:0:0:35:
320,192,7145,1,2,0:0:0:35:
192,192,7301,1,2,0:0:0:35:
64,192,7457,1,12,0:0:0:35:
448,192,7770,1,2,0:0:0:35:
192,192,7926,1,2,0:0:0:35:
320,192,8082,1,12,0:0:0:35:
64,192,8395,1,2,0:0:0:35:
448,192,8707,1,12,0:0:0:35:
192,192,9020,1,2,0:0:0:35:
320,192,9176,1,2,0:0:0:35:
64,192,9332,1,12,0:0:0:35:
448,192,9645,1,2,0:0:0:35:
192,192,9801,1,2,0:0:0:35:
64,192,9957,128,12,10270:0:0:0:35:
448,192,10270,1,2,0:0:0:35:
192,192,10426,1,2,0:0:0:35:
320,192,10582,1,12,0:0:0:20:
64,192,10738,1,8,0:0:0:35:
192,192,10895,1,2,0:0:0:35:
448,192,11207,1,12,0:0:0:35:
64,192,11520,1,2,0:0:0:35:
192,192,11676,1,2,0:0:0:35:
448,192,11832,1,12,0:0:0:20:
320,192,12145,1,2,0:0:0:35:
192,192,12301,1,2,0:0:0:35:
64,192,12457,1,12,0:0:0:35:
448,192,12770,1,2,0:0:0:35:
192,192,12926,1,2,0:0:0:35:
320,192,13082,1,12,0:0:0:35:
64,192,13395,1,2,0:0:0:35:
448,192,13707,1,12,0:0:0:35:
192,192,14020,1,2,0:0:0:35:
320,192,14176,1,2,0:0:0:35:
64,192,14332,1,12,0:0:0:35:
448,192,14645,1,2,0:0:0:35:
320,192,14801,1,2,0:0:0:35:
192,192,14957,1,2,0:0:0:35:
64,192,15113,1,2,0:0:0:35:
320,192,15270,1,2,0:0:0:35:
192,192,15582,1,12,0:0:0:35:
64,192,15895,1,8,0:0:0:35:
448,192,15895,1,4,0:0:0:20:
320,192,16051,1,2,0:0:0:35:
192,192,16207,1,12,0:0:0:35:
320,192,16520,1,8,0:0:0:35:
448,192,16520,1,4,0:0:0:20:
64,192,16676,1,2,0:0:0:35:
192,192,16832,1,12,0:0:0:35:
64,192,17145,1,4,0:0:0:20:
320,192,17145,1,8,0:0:0:35:
448,192,17301,1,2,0:0:0:35:
192,192,17457,1,12,0:0:0:35:
64,192,17770,1,8,0:0:0:35:
448,192,17770,1,4,0:0:0:20:
192,192,17926,1,2,0:0:0:35:
320,192,18082,1,12,0:0:0:35:
64,192,18395,1,8,0:0:0:35:
448,192,18395,1,4,0:0:0:20:
320,192,18551,1,2,0:0:0:35:
192,192,18707,1,12,0:0:0:35:
64,192,19020,1,4,0:0:0:20:
320,192,19020,1,8,0:0:0:35:
192,192,19176,1,2,0:0:0:35:
448,192,19332,1,12,0:0:0:35:
320,192,19645,1,12,0:0:0:20:
64,192,19801,1,12,0:0:0:20:
192,192,19957,1,12,0:0:0:20:
320,192,20113,1,12,0:0:0:35:
448,192,20270,128,12,20582:0:0:0:35:
192,192,20582,128,12,20895:0:0:0:35:
320,192,20895,1,12,0:0:0:20:
448,192,21051,1,12,0:0:0:20:
192,192,21207,1,12,0:0:0:35:
64,192,21363,1,12,0:0:0:35:
320,192,21520,128,12,21832:0:0:0:20:
448,192,21832,128,12,22145:0:0:0:35:
64,192,22145,1,4,0:0:0:20:
192,192,22145,1,2,0:0:0:35:
320,192,22691,1,12,0:0:0:20:
192,192,23160,1,8,0:0:0:35:
448,192,23160,1,4,0:0:0:20:
64,192,23629,1,12,0:0:0:35:
320,192,24098,1,8,0:0:0:35:
448,192,24098,1,4,0:0:0:20:
64,192,24410,1,12,0:0:0:35:
192,192,24723,1,4,0:0:0:20:
320,192,24723,1,2,0:0:0:35:
448,192,25191,1,12,0:0:0:35:
64,192,25660,1,8,0:0:0:35:
192,192,25660,1,4,0:0:0:20:
320,192,26129,1,12,0:0:0:35:
64,192,26598,1,8,0:0:0:35:
448,192,26598,1,4,0:0:0:20:
192,192,26910,1,12,0:0:0:35:
320,192,27223,1,8,0:0:0:35:
448,192,27223,1,4,0:0:0:20:
192,192,27691,1,12,0:0:0:35:
64,192,28160,1,8,0:0:0:35:
320,192,28160,1,4,0:0:0:20:
448,192,28629,1,12,0:0:0:35:
64,192,29019,1,8,0:0:0:35:
192,192,29019,1,4,0:0:0:20:
320,192,29331,1,12,0:0:0:35:
64,192,29644,1,8,0:0:0:35:
448,192,29644,1,4,0:0:0:20:
320,192,30112,1,12,0:0:0:35:
64,192,30581,1,8,0:0:0:35:
192,192,30581,1,4,0:0:0:20:
320,192,31050,1,12,0:0:0:20:
64,192,31362,1,12,0:0:0:35:
192,192,31519,1,12,0:0:0:35:
448,192,31675,1,2,0:0:0:35:
320,192,31831,1,12,0:0:0:35:
64,192,32144,1,8,0:0:0:35:
192,192,32144,1,4,0:0:0:20:
320,192,32300,1,2,0:0:0:35:
448,192,32456,1,12,0:0:0:35:
192,192,32769,1,8,0:0:0:35:
320,192,32769,1,4,0:0:0:20:
64,192,32925,1,2,0:0:0:35:
320,192,33081,1,12,0:0:0:35:
192,192,33394,1,12,0:0:0:20:
320,192,33550,1,8,0:0:0:35:
64,192,33706,1,8,0:0:0:35:
448,192,33862,1,8,0:0:0:35:
320,192,34019,1,8,0:0:0:35:
64,192,34331,1,8,0:0:0:35:
320,192,34487,1,8,0:0:0:35:
64,192,34644,1,8,0:0:0:35:
448,192,34644,1,4,0:0:0:20:
192,192,34917,1,12,0:0:0:35:
64,192,35229,1,4,0:0:0:20:
448,192,35229,1,8,0:0:0:35:
320,192,35854,1,4,0:0:0:20:
448,192,35854,1,8,0:0:0:35:
64,192,36166,1,12,0:0:0:35:
320,192,36479,1,8,0:0:0:35:
448,192,36479,1,4,0:0:0:20:
64,192,37104,1,8,0:0:0:35:
192,192,37104,1,4,0:0:0:20:
320,192,37572,1,8,0:0:0:35:
448,192,37572,1,4,0:0:0:20:
64,192,38041,1,4,0:0:0:20:
448,192,38041,1,8,0:0:0:35:
192,192,38354,1,12,0:0:0:35:
320,192,38510,1,8,0:0:0:35:
64,192,38666,1,8,0:0:0:35:
448,192,38822,1,8,0:0:0:35:
320,192,38979,1,12,0:0:0:35:
64,192,39291,1,14,0:0:0:35:
320,192,39447,1,10,0:0:0:35:
192,192,39604,1,6,0:0:0:35:
448,192,39916,1,0,0:0:0:0:
64,192,40229,1,0,0:0:0:0:
448,192,40541,1,0,0:0:0:0:
320,192,40854,1,0,0:0:0:0:
64,192,41166,1,0,0:0:0:0:
448,192,41479,1,0,0:0:0:0:
320,192,41791,1,0,0:0:0:0:
