osu file format v14

[General]
AudioFilename: audio.mp3
AudioLeadIn: 0
PreviewTime: 32011
Countdown: 0
SampleSet: None
StackLeniency: 0.5
Mode: 1
LetterboxInBreaks: 0
WidescreenStoryboard: 1

[Editor]
DistanceSpacing: 1.1
BeatDivisor: 4
GridSize: 16
TimelineZoom: 1.399999

[Metadata]
Title:CHAOS ASSEMBLY
TitleUnicode:CHAOS ASSEMBLY
Artist:Pedro Silva
ArtistUnicode:Pedro Silva
Creator:meiqth
Version:Lite Oni
Source:OMORI
Tags:electronic instrumental indie video game omocat DOWNLOAD WINDOW battle theme slime girls original soundtrack ost tag compatible coop co-op
BeatmapID:3906677
BeatmapSetID:1766665

[Difficulty]
HPDrainRate:6.5
CircleSize:2
OverallDifficulty:5.5
ApproachRate:10
SliderMultiplier:1.4
SliderTickRate:1

[Events]
//Background and Video events
0,0,"yea.jpeg",0,-18
//Break Periods
2,40011,41561
//Storyboard Layer 0 (Background)
//Storyboard Layer 1 (Fail)
//Storyboard Layer 2 (Pass)
//Storyboard Layer 3 (Foreground)
//Storyboard Layer 4 (Overlay)
//Storyboard Sound Samples

[TimingPoints]
11,500,4,1,0,60,1,0
8011,-81.3953487425635,4,1,0,60,0,0
32011,-74.0137665605803,4,1,0,60,0,0
40011,-81.3008130081301,4,1,0,55,0,1
42011,500,4,1,0,75,1,0
42011,-71.5768377353089,4,1,0,75,0,0
49010,-71.5768417274686,4,1,0,75,0,0
49135,-71.923229463801,4,1,0,75,0,0
49385,-72.6261689971413,4,1,0,75,0,0
50011,-68.9655172413793,4,1,0,80,0,1
57011,-68.9655170332937,4,1,0,80,0,0
57135,-69.3069348071757,4,1,0,80,0,0
57385,-70.0000004839999,4,1,0,80,0,0
58011,-68.9655172413793,4,1,0,80,0,1
65011,-68.9655137098694,4,1,0,80,0,0
65136,-68.8231245698555,4,1,0,80,0,0
65260,-68.2919230802606,4,1,0,80,0,0
65510,-67.6313549384408,4,1,0,80,0,0
65635,-67.305840730422,4,1,0,80,0,0
65760,-66.9834419604083,4,1,0,80,0,0
65885,-66.6641217708387,4,1,0,80,0,0

[Colours]
Combo1 : 239,237,148
Combo2 : 227,100,100
Combo3 : 137,242,248

[HitObjects]
256,192,8011,5,8,0:0:0:0:
256,192,8261,1,0,0:0:0:0:
256,192,8386,1,8,0:0:0:0:
256,192,8636,1,0,0:0:0:0:
256,192,8761,1,8,0:0:0:0:
256,192,9011,1,0,0:0:0:0:
256,192,9261,1,8,0:0:0:0:
256,192,9511,1,8,0:0:0:0:
256,192,9636,1,8,0:0:0:0:
256,192,9761,1,0,0:0:0:0:
256,192,10011,5,8,0:0:0:0:
256,192,10261,1,0,0:0:0:0:
256,192,10386,1,8,0:0:0:0:
256,192,10636,1,8,0:0:0:0:
256,192,10761,1,0,0:0:0:0:
256,192,11011,1,8,0:0:0:0:
256,192,11136,1,0,0:0:0:0:
256,192,11261,1,0,0:0:0:0:
256,192,11511,1,8,0:0:0:0:
256,192,12011,5,8,0:0:0:0:
256,192,12261,1,0,0:0:0:0:
256,192,12386,1,8,0:0:0:0:
256,192,12636,1,0,0:0:0:0:
256,192,12761,1,8,0:0:0:0:
256,192,13011,1,0,0:0:0:0:
256,192,13261,1,8,0:0:0:0:
256,192,13511,1,0,0:0:0:0:
256,192,13636,1,8,0:0:0:0:
256,192,13761,1,0,0:0:0:0:
256,192,13886,1,0,0:0:0:0:
256,192,14011,5,8,0:0:0:0:
256,192,14261,1,0,0:0:0:0:
256,192,14386,1,8,0:0:0:0:
256,192,14636,1,0,0:0:0:0:
256,192,14761,1,8,0:0:0:0:
256,192,15011,1,8,0:0:0:0:
256,192,15136,1,0,0:0:0:0:
256,192,15261,1,8,0:0:0:0:
256,192,15386,1,8,0:0:0:0:
256,192,15511,1,0,0:0:0:0:
256,192,16011,5,8,0:0:0:0:
256,192,16261,1,0,0:0:0:0:
256,192,16386,1,8,0:0:0:0:
256,192,16636,1,8,0:0:0:0:
256,192,16761,1,0,0:0:0:0:
256,192,17011,1,8,0:0:0:0:
256,192,17261,1,0,0:0:0:0:
256,192,17511,1,8,0:0:0:0:
256,192,17636,1,0,0:0:0:0:
256,192,17761,1,8,0:0:0:0:
256,192,18011,5,0,0:0:0:0:
256,192,18261,1,0,0:0:0:0:
256,192,18386,1,8,0:0:0:0:
256,192,18636,1,8,0:0:0:0:
256,192,18761,1,0,0:0:0:0:
256,192,19011,1,8,0:0:0:0:
256,192,19261,1,0,0:0:0:0:
256,192,19511,1,8,0:0:0:0:
256,192,20011,5,8,0:0:0:0:
256,192,20261,1,0,0:0:0:0:
256,192,20386,1,8,0:0:0:0:
256,192,20636,1,0,0:0:0:0:
256,192,20761,1,8,0:0:0:0:
256,192,21011,1,0,0:0:0:0:
256,192,21261,1,8,0:0:0:0:
256,192,21511,1,0,0:0:0:0:
256,192,21636,1,8,0:0:0:0:
256,192,21761,1,0,0:0:0:0:
256,192,21886,1,0,0:0:0:0:
256,192,22011,5,8,0:0:0:0:
256,192,22261,1,0,0:0:0:0:
256,192,22386,1,8,0:0:0:0:
256,192,22636,1,0,0:0:0:0:
256,192,22761,1,8,0:0:0:0:
256,192,23011,1,8,0:0:0:0:
256,192,23136,1,8,0:0:0:0:
256,192,23261,1,0,0:0:0:0:
256,192,23386,1,0,0:0:0:0:
256,192,23511,1,8,0:0:0:0:
256,192,24011,5,0,0:0:0:0:
256,192,24136,1,8,0:0:0:0:
256,192,24261,1,8,0:0:0:0:
256,192,24511,1,0,0:0:0:0:
256,192,24761,1,8,0:0:0:0:
256,192,25011,1,0,0:0:0:0:
256,192,25136,1,8,0:0:0:0:
256,192,25386,1,8,0:0:0:0:
256,192,25511,1,0,0:0:0:0:
256,192,25761,1,0,0:0:0:0:
256,192,26011,5,8,0:0:0:0:
256,192,26136,1,8,0:0:0:0:
256,192,26261,1,0,0:0:0:0:
256,192,26511,1,0,0:0:0:0:
256,192,26761,1,8,0:0:0:0:
256,192,27011,1,0,0:0:0:0:
256,192,27136,1,8,0:0:0:0:
256,192,27386,1,0,0:0:0:0:
256,192,27511,1,8,0:0:0:0:
256,192,28011,5,0,0:0:0:0:
256,192,28136,1,8,0:0:0:0:
256,192,28261,1,8,0:0:0:0:
256,192,28511,1,0,0:0:0:0:
256,192,28761,1,8,0:0:0:0:
256,192,29011,1,0,0:0:0:0:
256,192,29136,1,8,0:0:0:0:
256,192,29386,1,8,0:0:0:0:
256,192,29636,1,8,0:0:0:0:
256,192,29761,1,0,0:0:0:0:
256,192,30011,5,8,0:0:0:0:
256,192,30136,1,0,0:0:0:0:
256,192,30261,1,8,0:0:0:0:
256,192,30511,1,0,0:0:0:0:
256,192,30761,1,8,0:0:0:0:
256,192,31011,1,0,0:0:0:0:
256,192,31136,1,8,0:0:0:0:
256,192,31386,1,8,0:0:0:0:
256,192,31511,1,0,0:0:0:0:
256,192,32011,5,12,0:0:0:0:
256,192,32261,1,0,0:0:0:0:
256,192,32511,1,8,0:0:0:0:
256,192,33011,1,8,0:0:0:0:
256,192,33136,1,0,0:0:0:0:
256,192,33386,1,0,0:0:0:0:
256,192,33636,1,0,0:0:0:0:
205,201,33761,1,8,0:0:0:0:
256,192,34011,5,4,0:0:0:0:
256,192,34261,1,0,0:0:0:0:
256,192,34511,1,8,0:0:0:0:
256,192,35011,1,8,0:0:0:0:
256,192,35136,1,0,0:0:0:0:
256,192,35386,1,0,0:0:0:0:
256,192,35636,1,0,0:0:0:0:
256,192,35761,1,0,0:0:0:0:
256,192,36011,5,12,0:0:0:0:
256,192,36261,1,0,0:0:0:0:
256,192,36511,1,8,0:0:0:0:
256,192,37011,1,8,0:0:0:0:
256,192,37136,1,0,0:0:0:0:
256,192,37386,1,0,0:0:0:0:
256,192,37636,1,0,0:0:0:0:
256,192,37761,1,8,0:0:0:0:
256,192,38011,5,12,0:0:0:0:
256,192,38261,1,0,0:0:0:0:
256,192,38511,1,8,0:0:0:0:
256,192,39011,1,8,0:0:0:0:
256,192,39136,1,0,0:0:0:0:
256,192,39386,1,8,0:0:0:0:
256,192,39636,1,0,0:0:0:0:
256,192,39761,1,8,0:0:0:0:
256,192,42011,5,8,0:0:0:0:
256,192,42136,1,0,0:0:0:0:
256,192,42261,1,8,0:0:0:0:
256,192,42511,1,0,0:0:0:0:
256,192,42636,1,8,0:0:0:0:
256,192,42761,1,0,0:0:0:0:
256,192,43011,1,0,0:0:0:0:
256,192,43136,1,0,0:0:0:0:
256,192,43261,1,8,0:0:0:0:
256,192,43386,1,8,0:0:0:0:
256,192,43511,1,0,0:0:0:0:
256,192,44011,1,0,0:0:0:0:
256,192,44136,1,0,0:0:0:0:
256,192,44261,1,8,0:0:0:0:
256,192,44511,1,8,0:0:0:0:
256,192,44636,1,8,0:0:0:0:
256,192,44761,1,0,0:0:0:0:
256,192,45011,1,8,0:0:0:0:
256,192,45136,1,0,0:0:0:0:
256,192,45261,1,0,0:0:0:0:
256,192,45386,1,0,0:0:0:0:
256,192,45511,1,8,0:0:0:0:
256,192,46011,5,0,0:0:0:0:
256,192,46136,1,8,0:0:0:0:
256,192,46261,1,0,0:0:0:0:
256,192,46511,1,8,0:0:0:0:
256,192,46636,1,0,0:0:0:0:
256,192,46761,1,8,0:0:0:0:
256,192,47011,1,0,0:0:0:0:
256,192,47136,1,0,0:0:0:0:
256,192,47261,1,8,0:0:0:0:
256,192,47386,1,8,0:0:0:0:
256,192,47511,1,0,0:0:0:0:
256,192,47761,1,8,0:0:0:0:
256,192,48011,1,8,0:0:0:0:
256,192,48136,1,8,0:0:0:0:
256,192,48261,1,0,0:0:0:0:
256,192,48511,1,0,0:0:0:0:
256,192,48636,1,0,0:0:0:0:
256,192,48761,1,8,0:0:0:0:
256,192,49011,1,0,0:0:0:0:
256,192,49136,1,8,0:0:0:0:
256,192,49386,1,8,0:0:0:0:
256,192,50011,5,8,0:0:0:0:
256,192,50136,1,8,0:0:0:0:
256,192,50261,1,0,0:0:0:0:
256,192,50386,1,8,0:0:0:0:
256,192,50511,1,0,0:0:0:0:
256,192,50636,1,0,0:0:0:0:
256,192,50761,1,8,0:0:0:0:
256,192,51011,1,0,0:0:0:0:
256,192,51136,1,8,0:0:0:0:
256,192,51261,1,0,0:0:0:0:
256,192,51386,1,0,0:0:0:0:
256,192,51511,1,8,0:0:0:0:
256,192,51761,1,8,0:0:0:0:
256,192,52011,5,0,0:0:0:0:
256,192,52136,1,0,0:0:0:0:
256,192,52261,1,8,0:0:0:0:
256,192,52386,1,0,0:0:0:0:
256,192,52511,1,8,0:0:0:0:
256,192,52761,1,0,0:0:0:0:
256,192,53011,1,8,0:0:0:0:
256,192,53136,1,0,0:0:0:0:
256,192,53261,1,8,0:0:0:0:
256,192,53386,1,8,0:0:0:0:
256,192,53511,1,0,0:0:0:0:
256,192,53761,1,8,0:0:0:0:
256,192,54011,5,0,0:0:0:0:
256,192,54136,1,8,0:0:0:0:
256,192,54261,1,0,0:0:0:0:
256,192,54386,1,0,0:0:0:0:
256,192,54511,1,8,0:0:0:0:
256,192,54636,1,8,0:0:0:0:
256,192,54761,1,0,0:0:0:0:
256,192,55011,1,8,0:0:0:0:
256,192,55136,1,8,0:0:0:0:
256,192,55261,1,0,0:0:0:0:
256,192,55386,1,0,0:0:0:0:
256,192,55511,1,8,0:0:0:0:
256,192,55761,1,0,0:0:0:0:
256,192,56011,5,8,0:0:0:0:
256,192,56136,1,0,0:0:0:0:
256,192,56261,1,0,0:0:0:0:
256,192,56386,1,0,0:0:0:0:
256,192,56511,1,8,0:0:0:0:
256,192,56761,1,0,0:0:0:0:
256,192,57011,1,8,0:0:0:0:
256,192,57136,1,0,0:0:0:0:
256,192,57386,1,8,0:0:0:0:
256,192,58011,5,8,0:0:0:0:
256,192,58136,1,0,0:0:0:0:
256,192,58261,1,8,0:0:0:0:
256,192,58386,1,8,0:0:0:0:
256,192,58511,1,0,0:0:0:0:
256,192,58636,1,8,0:0:0:0:
256,192,58761,1,0,0:0:0:0:
256,192,59011,1,8,0:0:0:0:
256,192,59136,1,8,0:0:0:0:
256,192,59261,1,0,0:0:0:0:
256,192,59386,1,0,0:0:0:0:
256,192,59511,1,8,0:0:0:0:
256,192,59761,1,8,0:0:0:0:
256,192,60011,5,0,0:0:0:0:
256,192,60136,1,0,0:0:0:0:
256,192,60261,1,8,0:0:0:0:
256,192,60386,1,0,0:0:0:0:
256,192,60511,1,8,0:0:0:0:
256,192,60761,1,0,0:0:0:0:
256,192,61011,1,8,0:0:0:0:
256,192,61136,1,0,0:0:0:0:
256,192,61261,1,8,0:0:0:0:
256,192,61386,1,8,0:0:0:0:
256,192,61511,1,0,0:0:0:0:
256,192,61761,1,8,0:0:0:0:
256,192,62011,5,0,0:0:0:0:
256,192,62136,1,0,0:0:0:0:
256,192,62261,1,8,0:0:0:0:
256,192,62386,1,0,0:0:0:0:
256,192,62511,1,8,0:0:0:0:
256,192,62636,1,8,0:0:0:0:
256,192,62761,1,0,0:0:0:0:
256,192,63011,1,8,0:0:0:0:
256,192,63136,1,8,0:0:0:0:
256,192,63261,1,0,0:0:0:0:
256,192,63386,1,0,0:0:0:0:
256,192,63511,1,8,0:0:0:0:
256,192,63761,1,0,0:0:0:0:
256,192,64011,5,8,0:0:0:0:
256,192,64136,1,0,0:0:0:0:
256,192,64261,1,8,0:0:0:0:
256,192,64386,1,0,0:0:0:0:
256,192,64511,1,8,0:0:0:0:
256,192,64761,5,0,0:0:0:0:
256,192,65011,1,8,0:0:0:0:
256,192,65136,1,8,0:0:0:0:
256,192,65261,1,0,0:0:0:0:
256,192,65511,1,8,0:0:0:0:
256,192,65636,1,8,0:0:0:0:
256,192,65761,1,0,0:0:0:0:
256,192,65886,1,8,0:0:0:0:
