osu file format v14

[General]
AudioFilename: audio.mp3
AudioLeadIn: 0
PreviewTime: 32011
Countdown: 0
SampleSet: Normal
StackLeniency: 0.5
Mode: 1
LetterboxInBreaks: 0
WidescreenStoryboard: 1

[Editor]
DistanceSpacing: 1.1
BeatDivisor: 4
GridSize: 16
TimelineZoom: 0.6599998

[Metadata]
Title:CHAOS ASSEMBLY
TitleUnicode:CHAOS ASSEMBLY
Artist:Pedro Silva
ArtistUnicode:Pedro Silva
Creator:meiqth
Version:Kantan
Source:OMORI
Tags:electronic instrumental indie video game omocat DOWNLOAD WINDOW battle theme slime girls original soundtrack ost tag compatible coop co-op
BeatmapID:3616291
BeatmapSetID:1766665

[Difficulty]
HPDrainRate:9
CircleSize:2
OverallDifficulty:3
ApproachRate:10
SliderMultiplier:1.4
SliderTickRate:1

[Events]
//Background and Video events
0,0,"yea.jpeg",0,-18
//Break Periods
2,40011,41561
//Storyboard Layer 0 (Background)
//Storyboard Layer 1 (Fail)
//Storyboard Layer 2 (Pass)
//Storyboard Layer 3 (Foreground)
//Storyboard Layer 4 (Overlay)
//Storyboard Sound Samples

[TimingPoints]
11,500,4,1,0,60,1,0
8011,-100,4,1,0,60,0,0
32011,-100,4,1,0,60,0,0
40011,-90.9090909090909,4,1,0,55,0,1
42011,500,4,1,0,75,1,0
42011,-90.9090909090909,4,1,0,75,0,0
50011,-90.9090909090909,4,1,0,80,0,1
57011,-90.9090909090909,4,1,0,80,0,0
58011,-90.9090909090909,4,1,0,80,0,1
65011,-90.9090909090909,4,1,0,80,0,0

[Colours]
Combo1 : 239,237,148
Combo2 : 227,100,100
Combo3 : 137,242,248

[HitObjects]
256,192,8011,5,8,0:0:0:0:
256,192,9011,1,0,0:0:0:0:
256,192,9511,1,0,0:0:0:0:
256,192,10011,1,8,0:0:0:0:
256,192,11011,1,8,0:0:0:0:
256,192,12011,1,0,0:0:0:0:
256,192,13011,1,8,0:0:0:0:
256,192,13511,1,8,0:0:0:0:
256,192,14011,1,0,0:0:0:0:
256,192,16011,1,8,0:0:0:0:
256,192,17011,1,0,0:0:0:0:
256,192,17511,1,8,0:0:0:0:
256,192,18011,1,0,0:0:0:0:
256,192,19011,1,0,0:0:0:0:
256,192,20011,1,8,0:0:0:0:
256,192,21011,1,0,0:0:0:0:
256,192,21511,1,0,0:0:0:0:
256,192,22011,1,8,0:0:0:0:
256,192,24011,1,8,0:0:0:0:
256,192,25011,1,0,0:0:0:0:
256,192,26011,1,8,0:0:0:0:
256,192,27011,1,8,0:0:0:0:
256,192,28011,1,0,0:0:0:0:
256,192,29011,1,8,0:0:0:0:
256,192,29511,1,8,0:0:0:0:
256,192,30011,1,0,0:0:0:0:
256,192,31011,1,8,0:0:0:0:
256,192,32011,1,4,0:0:0:0:
256,192,33011,1,8,0:0:0:0:
256,192,34011,1,4,0:0:0:0:
256,192,35011,1,0,0:0:0:0:
256,192,35511,1,8,0:0:0:0:
256,192,36011,1,4,0:0:0:0:
256,192,37011,1,8,0:0:0:0:
256,192,38011,1,4,0:0:0:0:
256,192,39011,1,8,0:0:0:0:
256,192,39511,1,8,0:0:0:0:
256,192,42011,5,8,0:0:0:0:
256,192,42511,1,8,0:0:0:0:
256,192,43011,1,0,0:0:0:0:
256,192,44011,1,8,0:0:0:0:
256,192,44511,1,0,0:0:0:0:
256,192,45011,1,8,0:0:0:0:
256,192,45511,1,8,0:0:0:0:
256,192,46011,1,0,0:0:0:0:
256,192,47011,1,8,0:0:0:0:
256,192,47511,1,0,0:0:0:0:
256,192,48011,1,8,0:0:0:0:
256,192,49011,1,0,0:0:0:0:
256,192,50011,1,8,0:0:0:0:
256,192,50511,1,0,0:0:0:0:
256,192,51011,1,8,0:0:0:0:
256,192,51511,1,8,0:0:0:0:
256,192,52011,1,0,0:0:0:0:
256,192,52511,1,8,0:0:0:0:
256,192,53011,1,0,0:0:0:0:
256,192,54011,1,0,0:0:0:0:
256,192,54511,1,0,0:0:0:0:
256,192,55011,1,8,0:0:0:0:
256,192,55511,1,8,0:0:0:0:
256,192,56011,1,0,0:0:0:0:
256,192,57011,1,8,0:0:0:0:
256,192,58011,1,0,0:0:0:0:
256,192,58511,1,0,0:0:0:0:
256,192,59011,1,8,0:0:0:0:
256,192,59511,1,0,0:0:0:0:
256,192,60011,1,8,0:0:0:0:
256,192,60511,1,8,0:0:0:0:
256,192,61011,1,0,0:0:0:0:
256,192,62011,1,8,0:0:0:0:
256,192,62511,1,8,0:0:0:0:
256,192,63011,1,0,0:0:0:0:
256,192,63511,1,0,0:0:0:0:
256,192,64011,1,8,0:0:0:0:
256,192,65011,1,0,0:0:0:0:
256,192,65511,1,8,0:0:0:0:
256,192,65761,1,8,0:0:0:0:
