osu file format v14

[General]
AudioFilename: audio.mp3
AudioLeadIn: 0
PreviewTime: 32011
Countdown: 0
SampleSet: Normal
StackLeniency: 0.5
Mode: 1
LetterboxInBreaks: 0
WidescreenStoryboard: 1

[Editor]
DistanceSpacing: 1.1
BeatDivisor: 3
GridSize: 16
TimelineZoom: 2.5

[Metadata]
Title:CHAOS ASSEMBLY
TitleUnicode:CHAOS ASSEMBLY
Artist:Pedro Silva
ArtistUnicode:Pedro Silva
Creator:meiqth
Version:99% of Inner_Oni.osu Completed
Source:OMORI
Tags:electronic instrumental indie video game omocat DOWNLOAD WINDOW battle theme slime girls original soundtrack ost tag compatible coop co-op
BeatmapID:3616289
BeatmapSetID:1766665

[Difficulty]
HPDrainRate:7
CircleSize:2
OverallDifficulty:7
ApproachRate:10
SliderMultiplier:1.5
SliderTickRate:1

[Events]
//Background and Video events
0,0,"yea.jpeg",0,-18
//Break Periods
2,40011,41561
//Storyboard Layer 0 (Background)
//Storyboard Layer 1 (Fail)
//Storyboard Layer 2 (Pass)
//Storyboard Layer 3 (Foreground)
//Storyboard Layer 4 (Overlay)
//Storyboard Sound Samples

[TimingPoints]
11,500,4,1,0,60,1,0
8011,-81.3953487425635,4,1,0,60,0,0
24010,-81.55583,4,1,0,60,0,0
24135,-81.636314,4,1,0,60,0,0
24260,-81.71695,4,1,0,60,0,0
24510,-81.87871,4,1,0,60,0,0
24760,-82.041115,4,1,0,60,0,0
24885,-82.12256,4,1,0,60,0,0
25010,-82.20415,4,1,0,60,0,0
25135,-82.28593,4,1,0,60,0,0
25385,-82.44994,4,1,0,60,0,0
25510,-82.532196,4,1,0,60,0,0
25760,-82.6972,4,1,0,60,0,0
26010,-82.86286,4,1,0,60,0,0
26135,-82.945946,4,1,0,60,0,0
26260,-83.02919,4,1,0,60,0,0
26510,-83.19619,4,1,0,60,0,0
26760,-83.36387,4,1,0,60,0,0
26885,-83.44796,4,1,0,60,0,0
27010,-83.53221,4,1,0,60,0,0
27135,-83.61665,4,1,0,60,0,0
27385,-83.786026,4,1,0,60,0,0
27510,-83.870964,4,1,0,60,0,0
27760,-84.041374,4,1,0,60,0,0
28010,-84.21247,4,1,0,60,0,0
28135,-84.29828,4,1,0,60,0,0
28260,-84.38428,4,1,0,60,0,0
28510,-84.55677,4,1,0,60,0,0
28760,-84.72998,4,1,0,60,0,0
28885,-84.81685,4,1,0,60,0,0
29010,-84.9039,4,1,0,60,0,0
29135,-84.99113,4,1,0,60,0,0
29385,-85.16613,4,1,0,60,0,0
29510,-85.25388,4,1,0,60,0,0
29635,-85.341835,4,1,0,60,0,0
29760,-85.42996,4,1,0,60,0,0
29885,-85.51828,4,1,0,60,0,0
30010,-85.606766,4,1,0,60,0,0
30135,-85.69544,4,1,0,60,0,0
30260,-85.78432,4,1,0,60,0,0
30510,-85.962585,4,1,0,60,0,0
30760,-86.14161,4,1,0,60,0,0
30885,-86.2314,4,1,0,60,0,0
31010,-86.32139,4,1,0,60,0,0
31135,-86.411545,4,1,0,60,0,0
31385,-86.592445,4,1,0,60,0,0
31510,-86.68318,4,1,0,60,0,0
31635,-86.77409,4,1,0,60,0,0
31760,-86.86522,4,1,0,60,0,0
31885,-86.95652,4,1,0,60,0,0
32011,-74.0137665605803,4,1,0,60,0,0
40011,-100,4,1,0,55,0,1
42011,500,4,1,0,75,1,0
42011,-62.613486945088,4,1,0,75,0,0
49010,-62.61349,4,1,0,75,0,0
49135,-62.878395,4,1,0,75,0,0
49176,-62.96577,4,1,0,75,0,0
49260,-63.14555,4,1,0,75,0,0
49385,-63.414993,4,1,0,75,0,0
49447,-63.549488,4,1,0,75,0,0
49510,-63.686733,4,1,0,75,0,0
49635,-63.96082,4,1,0,75,0,0
49697,-64.09764,4,1,0,75,0,0
49822,-64.37529,4,1,0,75,0,0
49885,-64.51613,4,1,0,75,0,0
50011,-57.1428571428571,4,1,0,80,0,1
57011,-57.142857,4,1,0,80,0,0
57135,-57.377052,4,1,0,80,0,0
57176,-57.454285,4,1,0,80,0,0
57260,-57.613167,4,1,0,80,0,0
57385,-57.85124,4,1,0,80,0,0
57447,-57.97005,4,1,0,80,0,0
57510,-58.09129,4,1,0,80,0,0
57635,-58.333336,4,1,0,80,0,0
57697,-58.45414,4,1,0,80,0,0
57822,-58.699223,4,1,0,80,0,0
57885,-58.82353,4,1,0,80,0,0
58011,-57.1428571428571,4,1,0,80,0,1
64885,-57.142857,4,1,0,80,0,1
65011,-64.7752299520663,4,1,0,80,0,0
65135,-62.9881582262535,4,1,0,80,0,0
65260,-61.2970454824077,4,1,0,80,0,0
65322,-60.4924082027706,4,1,0,80,0,0
65385,-59.694364851958,4,1,0,80,0,0
65510,-58.173356602676,4,1,0,80,0,0
65572,-57.4481530418797,4,1,0,80,0,0
65635,-56.7279328341275,4,1,0,80,0,0
65697,-56.0381059120202,4,1,0,80,0,0
65760,-55.3525960367541,4,1,0,80,0,0
65885,-54.0452899529806,4,1,0,80,0,0

[Colours]
Combo1 : 239,237,148
Combo2 : 227,100,100
Combo3 : 137,242,248

[HitObjects]
256,192,8011,5,8,0:0:0:0:
256,192,8136,1,8,0:0:0:0:
256,192,8261,1,0,0:0:0:0:
256,192,8386,1,8,0:0:0:0:
256,192,8636,1,0,0:0:0:0:
256,192,8761,1,8,0:0:0:0:
256,192,8886,1,8,0:0:0:0:
256,192,9011,1,0,0:0:0:0:
256,192,9261,1,8,0:0:0:0:
256,192,9511,1,8,0:0:0:0:
256,192,9636,1,8,0:0:0:0:
256,192,9761,1,0,0:0:0:0:
256,192,9886,1,0,0:0:0:0:
256,192,10011,5,8,0:0:0:0:
256,192,10136,1,0,0:0:0:0:
256,192,10261,1,0,0:0:0:0:
256,192,10386,1,8,0:0:0:0:
256,192,10636,1,8,0:0:0:0:
256,192,10761,1,0,0:0:0:0:
256,192,11011,1,8,0:0:0:0:
256,192,11136,1,0,0:0:0:0:
256,192,11261,1,0,0:0:0:0:
256,192,11511,1,8,0:0:0:0:
256,192,11636,1,0,0:0:0:0:
256,192,11761,1,0,0:0:0:0:
256,192,11886,1,0,0:0:0:0:
256,192,12011,5,8,0:0:0:0:
256,192,12136,1,8,0:0:0:0:
256,192,12261,1,0,0:0:0:0:
256,192,12386,1,8,0:0:0:0:
256,192,12636,1,0,0:0:0:0:
256,192,12761,1,8,0:0:0:0:
256,192,12886,1,0,0:0:0:0:
256,192,13011,1,0,0:0:0:0:
256,192,13261,1,8,0:0:0:0:
256,192,13511,1,0,0:0:0:0:
256,192,13636,1,8,0:0:0:0:
256,192,13761,1,0,0:0:0:0:
256,192,13886,1,0,0:0:0:0:
256,192,14011,5,8,0:0:0:0:
256,192,14136,1,8,0:0:0:0:
256,192,14261,1,0,0:0:0:0:
256,192,14386,1,8,0:0:0:0:
256,192,14636,1,0,0:0:0:0:
256,192,14761,1,8,0:0:0:0:
256,192,15011,1,8,0:0:0:0:
256,192,15073,1,8,0:0:0:0:
256,192,15136,1,8,0:0:0:0:
256,192,15261,1,0,0:0:0:0:
256,192,15386,1,0,0:0:0:0:
256,192,15511,1,8,0:0:0:0:
256,192,15636,1,0,0:0:0:0:
256,192,15698,1,0,0:0:0:0:
256,192,15761,1,8,0:0:0:0:
256,192,15823,1,8,0:0:0:0:
256,192,15886,1,0,0:0:0:0:
256,192,16011,5,8,0:0:0:0:
256,192,16136,1,8,0:0:0:0:
256,192,16261,1,0,0:0:0:0:
256,192,16386,1,8,0:0:0:0:
256,192,16636,1,8,0:0:0:0:
256,192,16761,1,0,0:0:0:0:
256,192,16886,1,0,0:0:0:0:
256,192,17011,1,8,0:0:0:0:
256,192,17261,1,0,0:0:0:0:
256,192,17511,1,8,0:0:0:0:
256,192,17636,1,0,0:0:0:0:
256,192,17761,1,8,0:0:0:0:
256,192,17886,1,8,0:0:0:0:
256,192,18011,5,0,0:0:0:0:
256,192,18136,1,0,0:0:0:0:
256,192,18261,1,0,0:0:0:0:
256,192,18386,1,8,0:0:0:0:
256,192,18636,1,8,0:0:0:0:
256,192,18761,1,0,0:0:0:0:
256,192,19011,1,8,0:0:0:0:
256,192,19136,1,0,0:0:0:0:
256,192,19261,1,0,0:0:0:0:
256,192,19511,1,8,0:0:0:0:
256,192,19636,1,0,0:0:0:0:
256,192,19761,1,0,0:0:0:0:
256,192,19886,1,0,0:0:0:0:
256,192,20011,5,8,0:0:0:0:
256,192,20136,1,8,0:0:0:0:
256,192,20261,1,0,0:0:0:0:
256,192,20386,1,8,0:0:0:0:
256,192,20636,1,0,0:0:0:0:
256,192,20761,1,8,0:0:0:0:
256,192,20886,1,0,0:0:0:0:
256,192,21011,1,0,0:0:0:0:
256,192,21261,1,8,0:0:0:0:
256,192,21511,1,0,0:0:0:0:
256,192,21636,1,8,0:0:0:0:
256,192,21761,1,0,0:0:0:0:
256,192,21886,1,0,0:0:0:0:
256,192,22011,5,8,0:0:0:0:
256,192,22136,1,8,0:0:0:0:
256,192,22261,1,0,0:0:0:0:
256,192,22386,1,8,0:0:0:0:
256,192,22636,1,0,0:0:0:0:
256,192,22761,1,8,0:0:0:0:
256,192,23011,1,8,0:0:0:0:
256,192,23073,1,8,0:0:0:0:
256,192,23136,1,0,0:0:0:0:
256,192,23198,1,0,0:0:0:0:
256,192,23261,1,8,0:0:0:0:
256,192,23386,1,8,0:0:0:0:
256,192,23511,1,0,0:0:0:0:
256,192,23573,1,0,0:0:0:0:
256,192,23636,1,0,0:0:0:0:
256,192,23761,1,8,0:0:0:0:
256,192,24011,5,0,0:0:0:0:
256,192,24136,1,8,0:0:0:0:
256,192,24261,1,8,0:0:0:0:
256,192,24511,1,0,0:0:0:0:
256,192,24761,1,8,0:0:0:0:
256,192,24886,1,8,0:0:0:0:
256,192,25011,1,0,0:0:0:0:
256,192,25136,1,8,0:0:0:0:
256,192,25386,1,8,0:0:0:0:
256,192,25511,1,0,0:0:0:0:
256,192,25761,1,8,0:0:0:0:
256,192,26011,5,0,0:0:0:0:
256,192,26136,1,0,0:0:0:0:
256,192,26261,1,8,0:0:0:0:
256,192,26511,1,0,0:0:0:0:
256,192,26761,1,8,0:0:0:0:
256,192,26886,1,0,0:0:0:0:
256,192,27011,1,0,0:0:0:0:
256,192,27136,1,8,0:0:0:0:
256,192,27386,1,0,0:0:0:0:
256,192,27511,1,8,0:0:0:0:
256,192,27761,1,0,0:0:0:0:
256,192,28011,5,0,0:0:0:0:
256,192,28136,1,8,0:0:0:0:
256,192,28261,1,8,0:0:0:0:
256,192,28511,1,0,0:0:0:0:
256,192,28761,1,8,0:0:0:0:
256,192,28886,1,8,0:0:0:0:
256,192,29011,1,0,0:0:0:0:
256,192,29136,1,8,0:0:0:0:
256,192,29386,1,8,0:0:0:0:
256,192,29511,1,0,0:0:0:0:
256,192,29636,1,8,0:0:0:0:
256,192,29761,1,0,0:0:0:0:
256,192,29886,1,0,0:0:0:0:
256,192,30011,1,8,0:0:0:0:
256,192,30136,1,0,0:0:0:0:
256,192,30261,1,8,0:0:0:0:
256,192,30511,1,0,0:0:0:0:
256,192,30761,1,8,0:0:0:0:
256,192,30886,1,0,0:0:0:0:
256,192,31011,1,0,0:0:0:0:
256,192,31136,1,8,0:0:0:0:
256,192,31386,1,8,0:0:0:0:
256,192,31511,1,0,0:0:0:0:
256,192,31636,1,0,0:0:0:0:
256,192,31761,1,0,0:0:0:0:
256,192,31886,1,0,0:0:0:0:
256,192,32011,5,12,0:0:0:0:
256,192,32261,1,0,0:0:0:0:
256,192,32511,1,8,0:0:0:0:
256,192,33011,1,8,0:0:0:0:
256,192,33136,1,0,0:0:0:0:
256,192,33386,1,0,0:0:0:0:
256,192,33636,1,0,0:0:0:0:
205,201,33761,1,8,0:0:0:0:
256,192,34011,5,4,0:0:0:0:
256,192,34261,1,0,0:0:0:0:
256,192,34511,1,8,0:0:0:0:
256,192,35011,1,8,0:0:0:0:
256,192,35136,1,0,0:0:0:0:
256,192,35386,1,0,0:0:0:0:
256,192,35636,1,8,0:0:0:0:
256,192,35761,1,0,0:0:0:0:
256,192,35886,1,0,0:0:0:0:
256,192,36011,5,12,0:0:0:0:
256,192,36261,1,0,0:0:0:0:
256,192,36511,1,8,0:0:0:0:
256,192,37011,1,8,0:0:0:0:
256,192,37136,1,0,0:0:0:0:
256,192,37386,1,0,0:0:0:0:
256,192,37636,1,0,0:0:0:0:
256,192,37761,1,8,0:0:0:0:
256,192,38011,5,12,0:0:0:0:
256,192,38261,1,0,0:0:0:0:
256,192,38511,1,8,0:0:0:0:
256,192,39011,1,8,0:0:0:0:
256,192,39136,1,0,0:0:0:0:
256,192,39386,1,8,0:0:0:0:
256,192,39636,1,0,0:0:0:0:
256,192,39761,1,8,0:0:0:0:
256,192,42011,5,8,0:0:0:0:
256,192,42073,1,8,0:0:0:0:
256,192,42136,1,0,0:0:0:0:
256,192,42198,1,0,0:0:0:0:
256,192,42261,1,8,0:0:0:0:
256,192,42386,1,8,0:0:0:0:
256,192,42511,1,0,0:0:0:0:
256,192,42573,1,0,0:0:0:0:
256,192,42636,1,8,0:0:0:0:
256,192,42761,1,0,0:0:0:0:
256,192,42823,1,0,0:0:0:0:
256,192,42886,1,8,0:0:0:0:
256,192,43011,1,8,0:0:0:0:
256,192,43136,1,0,0:0:0:0:
256,192,43261,1,8,0:0:0:0:
256,192,43386,1,8,0:0:0:0:
256,192,43511,1,0,0:0:0:0:
256,192,43761,1,0,0:0:0:0:
256,192,44011,1,8,0:0:0:0:
256,192,44073,1,0,0:0:0:0:
256,192,44136,1,0,0:0:0:0:
256,192,44198,1,0,0:0:0:0:
256,192,44261,1,8,0:0:0:0:
256,192,44386,1,8,0:0:0:0:
256,192,44511,1,0,0:0:0:0:
256,192,44573,1,8,0:0:0:0:
256,192,44636,1,8,0:0:0:0:
256,192,44761,1,0,0:0:0:0:
256,192,44823,1,8,0:0:0:0:
256,192,44886,1,8,0:0:0:0:
256,192,45011,1,0,0:0:0:0:
256,192,45136,1,8,0:0:0:0:
256,192,45261,1,0,0:0:0:0:
256,192,45386,1,0,0:0:0:0:
256,192,45511,1,8,0:0:0:0:
256,192,45761,1,8,0:0:0:0:
256,192,46011,5,0,0:0:0:0:
256,192,46073,1,0,0:0:0:0:
256,192,46136,1,8,0:0:0:0:
256,192,46198,1,8,0:0:0:0:
256,192,46261,1,0,0:0:0:0:
256,192,46386,1,0,0:0:0:0:
256,192,46511,1,8,0:0:0:0:
256,192,46573,1,8,0:0:0:0:
256,192,46636,1,0,0:0:0:0:
256,192,46761,1,8,0:0:0:0:
256,192,46823,1,8,0:0:0:0:
256,192,46886,1,0,0:0:0:0:
256,192,47011,1,8,0:0:0:0:
256,192,47136,1,8,0:0:0:0:
256,192,47261,1,0,0:0:0:0:
256,192,47386,1,0,0:0:0:0:
256,192,47511,1,8,0:0:0:0:
256,192,47761,1,0,0:0:0:0:
256,192,48011,1,0,0:0:0:0:
256,192,48073,1,0,0:0:0:0:
256,192,48136,1,0,0:0:0:0:
256,192,48198,1,8,0:0:0:0:
256,192,48261,1,0,0:0:0:0:
256,192,48386,1,8,0:0:0:0:
256,192,48511,1,0,0:0:0:0:
256,192,48573,1,0,0:0:0:0:
256,192,48636,1,8,0:0:0:0:
256,192,48761,1,0,0:0:0:0:
256,192,48823,1,0,0:0:0:0:
256,192,48886,1,8,0:0:0:0:
256,192,49011,1,0,0:0:0:0:
256,192,49136,1,8,0:0:0:0:
256,192,49177,1,8,0:0:0:0:
256,192,49261,1,0,0:0:0:0:
256,192,49386,1,8,0:0:0:0:
256,192,49448,1,8,0:0:0:0:
256,192,49511,1,0,0:0:0:0:
256,192,49636,1,0,0:0:0:0:
256,192,49698,1,8,0:0:0:0:
256,192,49823,1,8,0:0:0:0:
256,192,49886,1,0,0:0:0:0:
256,192,50011,5,8,0:0:0:0:
256,192,50073,1,8,0:0:0:0:
256,192,50136,1,0,0:0:0:0:
256,192,50198,1,0,0:0:0:0:
256,192,50261,1,8,0:0:0:0:
256,192,50386,1,8,0:0:0:0:
256,192,50511,1,0,0:0:0:0:
256,192,50573,1,0,0:0:0:0:
256,192,50636,1,8,0:0:0:0:
256,192,50761,1,0,0:0:0:0:
256,192,50886,1,8,0:0:0:0:
256,192,51011,1,0,0:0:0:0:
256,192,51073,1,0,0:0:0:0:
256,192,51136,1,8,0:0:0:0:
256,192,51198,1,8,0:0:0:0:
256,192,51261,1,0,0:0:0:0:
256,192,51386,1,0,0:0:0:0:
256,192,51511,1,8,0:0:0:0:
256,192,51573,1,0,0:0:0:0:
256,192,51636,1,0,0:0:0:0:
256,192,51761,1,8,0:0:0:0:
256,192,52011,1,8,0:0:0:0:
256,192,52073,1,0,0:0:0:0:
256,192,52136,1,0,0:0:0:0:
256,192,52198,1,0,0:0:0:0:
256,192,52261,1,8,0:0:0:0:
256,192,52386,1,0,0:0:0:0:
256,192,52511,1,8,0:0:0:0:
256,192,52573,1,8,0:0:0:0:
256,192,52636,1,0,0:0:0:0:
256,192,52761,1,8,0:0:0:0:
256,192,52886,1,8,0:0:0:0:
256,192,53011,1,0,0:0:0:0:
256,192,53073,1,0,0:0:0:0:
256,192,53136,1,8,0:0:0:0:
256,192,53198,1,0,0:0:0:0:
256,192,53261,1,0,0:0:0:0:
256,192,53386,1,8,0:0:0:0:
256,192,53511,1,0,0:0:0:0:
256,192,53573,1,0,0:0:0:0:
256,192,53636,1,8,0:0:0:0:
256,192,53761,1,0,0:0:0:0:
256,192,54011,5,0,0:0:0:0:
256,192,54073,1,0,0:0:0:0:
256,192,54136,1,8,0:0:0:0:
256,192,54198,1,8,0:0:0:0:
256,192,54261,1,0,0:0:0:0:
256,192,54386,1,0,0:0:0:0:
256,192,54511,1,8,0:0:0:0:
256,192,54573,1,8,0:0:0:0:
256,192,54636,1,0,0:0:0:0:
256,192,54761,1,8,0:0:0:0:
256,192,54886,1,0,0:0:0:0:
256,192,55011,1,8,0:0:0:0:
256,192,55073,1,0,0:0:0:0:
256,192,55136,1,0,0:0:0:0:
256,192,55198,1,0,0:0:0:0:
256,192,55261,1,8,0:0:0:0:
256,192,55386,1,0,0:0:0:0:
256,192,55511,1,8,0:0:0:0:
256,192,55573,1,8,0:0:0:0:
256,192,55636,1,8,0:0:0:0:
256,192,55761,1,0,0:0:0:0:
256,192,56011,1,0,0:0:0:0:
256,192,56073,1,0,0:0:0:0:
256,192,56136,1,0,0:0:0:0:
256,192,56198,1,8,0:0:0:0:
256,192,56261,1,0,0:0:0:0:
256,192,56386,1,8,0:0:0:0:
256,192,56511,1,0,0:0:0:0:
256,192,56573,1,0,0:0:0:0:
256,192,56636,1,8,0:0:0:0:
256,192,56761,1,0,0:0:0:0:
256,192,56886,1,8,0:0:0:0:
256,192,57011,1,0,0:0:0:0:
256,192,57136,1,8,0:0:0:0:
256,192,57177,1,8,0:0:0:0:
256,192,57261,1,0,0:0:0:0:
256,192,57386,1,8,0:0:0:0:
256,192,57448,1,8,0:0:0:0:
256,192,57511,1,0,0:0:0:0:
256,192,57636,1,0,0:0:0:0:
256,192,57698,1,8,0:0:0:0:
256,192,57823,1,8,0:0:0:0:
256,192,57886,1,0,0:0:0:0:
256,192,58011,5,8,0:0:0:0:
256,192,58073,1,0,0:0:0:0:
256,192,58136,1,0,0:0:0:0:
256,192,58198,1,0,0:0:0:0:
256,192,58261,1,8,0:0:0:0:
256,192,58386,1,0,0:0:0:0:
256,192,58511,1,8,0:0:0:0:
256,192,58573,1,8,0:0:0:0:
256,192,58636,1,0,0:0:0:0:
256,192,58761,1,8,0:0:0:0:
256,192,58886,1,8,0:0:0:0:
256,192,59011,1,0,0:0:0:0:
256,192,59073,1,0,0:0:0:0:
256,192,59136,1,8,0:0:0:0:
256,192,59198,1,0,0:0:0:0:
256,192,59261,1,0,0:0:0:0:
256,192,59386,1,8,0:0:0:0:
256,192,59511,1,0,0:0:0:0:
256,192,59573,1,0,0:0:0:0:
256,192,59636,1,0,0:0:0:0:
256,192,59761,1,8,0:0:0:0:
256,192,60011,1,8,0:0:0:0:
256,192,60073,1,8,0:0:0:0:
256,192,60136,1,0,0:0:0:0:
256,192,60198,1,0,0:0:0:0:
256,192,60261,1,8,0:0:0:0:
256,192,60386,1,0,0:0:0:0:
256,192,60511,1,8,0:0:0:0:
256,192,60573,1,0,0:0:0:0:
256,192,60636,1,0,0:0:0:0:
256,192,60761,1,8,0:0:0:0:
256,192,60886,1,0,0:0:0:0:
256,192,61011,1,0,0:0:0:0:
256,192,61073,1,0,0:0:0:0:
256,192,61136,1,8,0:0:0:0:
256,192,61198,1,8,0:0:0:0:
256,192,61261,1,8,0:0:0:0:
256,192,61386,1,0,0:0:0:0:
256,192,61511,1,8,0:0:0:0:
256,192,61573,1,8,0:0:0:0:
256,192,61636,1,0,0:0:0:0:
256,192,61761,1,8,0:0:0:0:
256,192,62011,5,0,0:0:0:0:
256,192,62073,1,0,0:0:0:0:
256,192,62136,1,8,0:0:0:0:
256,192,62198,1,8,0:0:0:0:
256,192,62261,1,0,0:0:0:0:
256,192,62386,1,0,0:0:0:0:
256,192,62511,1,8,0:0:0:0:
256,192,62573,1,0,0:0:0:0:
256,192,62636,1,0,0:0:0:0:
256,192,62761,1,8,0:0:0:0:
256,192,62886,1,0,0:0:0:0:
256,192,63011,1,8,0:0:0:0:
256,192,63073,1,0,0:0:0:0:
256,192,63136,1,0,0:0:0:0:
256,192,63198,1,0,0:0:0:0:
256,192,63261,1,8,0:0:0:0:
256,192,63386,1,0,0:0:0:0:
256,192,63511,1,8,0:0:0:0:
256,192,63573,1,8,0:0:0:0:
256,192,63636,1,0,0:0:0:0:
256,192,63761,1,8,0:0:0:0:
256,192,64011,1,8,0:0:0:0:
256,192,64073,1,8,0:0:0:0:
256,192,64136,1,0,0:0:0:0:
256,192,64198,1,0,0:0:0:0:
256,192,64261,1,0,0:0:0:0:
256,192,64386,1,8,0:0:0:0:
256,192,64511,1,0,0:0:0:0:
256,192,64573,1,0,0:0:0:0:
256,192,64636,1,8,0:0:0:0:
256,192,64761,1,0,0:0:0:0:
256,192,64886,1,8,0:0:0:0:
256,192,65011,1,0,0:0:0:0:
256,192,65136,1,8,0:0:0:0:
256,192,65261,1,0,0:0:0:0:
256,192,65323,1,0,0:0:0:0:
256,192,65386,1,0,0:0:0:0:
256,192,65511,1,8,0:0:0:0:
256,192,65573,1,8,0:0:0:0:
256,192,65636,1,0,0:0:0:0:
256,192,65698,1,0,0:0:0:0:
256,192,65761,1,8,0:0:0:0:
256,192,65886,1,8,0:0:0:0:
