osu file format v14

[General]
AudioFilename: By Your Side.mp3
AudioLeadIn: 0
PreviewTime: 43965
Countdown: 0
SampleSet: Soft
StackLeniency: 0.7
Mode: 3
LetterboxInBreaks: 0
SpecialStyle: 0
WidescreenStoryboard: 0

[Editor]
DistanceSpacing: 0.8
BeatDivisor: 2
GridSize: 32
TimelineZoom: 1

[Metadata]
Title:By Your Side.
TitleUnicode:By Your Side.
Artist:Pedro Silva
ArtistUnicode:Pedro Silva
Creator:AutotelicBrown
Version:7K Easy
Source:OMORI
Tags:Mari's Theme OMOCAT OST Original Soundtrack Video Game Videogame VGM Classical Electronic Chiptune Instrumental Piano Aubrey Hero Basil Kel 燈菓子 とうかし Tokashi Toukashi 2ToU9
BeatmapID:3498655
BeatmapSetID:1712197

[Difficulty]
HPDrainRate:6.9
CircleSize:7
OverallDifficulty:6.9
ApproachRate:5
SliderMultiplier:1.4
SliderTickRate:1

[Events]
//Background and Video events
0,0,"bg.jpg",0,0
//Break Periods
//Storyboard Layer 0 (Background)
//Storyboard Layer 1 (Fail)
//Storyboard Layer 2 (Pass)
//Storyboard Layer 3 (Foreground)
//Storyboard Layer 4 (Overlay)
//Storyboard Sound Samples

[TimingPoints]
375,636.733135,4,2,1,25,1,0
375,-107.52688172043,4,2,1,25,0,0
1012,681.818182,3,2,1,25,1,8
3057,681.818182,4,2,1,25,1,0
11238,681.818182,4,2,1,25,1,0
43965,-100,4,2,1,25,0,1
87603,636.733135,4,2,1,25,1,0
87603,-107.52688172043,4,2,1,25,0,0
88239,681.818182,3,2,1,25,1,8
90284,681.818182,4,2,1,15,1,0

[HitObjects]
416,192,693,5,0,0:0:0:0:
352,192,852,1,0,0:0:0:0:
224,192,1012,1,0,0:0:0:0:
160,192,1352,1,0,0:0:0:0:
352,192,1693,1,0,0:0:0:0:
160,192,2375,1,0,0:0:0:0:
352,192,2716,1,0,0:0:0:0:
96,192,3057,1,0,0:0:0:0:
224,192,4079,1,0,0:0:0:0:
32,192,4420,1,0,0:0:0:0:
160,192,5102,1,0,0:0:0:0:
352,192,5443,1,0,0:0:0:0:
416,192,6125,1,0,0:0:0:0:
352,192,6295,1,0,0:0:0:0:
224,192,6466,1,0,0:0:0:0:
160,192,6807,1,0,0:0:0:0:
352,192,7147,1,0,0:0:0:0:
160,192,7829,1,0,0:0:0:0:
352,192,8170,1,0,0:0:0:0:
96,192,8511,1,0,0:0:0:0:
96,192,9534,1,0,0:0:0:0:
480,192,9875,1,0,0:0:0:0:
416,192,11578,1,0,0:0:0:0:
352,192,11919,1,0,0:0:0:0:
224,192,12260,1,0,0:0:0:0:
160,192,12601,1,0,0:0:0:0:
160,192,13283,1,0,0:0:0:0:
352,192,13624,1,0,0:0:0:0:
96,192,13965,1,0,0:0:0:0:
480,192,14988,1,0,0:0:0:0:
224,192,15158,1,0,0:0:0:0:
32,192,15328,1,0,0:0:0:0:
96,192,16010,1,0,0:0:0:0:
352,192,16351,1,0,0:0:0:0:
160,192,16692,1,0,0:0:0:0:
416,192,17033,1,0,0:0:0:0:
352,192,17374,1,0,0:0:0:0:
224,192,17715,1,0,0:0:0:0:
96,192,18056,1,0,0:0:0:0:
160,192,18738,1,0,0:0:0:0:
352,192,19078,1,0,0:0:0:0:
32,192,19419,1,0,0:0:0:0:
224,192,20101,1,0,0:0:0:0:
224,192,20783,1,0,0:0:0:0:
224,192,21465,1,0,0:0:0:0:
416,192,21806,1,0,0:0:0:0:
96,192,22147,1,0,0:0:0:0:
480,192,22488,1,0,0:0:0:0:
160,192,22828,1,0,0:0:0:0:
352,192,22999,1,0,0:0:0:0:
160,192,23169,1,0,0:0:0:0:
416,192,23340,1,0,0:0:0:0:
32,192,23510,1,0,0:0:0:0:
32,192,24192,1,0,0:0:0:0:
352,192,24533,1,0,0:0:0:0:
160,192,24874,1,0,0:0:0:0:
480,192,25897,1,0,0:0:0:0:
96,192,26238,1,0,0:0:0:0:
96,192,26919,1,0,0:0:0:0:
224,192,27260,1,0,0:0:0:0:
416,192,27942,1,0,0:0:0:0:
352,192,28113,1,0,0:0:0:0:
224,192,28283,1,0,0:0:0:0:
160,192,28624,1,0,0:0:0:0:
352,192,28965,1,0,0:0:0:0:
160,192,29647,1,0,0:0:0:0:
224,192,29988,1,0,0:0:0:0:
224,192,30328,1,0,0:0:0:0:
32,192,30669,1,0,0:0:0:0:
32,192,31351,1,0,0:0:0:0:
480,192,31692,1,0,0:0:0:0:
352,192,33397,1,0,0:0:0:0:
160,192,33738,1,0,0:0:0:0:
352,192,33908,1,0,0:0:0:0:
160,192,34078,1,0,0:0:0:0:
416,192,34419,1,0,0:0:0:0:
96,192,34760,1,0,0:0:0:0:
32,192,35101,1,0,0:0:0:0:
480,192,35442,1,0,0:0:0:0:
352,192,35783,1,0,0:0:0:0:
416,192,36806,1,0,0:0:0:0:
224,192,36976,1,0,0:0:0:0:
96,192,37147,1,0,0:0:0:0:
480,192,37828,1,0,0:0:0:0:
352,192,38169,1,0,0:0:0:0:
160,192,38510,1,0,0:0:0:0:
96,192,39192,1,0,0:0:0:0:
416,192,39363,1,0,0:0:0:0:
96,192,39533,1,0,0:0:0:0:
224,192,39874,1,0,0:0:0:0:
224,192,40556,1,0,0:0:0:0:
352,192,40897,1,0,0:0:0:0:
160,192,41238,1,0,0:0:0:0:
32,192,42601,1,0,0:0:0:0:
224,192,43283,1,0,0:0:0:0:
352,192,43624,1,0,0:0:0:0:
160,192,43965,1,0,0:0:0:0:
96,192,43965,1,0,0:0:0:0:
416,192,44306,1,0,0:0:0:0:
352,192,44476,1,0,0:0:0:0:
224,192,44647,1,0,0:0:0:0:
160,192,44988,1,0,0:0:0:0:
480,192,45328,1,0,0:0:0:0:
416,192,45328,1,0,0:0:0:0:
160,192,46010,1,0,0:0:0:0:
416,192,46351,1,0,0:0:0:0:
352,192,46692,1,0,0:0:0:0:
96,192,46692,1,0,0:0:0:0:
224,192,47715,1,0,0:0:0:0:
96,192,47715,1,0,0:0:0:0:
416,192,48056,1,0,0:0:0:0:
32,192,48056,1,0,0:0:0:0:
224,192,48738,1,0,0:0:0:0:
32,192,48738,1,0,0:0:0:0:
352,192,49078,1,0,0:0:0:0:
96,192,49419,1,0,0:0:0:0:
416,192,49760,1,0,0:0:0:0:
352,192,49931,1,0,0:0:0:0:
224,192,50101,1,0,0:0:0:0:
160,192,50442,1,0,0:0:0:0:
416,192,50783,1,0,0:0:0:0:
352,192,50783,1,0,0:0:0:0:
160,192,51465,1,0,0:0:0:0:
416,192,51806,1,0,0:0:0:0:
480,192,52147,1,0,0:0:0:0:
96,192,52147,1,0,0:0:0:0:
480,192,53169,1,0,0:0:0:0:
96,192,53169,1,0,0:0:0:0:
352,192,53510,1,0,0:0:0:0:
224,192,53510,1,0,0:0:0:0:
416,192,54533,1,0,0:0:0:0:
32,192,54874,1,0,0:0:0:0:
480,192,55215,1,0,0:0:0:0:
352,192,55556,1,0,0:0:0:0:
160,192,55897,1,0,0:0:0:0:
416,192,56238,1,0,0:0:0:0:
32,192,56238,1,0,0:0:0:0:
32,192,56919,1,0,0:0:0:0:
480,192,57260,1,0,0:0:0:0:
352,192,57601,1,0,0:0:0:0:
96,192,57601,1,0,0:0:0:0:
480,192,58624,1,0,0:0:0:0:
352,192,58794,1,0,0:0:0:0:
160,192,58965,1,0,0:0:0:0:
32,192,58965,1,0,0:0:0:0:
224,192,59647,1,0,0:0:0:0:
96,192,59647,1,0,0:0:0:0:
352,192,59988,1,0,0:0:0:0:
416,192,60328,1,0,0:0:0:0:
160,192,60328,1,0,0:0:0:0:
480,192,60669,1,0,0:0:0:0:
416,192,61010,1,0,0:0:0:0:
224,192,61351,1,0,0:0:0:0:
96,192,61692,1,0,0:0:0:0:
32,192,61692,1,0,0:0:0:0:
160,192,62374,1,0,0:0:0:0:
416,192,62715,1,0,0:0:0:0:
352,192,63056,1,0,0:0:0:0:
32,192,63056,1,0,0:0:0:0:
224,192,63738,1,0,0:0:0:0:
416,192,64419,1,0,0:0:0:0:
224,192,64419,1,0,0:0:0:0:
224,192,65101,1,0,0:0:0:0:
96,192,65101,1,0,0:0:0:0:
416,192,65442,1,0,0:0:0:0:
352,192,65783,1,0,0:0:0:0:
32,192,65783,1,0,0:0:0:0:
480,192,66124,1,0,0:0:0:0:
160,192,66465,1,0,0:0:0:0:
352,192,66635,1,0,0:0:0:0:
160,192,66806,1,0,0:0:0:0:
416,192,66976,1,0,0:0:0:0:
224,192,67147,1,0,0:0:0:0:
32,192,67147,1,0,0:0:0:0:
224,192,67828,1,0,0:0:0:0:
480,192,68169,1,0,0:0:0:0:
352,192,68510,1,0,0:0:0:0:
160,192,68510,1,0,0:0:0:0:
416,192,69533,1,0,0:0:0:0:
224,192,69874,1,0,0:0:0:0:
96,192,69874,1,0,0:0:0:0:
352,192,70556,1,0,0:0:0:0:
32,192,70556,1,0,0:0:0:0:
480,192,70897,1,0,0:0:0:0:
96,192,71238,1,0,0:0:0:0:
416,192,71578,1,0,0:0:0:0:
352,192,71749,1,0,0:0:0:0:
224,192,71919,1,0,0:0:0:0:
160,192,72260,1,0,0:0:0:0:
416,192,72601,1,0,0:0:0:0:
352,192,72601,1,0,0:0:0:0:
160,192,73283,1,0,0:0:0:0:
224,192,73624,1,0,0:0:0:0:
480,192,73965,1,0,0:0:0:0:
224,192,73965,1,0,0:0:0:0:
32,192,74306,1,0,0:0:0:0:
480,192,74988,1,0,0:0:0:0:
32,192,74988,1,0,0:0:0:0:
352,192,75328,1,0,0:0:0:0:
160,192,75328,1,0,0:0:0:0:
416,192,76010,1,0,0:0:0:0:
224,192,76351,1,0,0:0:0:0:
32,192,76692,1,0,0:0:0:0:
352,192,77033,1,0,0:0:0:0:
160,192,77374,1,0,0:0:0:0:
352,192,77544,1,0,0:0:0:0:
160,192,77715,1,0,0:0:0:0:
224,192,78056,1,0,0:0:0:0:
32,192,78056,1,0,0:0:0:0:
416,192,78397,1,0,0:0:0:0:
160,192,78738,1,0,0:0:0:0:
352,192,79078,1,0,0:0:0:0:
224,192,79078,1,0,0:0:0:0:
480,192,79419,1,0,0:0:0:0:
32,192,79419,1,0,0:0:0:0:
416,192,80442,1,0,0:0:0:0:
352,192,80613,1,0,0:0:0:0:
160,192,80783,1,0,0:0:0:0:
96,192,80783,1,0,0:0:0:0:
480,192,81465,1,0,0:0:0:0:
32,192,81465,1,0,0:0:0:0:
352,192,81806,1,0,0:0:0:0:
224,192,82147,1,0,0:0:0:0:
160,192,82147,1,0,0:0:0:0:
96,192,82828,1,0,0:0:0:0:
416,192,82999,1,0,0:0:0:0:
96,192,83169,1,0,0:0:0:0:
352,192,83510,1,0,0:0:0:0:
160,192,83510,1,0,0:0:0:0:
160,192,84192,1,0,0:0:0:0:
416,192,84533,1,0,0:0:0:0:
224,192,84874,1,0,0:0:0:0:
32,192,84874,1,0,0:0:0:0:
96,192,86238,1,0,0:0:0:0:
224,192,86919,1,0,0:0:0:0:
352,192,87260,1,0,0:0:0:0:
416,192,87921,1,0,0:0:0:0:
352,192,88080,1,0,0:0:0:0:
224,192,88239,1,0,0:0:0:0:
160,192,88579,1,0,0:0:0:0:
352,192,88920,1,0,0:0:0:0:
160,192,89602,1,0,0:0:0:0:
352,192,89943,1,0,0:0:0:0:
96,192,90284,1,0,0:0:0:0:
224,192,91306,1,0,0:0:0:0:
32,192,91647,1,0,0:0:0:0:
160,192,92329,1,0,0:0:0:0:
352,192,92670,1,0,0:0:0:0:
416,192,93352,1,0,0:0:0:0:
352,192,93522,1,0,0:0:0:0:
224,192,93693,1,0,0:0:0:0:
160,192,94034,1,0,0:0:0:0:
352,192,94374,1,0,0:0:0:0:
160,192,95056,1,0,0:0:0:0:
352,192,95397,1,0,0:0:0:0:
96,192,95738,1,0,0:0:0:0:
