osu file format v14

[General]
AudioFilename: By Your Side.mp3
AudioLeadIn: 0
PreviewTime: 43965
Countdown: 0
SampleSet: Soft
StackLeniency: 0.7
Mode: 3
LetterboxInBreaks: 0
SpecialStyle: 0
WidescreenStoryboard: 0

[Editor]
DistanceSpacing: 0.8
BeatDivisor: 2
GridSize: 32
TimelineZoom: 1

[Metadata]
Title:By Your Side.
TitleUnicode:By Your Side.
Artist:Pedro Silva
ArtistUnicode:Pedro Silva
Creator:AutotelicBrown
Version:4K Picnic
Source:OMORI
Tags:Mari's Theme OMOCAT OST Original Soundtrack Video Game Videogame VGM Classical Electronic Chiptune Instrumental Piano Aubrey Hero Basil Kel 燈菓子 とうかし Tokashi Toukashi 2ToU9
BeatmapID:3498654
BeatmapSetID:1712197

[Difficulty]
HPDrainRate:7.5
CircleSize:4
OverallDifficulty:7.5
ApproachRate:5
SliderMultiplier:1.4
SliderTickRate:1

[Events]
//Background and Video events
0,0,"bg.jpg",0,0
//Break Periods
//Storyboard Layer 0 (Background)
//Storyboard Layer 1 (Fail)
//Storyboard Layer 2 (Pass)
//Storyboard Layer 3 (Foreground)
//Storyboard Layer 4 (Overlay)
//Storyboard Sound Samples

[TimingPoints]
375,636.733135,4,2,1,25,1,0
375,-107.52688172043,4,2,1,25,0,0
1012,681.818182,3,2,1,25,1,8
3057,681.818182,4,2,1,25,1,0
11238,681.818182,4,2,1,25,1,0
43965,-100,4,2,1,25,0,1
87603,636.733135,4,2,1,25,1,0
87603,-107.52688172043,4,2,1,25,0,0
88239,681.818182,3,2,1,25,1,8
90284,681.818182,4,2,1,15,1,0

[HitObjects]
320,192,375,5,0,0:0:0:0:
64,192,693,1,0,0:0:0:0:
448,192,693,1,0,0:0:0:0:
320,192,852,1,0,0:0:0:0:
192,192,1012,1,0,0:0:0:0:
64,192,1352,1,0,0:0:0:0:
192,192,1693,1,0,0:0:0:0:
448,192,1693,1,0,0:0:0:0:
320,192,2034,1,0,0:0:0:0:
64,192,2375,1,0,0:0:0:0:
448,192,2716,1,0,0:0:0:0:
64,192,3057,1,0,0:0:0:0:
192,192,3057,1,0,0:0:0:0:
320,192,3397,1,0,0:0:0:0:
192,192,4079,1,0,0:0:0:0:
320,192,4079,1,0,0:0:0:0:
64,192,4420,1,0,0:0:0:0:
448,192,4420,1,0,0:0:0:0:
64,192,5102,1,0,0:0:0:0:
320,192,5443,1,0,0:0:0:0:
192,192,5784,1,0,0:0:0:0:
64,192,6125,1,0,0:0:0:0:
448,192,6125,1,0,0:0:0:0:
320,192,6295,1,0,0:0:0:0:
192,192,6466,1,0,0:0:0:0:
64,192,6807,1,0,0:0:0:0:
192,192,7147,1,0,0:0:0:0:
320,192,7147,1,0,0:0:0:0:
448,192,7488,1,0,0:0:0:0:
64,192,7829,1,0,0:0:0:0:
320,192,8170,1,0,0:0:0:0:
64,192,8511,1,0,0:0:0:0:
192,192,8511,1,0,0:0:0:0:
448,192,8852,1,0,0:0:0:0:
64,192,9534,1,0,0:0:0:0:
320,192,9534,1,0,0:0:0:0:
192,192,9875,1,0,0:0:0:0:
448,192,9875,1,0,0:0:0:0:
64,192,10216,1,0,0:0:0:0:
192,192,10557,1,0,0:0:0:0:
320,192,10897,1,0,0:0:0:0:
64,192,11238,1,0,0:0:0:0:
320,192,11578,1,0,0:0:0:0:
448,192,11578,1,0,0:0:0:0:
192,192,11919,1,0,0:0:0:0:
64,192,12260,1,0,0:0:0:0:
448,192,12260,1,0,0:0:0:0:
192,192,12601,1,0,0:0:0:0:
320,192,12601,1,0,0:0:0:0:
448,192,12942,1,0,0:0:0:0:
64,192,13283,1,0,0:0:0:0:
192,192,13624,1,0,0:0:0:0:
448,192,13624,1,0,0:0:0:0:
64,192,13965,1,0,0:0:0:0:
320,192,13965,1,0,0:0:0:0:
192,192,14306,1,0,0:0:0:0:
192,192,14988,1,0,0:0:0:0:
320,192,14988,1,0,0:0:0:0:
448,192,15158,1,0,0:0:0:0:
320,192,15243,1,0,0:0:0:0:
64,192,15328,1,0,0:0:0:0:
192,192,15328,1,0,0:0:0:0:
448,192,15669,1,0,0:0:0:0:
192,192,16010,1,0,0:0:0:0:
64,192,16351,1,0,0:0:0:0:
448,192,16351,1,0,0:0:0:0:
64,192,16692,1,0,0:0:0:0:
320,192,16692,1,0,0:0:0:0:
192,192,17033,1,0,0:0:0:0:
448,192,17033,1,0,0:0:0:0:
320,192,17374,1,0,0:0:0:0:
64,192,17715,1,0,0:0:0:0:
192,192,17715,1,0,0:0:0:0:
320,192,18056,1,0,0:0:0:0:
448,192,18056,1,0,0:0:0:0:
64,192,18397,1,0,0:0:0:0:
192,192,18738,1,0,0:0:0:0:
64,192,19078,1,0,0:0:0:0:
448,192,19078,1,0,0:0:0:0:
192,192,19419,1,0,0:0:0:0:
320,192,19419,1,0,0:0:0:0:
448,192,19760,1,0,0:0:0:0:
64,192,20101,1,0,0:0:0:0:
448,192,20442,1,0,0:0:0:0:
64,192,20783,1,0,0:0:0:0:
192,192,20783,1,0,0:0:0:0:
448,192,21124,1,0,0:0:0:0:
64,192,21465,1,0,0:0:0:0:
192,192,21806,1,0,0:0:0:0:
448,192,21806,1,0,0:0:0:0:
192,192,22147,1,0,0:0:0:0:
320,192,22147,1,0,0:0:0:0:
64,192,22488,1,0,0:0:0:0:
448,192,22488,1,0,0:0:0:0:
192,192,22828,1,0,0:0:0:0:
320,192,22999,1,0,0:0:0:0:
64,192,23169,1,0,0:0:0:0:
192,192,23169,1,0,0:0:0:0:
448,192,23340,1,0,0:0:0:0:
64,192,23510,1,0,0:0:0:0:
320,192,23510,1,0,0:0:0:0:
448,192,23851,1,0,0:0:0:0:
192,192,24192,1,0,0:0:0:0:
320,192,24533,1,0,0:0:0:0:
448,192,24533,1,0,0:0:0:0:
64,192,24874,1,0,0:0:0:0:
192,192,24874,1,0,0:0:0:0:
320,192,25215,1,0,0:0:0:0:
192,192,25897,1,0,0:0:0:0:
448,192,25897,1,0,0:0:0:0:
64,192,26238,1,0,0:0:0:0:
320,192,26238,1,0,0:0:0:0:
448,192,26578,1,0,0:0:0:0:
64,192,26919,1,0,0:0:0:0:
192,192,26919,1,0,0:0:0:0:
320,192,27260,1,0,0:0:0:0:
448,192,27260,1,0,0:0:0:0:
192,192,27601,1,0,0:0:0:0:
64,192,27942,1,0,0:0:0:0:
448,192,27942,1,0,0:0:0:0:
320,192,28113,1,0,0:0:0:0:
192,192,28283,1,0,0:0:0:0:
64,192,28624,1,0,0:0:0:0:
320,192,28624,1,0,0:0:0:0:
192,192,28965,1,0,0:0:0:0:
448,192,28965,1,0,0:0:0:0:
320,192,29306,1,0,0:0:0:0:
64,192,29647,1,0,0:0:0:0:
320,192,29988,1,0,0:0:0:0:
448,192,29988,1,0,0:0:0:0:
192,192,30328,1,0,0:0:0:0:
320,192,30328,1,0,0:0:0:0:
64,192,30669,1,0,0:0:0:0:
448,192,30669,1,0,0:0:0:0:
64,192,31351,1,0,0:0:0:0:
448,192,31351,1,0,0:0:0:0:
192,192,31692,1,0,0:0:0:0:
448,192,31692,1,0,0:0:0:0:
320,192,32033,1,0,0:0:0:0:
448,192,32374,1,0,0:0:0:0:
320,192,32715,1,0,0:0:0:0:
64,192,33056,1,0,0:0:0:0:
320,192,33397,1,0,0:0:0:0:
448,192,33397,1,0,0:0:0:0:
192,192,33738,1,0,0:0:0:0:
320,192,33908,1,0,0:0:0:0:
192,192,34078,1,0,0:0:0:0:
448,192,34078,1,0,0:0:0:0:
64,192,34419,1,0,0:0:0:0:
320,192,34419,1,0,0:0:0:0:
64,192,34760,1,0,0:0:0:0:
448,192,34760,1,0,0:0:0:0:
192,192,35101,1,0,0:0:0:0:
320,192,35442,1,0,0:0:0:0:
448,192,35442,1,0,0:0:0:0:
64,192,35783,1,0,0:0:0:0:
192,192,35783,1,0,0:0:0:0:
320,192,36124,1,0,0:0:0:0:
320,192,36806,1,0,0:0:0:0:
448,192,36806,1,0,0:0:0:0:
64,192,36976,1,0,0:0:0:0:
448,192,37061,1,0,0:0:0:0:
192,192,37147,1,0,0:0:0:0:
320,192,37147,1,0,0:0:0:0:
64,192,37488,1,0,0:0:0:0:
448,192,37828,1,0,0:0:0:0:
64,192,38169,1,0,0:0:0:0:
320,192,38169,1,0,0:0:0:0:
192,192,38510,1,0,0:0:0:0:
448,192,38510,1,0,0:0:0:0:
320,192,38851,1,0,0:0:0:0:
64,192,39192,1,0,0:0:0:0:
192,192,39363,1,0,0:0:0:0:
64,192,39533,1,0,0:0:0:0:
448,192,39533,1,0,0:0:0:0:
192,192,39874,1,0,0:0:0:0:
320,192,39874,1,0,0:0:0:0:
448,192,40215,1,0,0:0:0:0:
192,192,40556,1,0,0:0:0:0:
320,192,40897,1,0,0:0:0:0:
448,192,40897,1,0,0:0:0:0:
64,192,41238,1,0,0:0:0:0:
192,192,41238,1,0,0:0:0:0:
320,192,41578,1,0,0:0:0:0:
320,192,42260,1,0,0:0:0:0:
64,192,42601,1,0,0:0:0:0:
192,192,43283,1,0,0:0:0:0:
320,192,43624,1,0,0:0:0:0:
64,192,43965,1,0,0:0:0:0:
192,192,43965,1,0,0:0:0:0:
64,192,44306,1,0,0:0:0:0:
448,192,44306,1,0,0:0:0:0:
192,192,44476,1,0,0:0:0:0:
320,192,44476,1,0,0:0:0:0:
64,192,44647,1,0,0:0:0:0:
448,192,44647,1,0,0:0:0:0:
192,192,44988,1,0,0:0:0:0:
320,192,44988,1,0,0:0:0:0:
64,192,45328,1,0,0:0:0:0:
192,192,45328,1,0,0:0:0:0:
448,192,45328,1,0,0:0:0:0:
64,192,46010,1,0,0:0:0:0:
320,192,46010,1,0,0:0:0:0:
192,192,46351,1,0,0:0:0:0:
448,192,46351,1,0,0:0:0:0:
64,192,46692,1,0,0:0:0:0:
320,192,46692,1,0,0:0:0:0:
448,192,46692,1,0,0:0:0:0:
192,192,47715,1,0,0:0:0:0:
320,192,47715,1,0,0:0:0:0:
448,192,47715,1,0,0:0:0:0:
64,192,48056,1,0,0:0:0:0:
192,192,48056,1,0,0:0:0:0:
448,192,48056,1,0,0:0:0:0:
64,192,48738,1,0,0:0:0:0:
192,192,48738,1,0,0:0:0:0:
320,192,48738,1,0,0:0:0:0:
192,192,49078,1,0,0:0:0:0:
448,192,49078,1,0,0:0:0:0:
320,192,49419,1,0,0:0:0:0:
64,192,49760,1,0,0:0:0:0:
448,192,49760,1,0,0:0:0:0:
192,192,49931,1,0,0:0:0:0:
320,192,49931,1,0,0:0:0:0:
64,192,50101,1,0,0:0:0:0:
448,192,50101,1,0,0:0:0:0:
192,192,50442,1,0,0:0:0:0:
320,192,50442,1,0,0:0:0:0:
64,192,50783,1,0,0:0:0:0:
192,192,50783,1,0,0:0:0:0:
448,192,50783,1,0,0:0:0:0:
192,192,51465,1,0,0:0:0:0:
320,192,51465,1,0,0:0:0:0:
64,192,51806,1,0,0:0:0:0:
448,192,51806,1,0,0:0:0:0:
192,192,52147,1,0,0:0:0:0:
320,192,52147,1,0,0:0:0:0:
448,192,52147,1,0,0:0:0:0:
64,192,53169,1,0,0:0:0:0:
192,192,53169,1,0,0:0:0:0:
448,192,53169,1,0,0:0:0:0:
64,192,53510,1,0,0:0:0:0:
320,192,53510,1,0,0:0:0:0:
448,192,53510,1,0,0:0:0:0:
448,192,54533,1,0,0:0:0:0:
64,192,54874,1,0,0:0:0:0:
320,192,55215,1,0,0:0:0:0:
448,192,55215,1,0,0:0:0:0:
192,192,55556,1,0,0:0:0:0:
448,192,55556,1,0,0:0:0:0:
192,192,55897,1,0,0:0:0:0:
320,192,55897,1,0,0:0:0:0:
64,192,56238,1,0,0:0:0:0:
320,192,56238,1,0,0:0:0:0:
448,192,56238,1,0,0:0:0:0:
64,192,56919,1,0,0:0:0:0:
320,192,56919,1,0,0:0:0:0:
192,192,57260,1,0,0:0:0:0:
448,192,57260,1,0,0:0:0:0:
64,192,57601,1,0,0:0:0:0:
192,192,57601,1,0,0:0:0:0:
320,192,57601,1,0,0:0:0:0:
320,192,58624,1,0,0:0:0:0:
448,192,58624,1,0,0:0:0:0:
192,192,58794,1,0,0:0:0:0:
448,192,58880,1,0,0:0:0:0:
64,192,58965,1,0,0:0:0:0:
320,192,58965,1,0,0:0:0:0:
64,192,59647,1,0,0:0:0:0:
192,192,59647,1,0,0:0:0:0:
448,192,59647,1,0,0:0:0:0:
192,192,59988,1,0,0:0:0:0:
320,192,59988,1,0,0:0:0:0:
64,192,60328,1,0,0:0:0:0:
320,192,60328,1,0,0:0:0:0:
448,192,60328,1,0,0:0:0:0:
192,192,60669,1,0,0:0:0:0:
448,192,60669,1,0,0:0:0:0:
64,192,61010,1,0,0:0:0:0:
320,192,61010,1,0,0:0:0:0:
320,192,61351,1,0,0:0:0:0:
448,192,61351,1,0,0:0:0:0:
64,192,61692,1,0,0:0:0:0:
192,192,61692,1,0,0:0:0:0:
448,192,61692,1,0,0:0:0:0:
64,192,62374,1,0,0:0:0:0:
320,192,62374,1,0,0:0:0:0:
192,192,62715,1,0,0:0:0:0:
448,192,62715,1,0,0:0:0:0:
64,192,63056,1,0,0:0:0:0:
192,192,63056,1,0,0:0:0:0:
320,192,63056,1,0,0:0:0:0:
64,192,63738,1,0,0:0:0:0:
448,192,63738,1,0,0:0:0:0:
64,192,64419,1,0,0:0:0:0:
320,192,64419,1,0,0:0:0:0:
448,192,64419,1,0,0:0:0:0:
64,192,65101,1,0,0:0:0:0:
192,192,65101,1,0,0:0:0:0:
448,192,65101,1,0,0:0:0:0:
64,192,65442,1,0,0:0:0:0:
320,192,65442,1,0,0:0:0:0:
192,192,65783,1,0,0:0:0:0:
320,192,65783,1,0,0:0:0:0:
448,192,65783,1,0,0:0:0:0:
64,192,66124,1,0,0:0:0:0:
448,192,66124,1,0,0:0:0:0:
192,192,66465,1,0,0:0:0:0:
320,192,66465,1,0,0:0:0:0:
64,192,66635,1,0,0:0:0:0:
448,192,66635,1,0,0:0:0:0:
192,192,66806,1,0,0:0:0:0:
320,192,66976,1,0,0:0:0:0:
448,192,66976,1,0,0:0:0:0:
64,192,67147,1,0,0:0:0:0:
192,192,67147,1,0,0:0:0:0:
64,192,67828,1,0,0:0:0:0:
192,192,67828,1,0,0:0:0:0:
320,192,68169,1,0,0:0:0:0:
448,192,68169,1,0,0:0:0:0:
64,192,68510,1,0,0:0:0:0:
192,192,68510,1,0,0:0:0:0:
448,192,68510,1,0,0:0:0:0:
64,192,69533,1,0,0:0:0:0:
448,192,69533,1,0,0:0:0:0:
64,192,69874,1,0,0:0:0:0:
192,192,69874,1,0,0:0:0:0:
320,192,69874,1,0,0:0:0:0:
64,192,70556,1,0,0:0:0:0:
192,192,70556,1,0,0:0:0:0:
448,192,70556,1,0,0:0:0:0:
320,192,70897,1,0,0:0:0:0:
448,192,70897,1,0,0:0:0:0:
192,192,71238,1,0,0:0:0:0:
64,192,71578,1,0,0:0:0:0:
448,192,71578,1,0,0:0:0:0:
192,192,71749,1,0,0:0:0:0:
320,192,71749,1,0,0:0:0:0:
64,192,71919,1,0,0:0:0:0:
448,192,71919,1,0,0:0:0:0:
192,192,72260,1,0,0:0:0:0:
320,192,72260,1,0,0:0:0:0:
64,192,72601,1,0,0:0:0:0:
320,192,72601,1,0,0:0:0:0:
448,192,72601,1,0,0:0:0:0:
192,192,73283,1,0,0:0:0:0:
320,192,73283,1,0,0:0:0:0:
64,192,73624,1,0,0:0:0:0:
448,192,73624,1,0,0:0:0:0:
64,192,73965,1,0,0:0:0:0:
192,192,73965,1,0,0:0:0:0:
448,192,73965,1,0,0:0:0:0:
192,192,74306,1,0,0:0:0:0:
320,192,74306,1,0,0:0:0:0:
64,192,74988,1,0,0:0:0:0:
192,192,74988,1,0,0:0:0:0:
320,192,74988,1,0,0:0:0:0:
192,192,75328,1,0,0:0:0:0:
320,192,75328,1,0,0:0:0:0:
448,192,75328,1,0,0:0:0:0:
448,192,76010,1,0,0:0:0:0:
192,192,76351,1,0,0:0:0:0:
64,192,76692,1,0,0:0:0:0:
320,192,77033,1,0,0:0:0:0:
448,192,77033,1,0,0:0:0:0:
64,192,77374,1,0,0:0:0:0:
192,192,77374,1,0,0:0:0:0:
320,192,77544,1,0,0:0:0:0:
448,192,77544,1,0,0:0:0:0:
64,192,77715,1,0,0:0:0:0:
192,192,77715,1,0,0:0:0:0:
64,192,78056,1,0,0:0:0:0:
320,192,78056,1,0,0:0:0:0:
448,192,78056,1,0,0:0:0:0:
192,192,78397,1,0,0:0:0:0:
448,192,78397,1,0,0:0:0:0:
64,192,78738,1,0,0:0:0:0:
320,192,78738,1,0,0:0:0:0:
64,192,79078,1,0,0:0:0:0:
192,192,79078,1,0,0:0:0:0:
448,192,79078,1,0,0:0:0:0:
64,192,79419,1,0,0:0:0:0:
192,192,79419,1,0,0:0:0:0:
320,192,79419,1,0,0:0:0:0:
192,192,80442,1,0,0:0:0:0:
448,192,80442,1,0,0:0:0:0:
320,192,80613,1,0,0:0:0:0:
192,192,80698,1,0,0:0:0:0:
64,192,80783,1,0,0:0:0:0:
448,192,80783,1,0,0:0:0:0:
192,192,81465,1,0,0:0:0:0:
320,192,81465,1,0,0:0:0:0:
448,192,81465,1,0,0:0:0:0:
64,192,81806,1,0,0:0:0:0:
320,192,81806,1,0,0:0:0:0:
64,192,82147,1,0,0:0:0:0:
192,192,82147,1,0,0:0:0:0:
448,192,82147,1,0,0:0:0:0:
64,192,82828,1,0,0:0:0:0:
320,192,82828,1,0,0:0:0:0:
192,192,82999,1,0,0:0:0:0:
448,192,82999,1,0,0:0:0:0:
64,192,83169,1,0,0:0:0:0:
320,192,83169,1,0,0:0:0:0:
192,192,83510,1,0,0:0:0:0:
320,192,83510,1,0,0:0:0:0:
448,192,83510,1,0,0:0:0:0:
64,192,84192,1,0,0:0:0:0:
448,192,84192,1,0,0:0:0:0:
192,192,84533,1,0,0:0:0:0:
320,192,84533,1,0,0:0:0:0:
64,192,84874,1,0,0:0:0:0:
320,192,84874,1,0,0:0:0:0:
448,192,84874,1,0,0:0:0:0:
64,192,86238,1,0,0:0:0:0:
192,192,86919,1,0,0:0:0:0:
448,192,87260,1,0,0:0:0:0:
320,192,87603,1,0,0:0:0:0:
64,192,87921,1,0,0:0:0:0:
448,192,87921,1,0,0:0:0:0:
320,192,88080,1,0,0:0:0:0:
192,192,88239,1,0,0:0:0:0:
64,192,88579,1,0,0:0:0:0:
192,192,88920,1,0,0:0:0:0:
448,192,88920,1,0,0:0:0:0:
320,192,89261,1,0,0:0:0:0:
64,192,89602,1,0,0:0:0:0:
448,192,89943,1,0,0:0:0:0:
64,192,90284,1,0,0:0:0:0:
192,192,90284,1,0,0:0:0:0:
320,192,90624,1,0,0:0:0:0:
320,192,91306,1,0,0:0:0:0:
192,192,91306,1,0,0:0:0:0:
64,192,91647,1,0,0:0:0:0:
448,192,91647,1,0,0:0:0:0:
64,192,92329,1,0,0:0:0:0:
320,192,92670,1,0,0:0:0:0:
192,192,93011,1,0,0:0:0:0:
448,192,93352,1,0,0:0:0:0:
320,192,93522,1,0,0:0:0:0:
192,192,93693,1,0,0:0:0:0:
64,192,94034,1,0,0:0:0:0:
320,192,94374,1,0,0:0:0:0:
64,192,95056,1,0,0:0:0:0:
320,192,95397,1,0,0:0:0:0:
192,192,95738,1,0,0:0:0:0:
