osu file format v14

[General]
AudioFilename: chp.mp3
AudioLeadIn: 0
PreviewTime: 38009
Countdown: 0
SampleSet: Soft
StackLeniency: 0.7
Mode: 0
LetterboxInBreaks: 0
WidescreenStoryboard: 0

[Editor]
DistanceSpacing: 0.8
BeatDivisor: 4
GridSize: 4
TimelineZoom: 1.5

[Metadata]
Title:Connecting Happy!!
TitleUnicode:Connecting Happy!!
Artist:Pecorine(CV:MAO), Kokkoro(CV:Itou Miku), Cal(CV:Tachibana Rika)
ArtistUnicode:ペコリーヌ(CV:M・A・O), コッコロ(CV:伊藤美来), キャル(CV:立花理香)
Creator:CPLs
Version:idk
Source:プリンセスコネクト!Re:Dive
Tags:priconne character song 02 プリコネR cygames wit studio
BeatmapID:1568652
BeatmapSetID:743901

[Difficulty]
HPDrainRate:7
CircleSize:4.3
OverallDifficulty:7
ApproachRate:9.1
SliderMultiplier:1.4
SliderTickRate:1

[Events]
//Background and Video events
0,0,"bg.jpg",0,0
Video,0,"chpv.mp4"
//Break Periods
//Storyboard Layer 0 (Background)
//Storyboard Layer 1 (Fail)
//Storyboard Layer 2 (Pass)
//Storyboard Layer 3 (Foreground)
//Storyboard Sound Samples

[TimingPoints]
747,329.67032967033,4,2,1,50,1,0
747,-125,4,2,1,50,0,0
4043,-100,4,3,1,65,0,0
4373,-66.6666666666667,4,2,25,65,0,0
4703,-100,4,2,1,65,0,0
15252,-125,4,2,1,40,0,0
24483,-100,4,2,1,65,0,0
31900,-66.6666666666667,4,2,1,65,0,0
32230,-100,4,2,1,65,0,0
33219,-66.6666666666667,4,2,1,65,0,0
33714,-100,4,2,1,65,0,0
38659,-66.6666666666667,4,2,25,65,0,0
38988,-100,4,2,1,75,0,1
54153,-66.6666666666667,4,2,1,75,0,1
54648,-100,4,2,1,75,0,1
70637,-100,4,2,1,75,0,0
71626,-66.6666666666667,4,2,25,75,0,0
71955,-100,4,2,1,75,0,0
82834,-100,4,2,25,75,0,0
82917,-100,4,2,1,25,0,0

[Colours]
Combo1 : 218,218,218
Combo2 : 255,159,113
Combo3 : 140,255,140
Combo4 : 176,176,255

[HitObjects]
85,262,747,6,0,L|143:254,2,56,2|0|0,0:0|0:0|0:0,0:0:0:0:
220,137,1241,2,0,L|163:148,2,56,2|0|0,0:0|0:0|0:0,0:0:0:0:
242,239,1736,1,2,0:0:0:0:
63,167,1900,1,2,0:0:0:0:
256,192,2065,12,2,3384,0:0:0:0:
118,141,4043,5,8,0:0:0:0:
118,141,4126,1,8,0:0:0:0:
118,141,4208,1,8,0:0:0:0:
294,249,4373,2,0,L|185:234,1,105.000004005432,4|0,0:0|0:0,0:0:0:0:
94,252,4703,6,0,L|110:178,1,70,4|0,0:0|0:0,0:0:0:0:
194,135,5032,1,8,0:0:0:0:
210,233,5197,2,0,L|291:249,1,70
242,145,5527,2,0,L|143:125,2,70,0|8|0,0:0|0:0|0:0,0:0:0:0:
338,177,6021,5,0,0:0:0:0:
260,282,6186,1,0,0:0:0:0:
215,161,6351,1,8,0:0:0:0:
290,290,6516,1,0,0:0:0:0:
365,182,6681,1,0,0:0:0:0:
200,159,6845,1,0,0:0:0:0:
280,351,7010,2,0,L|294:279,1,70,8|0,0:0|0:0,0:0:0:0:
193,176,7340,6,0,L|172:257,1,70,2|0,0:0|0:0,0:0:0:0:
98,297,7670,1,8,0:0:0:0:
39,179,7834,2,0,L|106:196,1,70
139,315,8164,1,0,0:0:0:0:
69,229,8329,2,0,L|136:246,1,70,8|0,0:0|0:0,0:0:0:0:
179,329,8659,5,0,0:0:0:0:
282,234,8823,1,0,0:0:0:0:
149,177,8988,1,8,0:0:0:0:
183,314,9153,1,0,0:0:0:0:
306,212,9318,2,0,L|249:260,1,70,0|8,0:0|0:0,0:0:0:0:
149,177,9648,2,0,L|194:233,1,70,8|0,0:0|0:0,0:0:0:0:
202,327,9977,6,0,L|124:326,2,70,6|0|8,0:0|0:0|0:0,0:0:0:0:
319,222,10472,1,0,0:0:0:0:
185,182,10637,1,0,0:0:0:0:
200,344,10801,1,0,0:0:0:0:
330,225,10966,1,8,0:0:0:0:
177,176,11131,1,0,0:0:0:0:
181,323,11296,5,0,0:0:0:0:
357,234,11461,1,0,0:0:0:0:
145,165,11626,1,8,0:0:0:0:
169,346,11790,1,0,0:0:0:0:
253,200,11955,2,0,L|212:264,1,70,0|8,0:0|0:0,0:0:0:0:
71,277,12285,2,0,L|108:218,1,70,8|0,0:0|0:0,0:0:0:0:
169,116,12615,5,10,0:0:0:0:
314,126,12779,1,8,0:0:0:0:
210,243,12944,1,8,0:0:0:0:
147,132,13109,5,10,0:0:0:0:
201,283,13274,1,8,0:0:0:0:
309,152,13439,1,8,0:0:0:0:
139,159,13604,5,10,0:0:0:0:
302,186,13768,1,8,0:0:0:0:
193,308,13933,1,8,0:0:0:0:
126,156,14098,6,0,L|165:220,1,70,10|8,0:0|0:0,0:0:0:0:
212,301,14428,1,8,0:0:0:0:
304,161,14593,6,0,L|265:225,1,70,10|8,0:0|0:0,0:0:0:0:
212,301,14922,1,10,0:0:0:0:
212,301,15005,1,0,0:0:0:0:
212,301,15087,1,8,0:0:0:0:
382,311,15252,6,0,L|370:256,1,56,6|0,0:0|0:0,0:0:0:0:
460,222,15582,2,0,L|448:167,1,56
277,249,15911,2,0,L|265:192,1,56
345,116,16241,1,0,0:0:0:0:
241,183,16406,1,0,0:0:0:0:
241,183,16488,1,0,0:0:0:0:
241,183,16571,6,0,P|193:213|131:201,1,112,2|0,0:0|0:0,0:0:0:0:
112,90,17065,2,0,P|137:98|163:135,1,56
58,227,17395,2,0,P|57:192|77:170,1,56
168,228,17725,1,0,0:0:0:0:
168,228,17807,1,0,0:0:0:0:
168,228,17889,5,2,0:0:0:0:
57,243,18054,2,0,L|65:185,1,56
182,152,18384,2,0,L|174:210,1,56
222,297,18714,2,0,P|187:302|148:281,1,56
64,187,19043,2,0,P|99:182|138:203,1,56,0|2,0:0|0:0,0:0:0:0:
292,194,19373,6,0,P|257:189|218:210,1,56
179,325,19703,1,0,0:0:0:0:
99,205,19867,1,2,0:0:0:0:
270,191,20032,2,0,L|197:204,1,56
80,208,20362,1,0,0:0:0:0:
79,208,20444,1,0,0:0:0:0:
75,205,20527,6,0,L|136:195,1,56,6|0,0:0|0:0,0:0:0:0:
197,104,20856,2,0,L|128:113,1,56
242,203,21186,1,0,0:0:0:0:
120,275,21351,1,0,0:0:0:0:
111,115,21516,2,0,L|176:101,1,56
209,209,21845,5,2,0:0:0:0:
94,277,22010,1,0,0:0:0:0:
89,104,22175,1,0,0:0:0:0:
145,190,22340,2,0,P|190:178|268:199,1,112
197,266,22834,1,0,0:0:0:0:
302,85,22999,1,0,0:0:0:0:
302,85,23082,1,0,0:0:0:0:
302,85,23164,6,0,L|309:143,1,56,2|0,0:0|0:0,0:0:0:0:
425,201,23494,2,0,L|417:123,1,56
401,58,23823,1,2,0:0:0:0:
291,158,23988,1,0,0:0:0:0:
451,214,24153,1,0,0:0:0:0:
412,35,24318,1,2,0:0:0:0:
280,175,24483,6,0,P|258:207|255:248,1,70,2|0,0:0|0:0,0:0:0:0:
350,303,24812,1,2,0:0:0:0:
210,337,24977,2,0,P|165:323|156:233,1,140,2|2,0:0|0:0,0:0:0:0:
249,168,25472,1,0,0:0:0:0:
249,168,25554,1,0,0:0:0:0:
249,168,25637,1,0,0:0:0:0:
358,129,25801,6,0,L|304:86,1,70,4|0,0:0|0:0,0:0:0:0:
162,101,26131,2,0,L|216:144,1,70,8|0,0:0|0:0,0:0:0:0:
239,261,26461,2,0,L|289:204,2,70,0|0|8,0:0|0:0|0:0,0:0:0:0:
122,332,26955,1,0,0:0:0:0:
122,332,27038,1,0,0:0:0:0:
122,332,27120,6,0,B|116:296|101:265|101:265|134:192,1,140,2|8,0:0|0:0,0:0:0:0:
79,112,27615,2,0,P|147:99|208:132,1,140
229,278,28109,2,0,L|214:204,1,70,8|0,0:0|0:0,0:0:0:0:
215,209,28356,1,0,0:0:0:0:
215,209,28439,6,0,P|267:197|290:120,1,140,2|8,0:0|0:0,0:0:0:0:
352,194,28933,2,0,L|317:134,1,70
328,36,29263,1,0,0:0:0:0:
181,132,29428,1,8,0:0:0:0:
181,132,29510,1,0,0:0:0:0:
181,132,29593,1,0,0:0:0:0:
386,211,29757,2,0,L|317:177,1,70,2|0,0:0|0:0,0:0:0:0:
87,303,30087,6,0,P|107:268|92:209,1,105,8|0,0:0|0:0,0:0:0:0:
44,183,30417,2,0,P|90:161|138:178,1,105,2|0,0:0|0:0,0:0:0:0:
162,191,30747,1,8,0:0:0:0:
355,262,30911,6,0,P|303:274|235:242,1,105,6|0,0:0|0:0,0:0:0:0:
237,248,31241,1,0,0:0:0:0:
204,104,31406,1,8,0:0:0:0:
307,174,31571,1,0,0:0:0:0:
333,65,31736,1,0,0:0:0:0:
458,217,31900,2,0,L|447:163,1,52.5000020027161,8|0,0:0|0:0,0:0:0:0:
260,72,32065,2,0,L|274:141,1,52.5000020027161,8|0,0:0|0:0,0:0:0:0:
183,217,32230,6,0,B|216:211|216:211|247:224|247:224|292:214,1,105,6|0,0:0|0:0,0:0:0:0:
304,209,32560,1,0,0:0:0:0:
441,280,32725,2,0,L|368:312,1,70,8|0,0:0|0:0,0:0:0:0:
282,304,33054,1,0,0:0:0:0:
405,153,33219,2,0,L|463:125,1,52.5000020027161,8|0,0:0|0:0,0:0:0:0:
267,111,33384,2,0,L|206:141,1,52.5000020027161,8|0,0:0|0:0,0:0:0:0:
241,317,33549,1,0,0:0:0:0:
197,243,33714,6,0,B|157:271|157:271|141:306|141:306|90:330,1,140,6|8,0:0|0:0,0:0:0:0:
91,176,34208,1,0,0:0:0:0:
189,82,34373,2,0,L|181:154,1,70,8|0,0:0|0:0,0:0:0:0:
107,21,34703,2,0,L|99:93,1,70,8|0,0:0|0:0,0:0:0:0:
66,183,35032,6,0,P|53:225|4:275,2,105,10|8|8,0:0|0:0|0:0,0:0:0:0:
161,172,35692,2,0,P|218:176|268:160,2,105,10|8|8,0:0|0:0|0:0,0:0:0:0:
173,296,36351,5,8,0:0:0:0:
43,226,36516,1,8,0:0:0:0:
170,126,36681,1,8,0:0:0:0:
195,323,36845,1,8,0:0:0:0:
16,248,37010,1,8,0:0:0:0:
195,111,37175,1,8,0:0:0:0:
226,336,37340,1,8,0:0:0:0:
150,210,37505,1,8,0:0:0:0:
150,210,37587,1,0,0:0:0:0:
150,210,37670,1,4,0:0:0:0:
249,215,37999,6,0,P|198:202|150:221,1,105,2|0,0:0|0:0,0:0:0:0:
256,298,38329,2,0,P|290:298|317:277,1,70,2|0,0:0|0:0,0:0:0:0:
333,263,38576,1,0,0:0:0:0:
343,246,38659,2,0,B|327:197|366:177|366:177|300:110,1,157.500006008148,6|0,0:0|0:0,0:0:0:0:
244,78,38988,6,0,P|216:101|112:92,1,140,4|8,0:0|0:0,0:0:0:0:
65,230,39483,2,0,L|49:161,1,70
166,192,39812,2,0,L|181:260,1,70,0|8,0:0|0:0,0:0:0:0:
116,322,40143,1,0,0:0:0:0:
116,322,40225,1,0,0:0:0:0:
116,322,40308,2,0,P|169:351|217:336,1,105,2|0,0:0|0:0,0:0:0:0:
236,330,40637,6,0,L|308:304,1,70,8|0,0:0|0:0,0:0:0:0:
159,212,40966,2,0,L|93:235,1,70
125,330,41296,1,8,0:0:0:0:
251,175,41461,1,0,0:0:0:0:
251,175,41544,1,0,0:0:0:0:
251,175,41626,6,0,P|226:130|233:92,1,70,2|0,0:0|0:0,0:0:0:0:
387,133,41955,2,0,P|412:178|405:216,1,70,8|0,0:0|0:0,0:0:0:0:
285,263,42285,1,0,0:0:0:0:
422,324,42450,1,0,0:0:0:0:
450,177,42615,1,8,0:0:0:0:
269,281,42779,1,0,0:0:0:0:
269,281,42862,1,0,0:0:0:0:
270,279,42944,5,2,0:0:0:0:
294,107,43109,2,0,L|286:183,1,70,0|8,0:0|0:0,0:0:0:0:
395,173,43439,2,0,L|382:252,1,70
173,163,43768,2,0,L|186:242,1,70,0|8,0:0|0:0,0:0:0:0:
266,303,44098,1,0,0:0:0:0:
266,303,44181,1,0,0:0:0:0:
266,303,44263,6,0,P|233:323|182:307,1,70,6|0,0:0|0:0,0:0:0:0:
24,232,44593,2,0,P|57:212|108:228,1,70,8|0,0:0|0:0,0:0:0:0:
216,212,44922,1,0,0:0:0:0:
90,310,45087,1,0,0:0:0:0:
102,107,45252,2,0,L|173:102,1,70,8|0,0:0|0:0,0:0:0:0:
196,98,45499,1,0,0:0:0:0:
227,98,45582,6,0,L|255:167,1,70,2|0,0:0|0:0,0:0:0:0:
155,215,45911,1,8,0:0:0:0:
242,287,46076,2,0,P|288:288|354:222,1,140
316,81,46571,1,8,0:0:0:0:
463,117,46736,1,0,0:0:0:0:
463,117,46818,1,0,0:0:0:0:
463,117,46900,6,0,L|462:202,1,70,2|0,0:0|0:0,0:0:0:0:
348,275,47230,2,0,L|362:194,1,70,8|0,0:0|0:0,0:0:0:0:
375,99,47560,1,0,0:0:0:0:
435,258,47725,1,0,0:0:0:0:
274,217,47889,1,8,0:0:0:0:
386,66,48054,1,0,0:0:0:0:
386,66,48137,5,0,0:0:0:0:
386,66,48219,2,0,L|374:144,1,70,10|8,0:0|0:0,0:0:0:0:
466,268,48549,1,8,0:0:0:0:
284,250,48714,2,8,L|265:178,1,70,10|8,0:0|0:0,0:0:0:0:
259,155,48961,2,0,L|295:144,2,35,0|8|0,0:0|0:0|0:0,0:0:0:0:
231,161,49208,1,10,0:0:0:0:
204,170,49290,1,0,0:0:0:0:
177,179,49373,1,8,0:0:0:0:
150,188,49455,1,0,0:0:0:0:
124,199,49538,6,0,B|137:254|137:254|127:291|127:291|141:344,1,140,6|8,0:0|0:0,0:0:0:0:
345,243,50032,2,0,P|246:294|226:285,1,140
261,162,50527,1,8,0:0:0:0:
409,146,50692,1,0,0:0:0:0:
409,146,50774,1,0,0:0:0:0:
409,146,50856,2,0,L|449:211,1,70,2|0,0:0|0:0,0:0:0:0:
402,331,51186,6,0,L|365:271,1,70,8|0,0:0|0:0,0:0:0:0:
434,121,51516,1,0,0:0:0:0:
294,144,51680,1,0,0:0:0:0:
294,144,51763,1,0,0:0:0:0:
294,144,51845,2,0,P|262:177|199:174,1,105,8|0,0:0|0:0,0:0:0:0:
160,245,52175,6,0,L|179:164,1,70,6|0,0:0|0:0,0:0:0:0:
201,51,52505,1,0,0:0:0:0:
333,110,52670,1,10,0:0:0:0:
209,212,52834,1,0,0:0:0:0:
145,287,52999,2,0,L|164:206,1,70,10|0,0:0|0:0,0:0:0:0:
86,136,53247,5,0,0:0:0:0:
86,136,53329,1,10,0:0:0:0:
86,136,53411,2,0,P|121:124|195:147,1,105
327,225,53823,5,10,0:0:0:0:
327,225,53906,2,0,P|289:205|271:160,1,70
270,143,54153,2,0,L|337:133,1,52.5000020027161,10|0,0:0|0:0,0:0:0:0:
460,67,54400,2,0,L|433:134,1,52.5000020027161,10|0,0:0|0:0,0:0:0:0:
435,267,54648,1,10,0:0:0:0:
435,267,54730,1,0,0:0:0:0:
435,267,54812,6,0,L|423:340,1,70,4|0,0:0|0:0,0:0:0:0:
332,249,55142,2,0,L|343:179,1,70,8|0,0:0|0:0,0:0:0:0:
311,334,55472,1,0,0:0:0:0:
435,197,55637,1,0,0:0:0:0:
271,171,55801,1,8,0:0:0:0:
305,356,55966,1,0,0:0:0:0:
305,356,56049,1,0,0:0:0:0:
303,355,56131,6,0,P|233:336|233:336,1,70,2|0,0:0|0:0,0:0:0:0:
147,208,56461,2,0,L|220:222,1,70,8|0,0:0|0:0,0:0:0:0:
343,264,56790,1,0,0:0:0:0:
326,112,56955,1,0,0:0:0:0:
220,185,57120,1,8,0:0:0:0:
371,285,57285,1,0,0:0:0:0:
371,285,57367,1,0,0:0:0:0:
371,285,57450,6,0,P|411:225|413:157,1,140,6|8,0:0|0:0,0:0:0:0:
346,76,57944,1,0,0:0:0:0:
342,266,58109,1,0,0:0:0:0:
187,166,58274,1,0,0:0:0:0:
187,166,58356,1,0,0:0:0:0:
187,166,58439,2,0,L|129:222,1,70,8|0,0:0|0:0,0:0:0:0:
86,116,58768,5,2,0:0:0:0:
56,267,58933,1,0,0:0:0:0:
26,113,59098,1,8,0:0:0:0:
56,267,59263,1,0,0:0:0:0:
151,128,59428,1,2,0:0:0:0:
56,267,59593,1,8,0:0:0:0:
86,116,59757,1,8,0:0:0:0:
86,116,59840,1,0,0:0:0:0:
86,116,59922,1,0,0:0:0:0:
232,143,60087,6,0,B|276:156|276:156|321:132|321:132|385:155,1,140,6|8,0:0|0:0,0:0:0:0:
353,253,60582,2,0,P|395:263|440:190,1,140,8|0,0:0|0:0,0:0:0:0:
443,174,60994,1,0,0:0:0:0:
443,174,61076,2,0,L|433:96,1,70,8|0,0:0|0:0,0:0:0:0:
231,206,61406,6,0,B|186:232|186:232|136:227|136:227|98:241,1,140,6|8,0:0|0:0,0:0:0:0:
97,330,61900,2,0,P|35:303|26:246,1,105,8|0,0:0|0:0,0:0:0:0:
19,243,62230,1,0,0:0:0:0:
19,243,62312,1,0,0:0:0:0:
19,243,62395,2,0,L|32:175,1,70,8|0,0:0|0:0,0:0:0:0:
133,49,62725,6,0,B|127:90|127:90|145:132|145:132|137:190,1,140,6|0,0:0|0:0,0:0:0:0:
98,265,63219,2,0,P|157:276|212:234,1,105,8|0,0:0|0:0,0:0:0:0:
219,241,63549,1,0,0:0:0:0:
219,241,63631,1,0,0:0:0:0:
219,241,63714,2,0,L|293:240,1,70,8|0,0:0|0:0,0:0:0:0:
386,188,64043,6,0,P|343:166|319:167,1,70,6|0,0:0|0:0,0:0:0:0:
366,297,64373,2,0,P|409:319|433:318,1,70,0|8,0:0|0:0,0:0:0:0:
483,210,64703,1,0,0:0:0:0:
275,237,64867,1,0,0:0:0:0:
367,60,65032,1,8,0:0:0:0:
462,216,65197,1,0,0:0:0:0:
434,221,65279,1,0,0:0:0:0:
398,229,65362,6,0,L|416:305,1,70,10|0,0:0|0:0,0:0:0:0:
289,255,65692,2,0,L|272:186,1,70,8|0,0:0|0:0,0:0:0:0:
377,142,66021,2,0,L|360:73,1,70,8|0,0:0|0:0,0:0:0:0:
260,82,66351,2,0,L|191:98,1,70,8|0,0:0|0:0,0:0:0:0:
164,103,66598,1,0,0:0:0:0:
135,110,66681,6,0,P|110:135|106:179,1,70,8|0,0:0|0:0,0:0:0:0:
222,216,67010,2,0,P|216:250|191:275,1,70,8|0,0:0|0:0,0:0:0:0:
72,317,67340,2,0,P|78:283|103:258,1,70,8|0,0:0|0:0,0:0:0:0:
123,239,67587,1,0,0:0:0:0:
143,220,67670,2,0,L|228:217,1,70,8|0,0:0|0:0,0:0:0:0:
243,318,67999,6,0,B|284:318|284:244|362:244,1,140,6|8,0:0|0:0,0:0:0:0:
441,317,68494,1,0,0:0:0:0:
453,192,68659,1,8,0:0:0:0:
439,351,68823,1,0,0:0:0:0:
457,157,68988,1,8,0:0:0:0:
449,254,69153,1,0,0:0:0:0:
420,252,69236,1,0,0:0:0:0:
392,251,69318,6,0,L|320:246,1,70,10|0,0:0|0:0,0:0:0:0:
235,133,69648,2,0,L|304:137,1,70,8|0,0:0|0:0,0:0:0:0:
228,269,69977,2,0,L|231:224,3,35,8|0|0|0,0:0|0:0|0:0|0:0,0:0:0:0:
232,205,70307,1,8,0:0:0:0:
235,177,70389,1,0,0:0:0:0:
238,149,70472,1,0,0:0:0:0:
240,121,70554,1,0,0:0:0:0:
144,87,70637,6,0,L|119:123,3,35,2|0|0|0,0:0|0:0|0:0|0:0,0:0:0:0:
157,206,70966,2,0,L|132:242,3,35,2|0|0|0,0:0|0:0|0:0|0:0,0:0:0:0:
268,176,71296,1,2,0:0:0:0:
285,154,71378,1,0,0:0:0:0:
304,133,71461,1,0,0:0:0:0:
323,112,71543,1,0,0:0:0:0:
339,89,71626,2,0,P|385:80|432:132,1,105.000004005432,6|0,0:0|0:0,0:0:0:0:
386,182,71955,6,0,L|334:234,1,70,4|0,0:0|0:0,0:0:0:0:
381,344,72285,2,0,L|430:294,1,70,8|0,0:0|0:0,0:0:0:0:
478,216,72615,1,0,0:0:0:0:
333,220,72779,1,0,0:0:0:0:
293,356,72944,1,8,0:0:0:0:
313,209,73109,1,0,0:0:0:0:
454,195,73274,5,0,0:0:0:0:
301,200,73439,2,0,L|241:163,1,70,0|8,0:0|0:0,0:0:0:0:
117,218,73768,2,0,L|177:255,1,70
291,313,74098,1,0,0:0:0:0:
338,214,74263,1,8,0:0:0:0:
233,163,74428,1,0,0:0:0:0:
177,252,74593,5,2,0:0:0:0:
90,200,74757,2,0,P|41:235|19:234,2,70,0|8|0,0:0|0:0|0:0,0:0:0:0:
151,66,75252,1,0,0:0:0:0:
202,158,75417,2,0,B|264:116|264:116|264:116,1,70,0|8,0:0|0:0,0:0:0:0:
373,137,75747,1,0,0:0:0:0:
367,241,75911,6,0,P|324:233|299:205,1,70,2|0,0:0|0:0,0:0:0:0:
164,148,76241,1,8,0:0:0:0:
289,62,76406,1,0,0:0:0:0:
317,215,76571,1,0,0:0:0:0:
303,45,76736,5,8,0:0:0:0:
302,44,76818,1,8,0:0:0:0:
300,40,76900,1,8,0:0:0:0:
150,140,77065,5,8,0:0:0:0:
150,140,77148,1,8,0:0:0:0:
150,140,77230,6,0,P|153:173|180:195,1,70,6|0,0:0|0:0,0:0:0:0:
337,265,77560,1,8,0:0:0:0:
421,151,77725,2,0,P|348:138|286:179,1,140
218,299,78219,1,8,0:0:0:0:
113,193,78384,2,0,L|160:135,1,70,0|2,0:0|0:0,0:0:0:0:
310,108,78714,2,0,L|259:170,2,70,0|8|0,0:0|0:0|0:0,0:0:0:0:
216,249,79208,2,0,P|259:282|294:261,1,70,0|8,0:0|0:0,0:0:0:0:
400,207,79538,2,0,P|357:174|322:195,1,70,8|0,0:0|0:0,0:0:0:0:
286,83,79867,5,10,0:0:0:0:
99,232,80032,1,8,0:0:0:0:
309,297,80197,1,0,0:0:0:0:
279,112,80362,5,10,0:0:0:0:
89,256,80527,1,8,0:0:0:0:
297,327,80692,1,8,0:0:0:0:
287,356,80856,5,10,0:0:0:0:
70,288,81021,1,8,0:0:0:0:
270,122,81186,1,8,0:0:0:0:
292,337,81351,5,10,0:0:0:0:
80,269,81516,1,8,0:0:0:0:
280,96,81681,1,8,0:0:0:0:
328,256,81845,5,10,0:0:0:0:
137,184,82010,1,8,0:0:0:0:
311,50,82175,1,8,0:0:0:0:
311,50,82340,1,8,0:0:0:0:
311,50,82670,5,0,0:0:0:0:
311,50,82752,1,0,0:0:0:0:
311,50,82834,1,4,0:0:0:0:
256,192,82917,12,2,85142,0:0:0:0:
