osu file format v14

[General]
AudioFilename: audio.mp3
AudioLeadIn: 0
PreviewTime: 62307
Countdown: 0
SampleSet: Soft
StackLeniency: 0.7
Mode: 3
LetterboxInBreaks: 0
EpilepsyWarning: 1
SpecialStyle: 0
WidescreenStoryboard: 1

[Editor]
DistanceSpacing: 1.1
BeatDivisor: 4
GridSize: 8
TimelineZoom: 2.5

[Metadata]
Title:Connecting Happy!! (TV Size)
TitleUnicode:Connecting Happy!! (TV Size)
Artist:Pecorine (CV: M.A.O), Kokkoro (CV: Itou Miku), Karyl (CV: Tachibana Rika)
ArtistUnicode:ペコリーヌ(CV:M・A・O)、コッコロ(CV:伊藤美来)、キャル(CV:立花理香)
Creator:ML-ysg
Version:Connecting!
Source:プリンセスコネクト!Re:Dive
Tags:ed ending anime video game japanese pop j-pop Princess Connect! Purinsesu Konekuto! cygames priconne RPG Sun pekori-nu kyaru Lost Princess ~Youkoso Bishokudono e!~ ~ようこそ美食殿へ!~
BeatmapID:2532428
BeatmapSetID:1217129

[Difficulty]
HPDrainRate:8
CircleSize:4
OverallDifficulty:8
ApproachRate:5
SliderMultiplier:1.4
SliderTickRate:1

[Events]
//Background and Video events
0,0,"DIVE.jpg",0,0
//Break Periods
//Storyboard Layer 0 (Background)
//Storyboard Layer 1 (Fail)
//Storyboard Layer 2 (Pass)
//Storyboard Layer 3 (Foreground)
//Storyboard Layer 4 (Overlay)
//Storyboard Sound Samples
Sample,10376,0,"Tom2.wav",60
Sample,10459,0,"Tom2.wav",60
Sample,81915,0,"soft-hitfinish.wav",0

[TimingPoints]
1311,329.67032967033,4,2,1,60,1,0
63289,-100,4,2,1,60,0,1
79113,-100,4,2,1,60,0,0

[HitObjects]
448,192,1311,128,0,1640:0:0:0:0:
64,192,1311,128,0,1475:0:0:0:0:
192,192,1475,128,0,1640:0:0:0:0:
320,192,1640,128,0,1805:0:0:0:0:
192,192,1805,128,0,1970:0:0:0:0:
64,192,1805,128,0,2300:0:0:0:0:
320,192,1970,128,0,2135:0:0:0:0:
448,192,2135,128,0,2300:0:0:0:0:
192,192,2300,128,0,2464:0:0:0:0:
448,192,2464,128,0,2794:0:0:0:0:
64,192,2464,128,0,3783:0:0:0:0:
320,192,2794,128,0,2959:0:0:0:0:
192,192,2959,128,0,3124:0:0:0:0:
448,192,3124,128,0,3289:0:0:0:0:
320,192,3289,128,0,3453:0:0:0:0:
192,192,3453,128,0,3618:0:0:0:0:
448,192,3618,128,0,3783:0:0:0:0:
192,192,3783,1,0,0:0:0:0:
320,192,3865,1,0,0:0:0:0:
64,192,3948,1,0,0:0:0:0:
448,192,3948,128,0,4607:0:0:0:0:
64,192,4607,1,0,0:0:0:60:Tom2.wav
192,192,4607,1,0,0:0:0:0:
320,192,4690,1,0,0:0:0:60:Tom3.wav
448,192,4690,1,0,0:0:0:0:
64,192,4772,1,2,0:0:0:0:
192,192,4772,1,0,0:0:0:0:
320,192,4854,1,2,0:0:0:0:
64,192,4937,1,8,0:0:0:0:
192,192,4937,1,0,0:0:0:0:
448,192,4937,1,0,0:0:0:0:
320,192,5102,1,8,0:0:0:0:
448,192,5102,1,0,0:0:0:0:
192,192,5184,1,8,0:0:0:0:
64,192,5267,128,2,5431:0:0:0:0:
320,192,5267,1,0,0:0:0:60:Finish.wav
448,192,5267,1,0,0:0:0:0:
192,192,5431,128,4,5596:0:0:0:0:
64,192,5596,1,8,0:0:0:0:
320,192,5596,1,0,0:0:0:0:
448,192,5596,128,0,5761:0:0:0:0:
320,192,5761,128,4,5926:0:0:0:0:
64,192,5926,1,2,0:0:0:0:
448,192,5926,1,0,0:0:0:0:
192,192,6091,128,4,6256:0:0:0:0:
64,192,6256,1,8,0:0:0:0:
320,192,6256,1,0,0:0:0:0:
448,192,6256,1,0,0:0:0:0:
64,192,6420,128,4,6585:0:0:0:0:
320,192,6585,1,2,0:0:0:0:
448,192,6585,1,0,0:0:0:0:
192,192,6750,128,4,6915:0:0:0:0:
64,192,6915,1,8,0:0:0:0:
320,192,6915,1,0,0:0:0:0:
448,192,6915,128,0,7080:0:0:0:0:
192,192,7080,128,4,7245:0:0:0:0:
320,192,7245,128,2,7409:0:0:0:0:
448,192,7245,1,0,0:0:0:0:
64,192,7409,128,4,7574:0:0:0:0:
192,192,7574,1,8,0:0:0:0:
320,192,7574,1,0,0:0:0:0:
448,192,7574,128,0,7739:0:0:0:0:
192,192,7739,128,4,7904:0:0:0:0:
64,192,7904,1,2,0:0:0:0:
320,192,7904,128,0,8069:0:0:0:0:
64,192,8069,128,4,8234:0:0:0:0:
192,192,8234,1,8,0:0:0:0:
320,192,8234,1,0,0:0:0:0:
448,192,8234,128,0,8398:0:0:0:0:
192,192,8398,128,4,8563:0:0:0:0:
64,192,8563,1,2,0:0:0:0:
448,192,8563,1,0,0:0:0:0:
320,192,8728,128,4,8893:0:0:0:0:
192,192,8893,1,0,0:0:0:0:
448,192,8893,1,8,0:0:0:0:
64,192,8893,128,0,9058:0:0:0:0:
448,192,9058,128,4,9223:0:0:0:0:
320,192,9223,1,2,0:0:0:0:
192,192,9223,1,0,0:0:0:0:
64,192,9387,128,4,9552:0:0:0:0:
192,192,9552,1,8,0:0:0:0:
320,192,9552,1,0,0:0:0:0:
448,192,9552,128,0,9717:0:0:0:0:
192,192,9717,128,4,9882:0:0:0:0:
320,192,9882,1,2,0:0:0:0:
448,192,9882,128,0,10047:0:0:0:0:
64,192,10047,1,8,0:0:0:0:
192,192,10047,1,4,0:0:0:0:
320,192,10047,128,0,10212:0:0:0:0:
64,192,10212,128,8,10376:0:0:0:0:
192,192,10212,1,0,0:0:0:0:
448,192,10212,1,0,0:0:0:0:
448,192,10376,1,0,0:0:0:60:Tom1.wav
320,192,10459,1,0,0:0:0:60:Tom1.wav
64,192,10541,1,2,0:0:0:0:
192,192,10541,128,0,10706:0:0:0:60:Finish.wav
448,192,10541,1,0,0:0:0:0:
320,192,10706,128,4,10871:0:0:0:0:
64,192,10871,128,8,11036:0:0:0:0:
192,192,10871,1,0,0:0:0:0:
448,192,10871,1,0,0:0:0:0:
448,192,11036,128,4,11201:0:0:0:0:
192,192,11201,1,2,0:0:0:0:
320,192,11201,1,0,0:0:0:0:
64,192,11365,128,4,11530:0:0:0:0:
192,192,11530,128,8,11695:0:0:0:0:
320,192,11530,1,0,0:0:0:0:
448,192,11530,1,0,0:0:0:0:
448,192,11695,128,4,11860:0:0:0:0:
64,192,11860,1,2,0:0:0:0:
320,192,11860,1,0,0:0:0:0:
192,192,12025,128,4,12190:0:0:0:0:
64,192,12190,1,8,0:0:0:0:
320,192,12190,1,0,0:0:0:0:
448,192,12190,128,0,12354:0:0:0:0:
320,192,12354,128,4,12519:0:0:0:0:
64,192,12519,128,2,12684:0:0:0:0:
192,192,12519,1,0,0:0:0:0:
448,192,12684,128,4,12849:0:0:0:0:
64,192,12849,1,8,0:0:0:0:
192,192,12849,128,0,13014:0:0:0:0:
320,192,12849,1,0,0:0:0:0:
320,192,13014,128,4,13179:0:0:0:0:
64,192,13179,128,2,13343:0:0:0:0:
192,192,13179,1,0,0:0:0:60:Finish.wav
448,192,13179,1,0,0:0:0:0:
320,192,13343,128,4,13508:0:0:0:0:
64,192,13508,1,8,0:0:0:0:
192,192,13508,128,0,13673:0:0:0:0:
448,192,13508,1,0,0:0:0:0:
448,192,13673,128,4,13838:0:0:0:0:
192,192,13838,1,2,0:0:0:0:
320,192,13838,1,0,0:0:0:0:
64,192,14003,128,4,14168:0:0:0:0:
192,192,14168,1,8,0:0:0:0:
320,192,14168,1,0,0:0:0:0:
448,192,14168,128,0,14332:0:0:0:0:
192,192,14332,128,4,14497:0:0:0:0:
320,192,14497,1,2,0:0:0:0:
448,192,14497,1,0,0:0:0:0:
192,192,14662,128,4,14827:0:0:0:0:
64,192,14827,1,8,0:0:0:0:
320,192,14827,128,0,14992:0:0:0:0:
448,192,14827,1,0,0:0:0:0:
448,192,14992,128,4,15157:0:0:0:0:
64,192,15157,128,2,15321:0:0:0:0:
192,192,15157,1,0,0:0:0:0:
320,192,15321,128,0,15486:0:0:0:60:Tom1.wav
448,192,15321,1,0,0:0:0:60:Tom2.wav
64,192,15486,1,8,0:0:0:0:
192,192,15486,1,0,0:0:0:0:
320,192,15569,1,8,0:0:0:0:
448,192,15569,1,0,0:0:0:0:
64,192,15651,1,8,0:0:0:0:
192,192,15651,128,0,15816:0:0:0:0:
64,192,15816,1,2,0:0:0:0:
320,192,15816,1,0,0:0:0:60:Finish.wav
448,192,15816,128,0,15898:0:0:0:0:
448,192,15981,128,0,16063:0:0:0:0:
192,192,16146,1,2,0:0:0:0:
448,192,16146,128,4,16228:0:0:0:0:
320,192,16311,128,0,16393:0:0:0:0:
64,192,16475,1,2,0:0:0:0:
320,192,16475,128,4,16558:0:0:0:0:
320,192,16640,128,0,16723:0:0:0:0:
192,192,16805,128,2,16887:0:0:0:0:
448,192,16805,1,4,0:0:0:0:
192,192,16970,128,0,17052:0:0:0:0:
192,192,17135,128,2,17217:0:0:0:0:
320,192,17135,1,8,0:0:0:0:
448,192,17135,1,0,0:0:0:60:Finish.wav
64,192,17300,128,0,17382:0:0:0:0:
64,192,17464,128,2,17547:0:0:0:0:
320,192,17464,1,0,0:0:0:0:
64,192,17629,128,0,17712:0:0:0:60:Tom1.wav
448,192,17629,1,0,0:0:0:60:Tom2.wav
192,192,17794,1,2,0:0:0:0:
320,192,17794,128,0,17876:0:0:0:0:
64,192,17959,1,0,0:0:0:60:Tom2.wav
320,192,17959,128,0,18041:0:0:0:60:Tom2.wav
192,192,18124,128,0,18206:0:0:0:60:Tom3.wav
448,192,18124,1,0,0:0:0:60:Tom3.wav
192,192,18289,128,0,18371:0:0:0:60:Tom3.wav
320,192,18289,1,0,0:0:0:60:Tom3.wav
64,192,18453,1,2,0:0:0:0:
320,192,18453,1,0,0:0:0:60:Finish.wav
448,192,18453,128,0,19772:0:0:0:0:
64,192,18783,1,2,0:0:0:0:
192,192,18783,128,0,18948:0:0:0:0:
320,192,18948,1,0,0:0:0:0:
64,192,19113,128,2,19278:0:0:0:0:
192,192,19113,1,0,0:0:0:0:
192,192,19442,1,2,0:0:0:0:
320,192,19442,1,0,0:0:0:0:
64,192,19772,128,2,20102:0:0:0:0:
192,192,19772,1,0,0:0:0:0:
192,192,20102,1,2,0:0:0:0:
320,192,20102,128,0,20267:0:0:0:0:
448,192,20267,128,0,20596:0:0:0:0:
64,192,20431,1,2,0:0:0:0:
192,192,20431,1,0,0:0:0:0:
320,192,20596,128,0,20926:0:0:0:0:
192,192,20761,1,2,0:0:0:0:
448,192,20761,1,0,0:0:0:0:
64,192,20926,128,0,21256:0:0:0:0:
192,192,21091,1,2,0:0:0:0:
320,192,21091,1,0,0:0:0:0:
448,192,21256,128,0,21420:0:0:0:0:
192,192,21420,128,2,21750:0:0:0:0:
320,192,21420,1,0,0:0:0:0:
64,192,21585,1,0,0:0:0:0:
320,192,21750,1,2,0:0:0:0:
448,192,21750,128,0,22080:0:0:0:0:
64,192,22080,128,2,22409:0:0:0:0:
192,192,22080,1,0,0:0:0:0:
320,192,22409,128,2,22739:0:0:0:0:
448,192,22409,1,0,0:0:0:0:
64,192,22739,1,2,0:0:0:0:
448,192,22739,128,0,23069:0:0:0:0:
320,192,22904,1,0,0:0:0:0:
64,192,23069,128,2,23398:0:0:0:0:
192,192,23069,1,0,0:0:0:0:
448,192,23234,1,0,0:0:0:0:
320,192,23398,1,2,0:0:0:0:
448,192,23398,1,4,0:0:0:0:
192,192,23563,128,0,24058:0:0:0:0:
64,192,23728,1,2,0:0:0:0:
320,192,23728,1,0,0:0:0:60:Finish.wav
448,192,23728,1,0,0:0:0:0:
320,192,24058,1,2,0:0:0:0:
448,192,24058,128,0,24223:0:0:0:0:
192,192,24223,1,0,0:0:0:0:
64,192,24387,128,2,24717:0:0:0:0:
448,192,24387,1,0,0:0:0:0:
192,192,24717,1,2,0:0:0:0:
320,192,24717,128,0,25047:0:0:0:0:
448,192,24882,1,0,0:0:0:0:
64,192,25047,1,2,0:0:0:0:
192,192,25047,128,0,25212:0:0:0:0:
64,192,25376,1,2,0:0:0:0:
448,192,25376,128,0,25541:0:0:0:0:
320,192,25541,128,0,25871:0:0:0:0:
64,192,25706,1,2,0:0:0:0:
192,192,25706,1,0,0:0:0:0:
192,192,26036,1,2,0:0:0:0:
448,192,26036,1,0,0:0:0:0:
64,192,26201,128,4,26530:0:0:0:0:
320,192,26365,1,2,0:0:0:0:
448,192,26365,1,0,0:0:0:0:
192,192,26530,128,0,26695:0:0:0:0:
320,192,26695,1,2,0:0:0:0:
448,192,26695,128,0,26860:0:0:0:0:
64,192,26860,128,0,27025:0:0:0:0:
192,192,27025,128,2,27190:0:0:0:0:
448,192,27025,1,0,0:0:0:0:
320,192,27190,128,0,27354:0:0:0:0:
64,192,27354,1,2,0:0:0:0:
448,192,27354,128,0,27519:0:0:0:0:
192,192,27519,128,0,28014:0:0:0:0:
320,192,27684,1,2,0:0:0:0:
448,192,27684,1,0,0:0:0:0:
64,192,28014,128,2,28343:0:0:0:0:
448,192,28014,1,0,0:0:0:0:
320,192,28343,1,2,0:0:0:0:
448,192,28343,1,0,0:0:0:0:
64,192,28508,1,4,0:0:0:0:
192,192,28508,1,8,0:0:0:0:
448,192,28508,1,0,0:0:0:0:
64,192,28673,1,2,0:0:0:0:
320,192,28673,1,0,0:0:0:0:
192,192,28838,1,8,0:0:0:0:
448,192,28838,1,0,0:0:0:0:
320,192,28920,1,8,0:0:0:0:
64,192,29003,128,2,29332:0:0:0:0:
192,192,29003,1,0,0:0:0:60:Finish.wav
448,192,29003,1,0,0:0:0:0:
192,192,29332,1,8,0:0:0:0:
320,192,29332,128,2,29497:0:0:0:0:
448,192,29332,1,4,0:0:0:0:
192,192,29497,1,0,0:0:0:0:
64,192,29662,128,2,29827:0:0:0:0:
448,192,29662,1,0,0:0:0:0:
192,192,29827,1,8,0:0:0:0:
320,192,29827,1,4,0:0:0:0:
448,192,29827,1,0,0:0:0:0:
64,192,29992,1,2,0:0:0:0:
192,192,29992,1,0,0:0:0:0:
320,192,30157,1,4,0:0:0:0:
192,192,30239,1,4,0:0:0:0:
64,192,30321,128,2,30486:0:0:0:0:
448,192,30321,1,4,0:0:0:0:
192,192,30486,1,0,0:0:0:0:
320,192,30651,128,6,30816:0:0:0:0:
448,192,30651,1,8,0:0:0:0:
64,192,30651,1,0,0:0:0:0:
192,192,30816,128,0,30981:0:0:0:0:
64,192,30981,1,2,0:0:0:0:
448,192,30981,1,0,0:0:0:0:
192,192,31146,1,4,0:0:0:0:
320,192,31146,1,8,0:0:0:0:
448,192,31146,128,0,31311:0:0:0:0:
64,192,31311,1,2,0:0:0:0:
64,192,31475,1,4,0:0:0:0:
320,192,31475,128,8,32464:0:0:0:0:
448,192,31475,1,0,0:0:0:0:
192,192,31640,1,2,0:0:0:0:
448,192,31640,1,0,0:0:0:0:
64,192,31805,1,0,0:0:0:0:
64,192,31970,1,4,0:0:0:0:
192,192,31970,1,2,0:0:0:0:
448,192,31970,1,8,0:0:0:0:
448,192,32135,1,0,0:0:0:0:
64,192,32300,1,2,0:0:0:0:
192,192,32300,1,0,0:0:0:0:
64,192,32464,1,4,0:0:0:0:
192,192,32464,1,8,0:0:0:0:
448,192,32464,1,0,0:0:0:0:
320,192,32629,1,2,0:0:0:0:
448,192,32629,1,0,0:0:0:0:
192,192,32794,1,4,0:0:0:0:
320,192,32876,1,4,0:0:0:0:
64,192,32959,1,2,0:0:0:0:
448,192,32959,128,4,33618:0:0:0:0:
192,192,33124,1,0,0:0:0:0:
64,192,33289,1,6,0:0:0:0:
320,192,33289,1,8,0:0:0:0:
192,192,33289,1,0,0:0:0:0:
320,192,33453,1,0,0:0:0:0:
64,192,33618,1,2,0:0:0:0:
192,192,33618,1,0,0:0:0:0:
64,192,33783,1,4,0:0:0:0:
320,192,33783,1,8,0:0:0:0:
448,192,33783,1,0,0:0:0:0:
192,192,33948,1,2,0:0:0:0:
448,192,33948,1,0,0:0:0:0:
64,192,34113,1,8,0:0:0:0:
192,192,34113,1,0,0:0:0:0:
320,192,34195,1,8,0:0:0:0:
64,192,34278,128,2,34442:0:0:0:0:
192,192,34278,1,0,0:0:0:60:Finish.wav
448,192,34278,1,0,0:0:0:0:
64,192,34607,1,2,0:0:0:0:
320,192,34607,1,4,0:0:0:0:
448,192,34607,128,8,34937:0:0:0:0:
192,192,34937,128,2,35267:0:0:0:0:
320,192,34937,1,0,0:0:0:0:
64,192,35102,1,8,0:0:0:0:
320,192,35102,1,4,0:0:0:0:
448,192,35102,1,0,0:0:0:0:
64,192,35267,1,2,0:0:0:0:
448,192,35267,128,0,35596:0:0:0:0:
320,192,35431,1,4,0:0:0:0:
64,192,35596,128,2,35761:0:0:0:0:
192,192,35596,1,0,0:0:0:0:
320,192,35761,128,0,35926:0:0:0:0:
64,192,35926,1,2,0:0:0:0:
192,192,35926,128,8,36091:0:0:0:0:
448,192,35926,1,4,0:0:0:0:
448,192,36091,128,0,36420:0:0:0:0:
64,192,36256,1,2,0:0:0:0:
192,192,36256,1,0,0:0:0:0:
64,192,36420,1,8,0:0:0:0:
192,192,36420,1,4,0:0:0:0:
320,192,36420,1,0,0:0:0:0:
320,192,36585,1,2,0:0:0:0:
448,192,36585,1,0,0:0:0:0:
64,192,36750,1,8,0:0:0:0:
192,192,36750,1,0,0:0:0:0:
320,192,36832,1,8,0:0:0:0:
448,192,36832,1,0,0:0:0:0:
64,192,36915,128,2,37080:0:0:0:0:
192,192,36915,1,4,0:0:0:0:
320,192,37080,128,0,37245:0:0:0:0:
64,192,37245,1,8,0:0:0:0:
192,192,37245,128,2,37409:0:0:0:0:
448,192,37245,1,4,0:0:0:0:
448,192,37409,128,0,37574:0:0:0:0:
64,192,37574,128,2,37739:0:0:0:0:
320,192,37574,1,0,0:0:0:0:
192,192,37739,128,4,37904:0:0:0:0:
320,192,37739,1,8,0:0:0:0:
448,192,37739,1,0,0:0:0:0:
64,192,37904,1,2,0:0:0:0:
448,192,37904,128,0,38069:0:0:0:0:
320,192,38069,1,4,0:0:0:0:
64,192,38234,128,2,38563:0:0:0:0:
192,192,38234,1,4,0:0:0:0:
448,192,38398,1,0,0:0:0:0:
192,192,38563,1,2,0:0:0:0:
320,192,38563,1,4,0:0:0:0:
64,192,38728,1,8,0:0:0:0:
192,192,38728,1,0,0:0:0:60:Finish.wav
448,192,38728,1,0,0:0:0:0:
320,192,38893,1,2,0:0:0:0:
448,192,38893,1,0,0:0:0:0:
64,192,39058,1,0,0:0:0:60:Tom1.wav
192,192,39058,1,0,0:0:0:60:Tom1.wav
192,192,39223,1,2,0:0:0:0:
320,192,39223,1,0,0:0:0:0:
320,192,39387,1,0,0:0:0:60:Tom3.wav
448,192,39387,1,0,0:0:0:60:Tom3.wav
64,192,39552,128,2,40047:0:0:0:0:
192,192,39552,1,0,0:0:0:60:Finish.wav
448,192,39552,1,0,0:0:0:0:
192,192,39882,128,0,40047:0:0:0:0:
320,192,40047,1,2,0:0:0:0:
448,192,40047,1,0,0:0:0:60:Clap5.wav
64,192,40212,1,8,0:0:0:0:
320,192,40212,1,0,0:0:0:60:Clap5.wav
448,192,40212,128,0,40541:0:0:0:0:
64,192,40541,1,2,0:0:0:0:
192,192,40541,128,0,40871:0:0:0:0:
64,192,40871,1,2,0:0:0:0:
448,192,40871,1,0,0:0:0:0:
192,192,41036,1,8,0:0:0:0:
320,192,41036,1,0,0:0:0:0:
448,192,41036,1,0,0:0:0:0:
64,192,41201,1,0,0:0:0:0:
320,192,41365,1,2,0:0:0:0:
448,192,41365,1,0,0:0:0:60:Clap5.wav
64,192,41530,1,8,0:0:0:0:
320,192,41530,1,0,0:0:0:60:Clap5.wav
448,192,41530,1,0,0:0:0:0:
64,192,41695,1,2,0:0:0:0:
192,192,41695,1,0,0:0:0:0:
448,192,41860,1,0,0:0:0:0:
64,192,42025,1,2,0:0:0:0:
192,192,42025,1,0,0:0:0:0:
320,192,42190,128,2,42684:0:0:0:0:
448,192,42190,1,0,0:0:0:0:
192,192,42354,1,0,0:0:0:0:
64,192,42519,1,0,0:0:0:0:
192,192,42684,1,2,0:0:0:0:
448,192,42684,1,0,0:0:0:60:Clap5.wav
64,192,42849,128,8,43179:0:0:0:0:
192,192,42849,1,0,0:0:0:60:Clap5.wav
448,192,42849,1,0,0:0:0:0:
192,192,43179,1,0,0:0:0:0:
448,192,43343,128,0,43508:0:0:0:0:
192,192,43508,1,2,0:0:0:0:
320,192,43508,1,0,0:0:0:0:
64,192,43673,1,8,0:0:0:0:
320,192,43673,1,0,0:0:0:0:
448,192,43673,1,0,0:0:0:0:
192,192,43838,1,0,0:0:0:0:
64,192,44003,1,2,0:0:0:0:
320,192,44003,1,0,0:0:0:60:Clap5.wav
64,192,44168,1,8,0:0:0:0:
320,192,44168,1,0,0:0:0:60:Clap5.wav
448,192,44168,1,0,0:0:0:0:
192,192,44332,1,2,0:0:0:0:
448,192,44332,1,0,0:0:0:0:
64,192,44497,1,0,0:0:0:60:Tom2.wav
320,192,44497,1,0,0:0:0:0:
448,192,44662,1,0,0:0:0:0:
64,192,44827,1,2,0:0:0:0:
192,192,44827,128,0,45321:0:0:0:60:Finish.wav
320,192,44827,1,0,0:0:0:0:
320,192,45157,1,0,0:0:0:0:
64,192,45321,1,2,0:0:0:0:
448,192,45321,1,0,0:0:0:60:Clap5.wav
320,192,45486,1,8,0:0:0:0:
64,192,45486,1,0,0:0:0:60:Clap5.wav
448,192,45486,1,0,0:0:0:0:
64,192,45816,128,0,46146:0:0:0:0:
192,192,46146,1,2,0:0:0:0:
448,192,46146,1,0,0:0:0:0:
64,192,46311,1,8,0:0:0:0:
192,192,46311,1,0,0:0:0:0:
320,192,46311,1,0,0:0:0:0:
448,192,46475,1,0,0:0:0:0:
320,192,46640,1,2,0:0:0:0:
192,192,46640,1,0,0:0:0:60:Clap5.wav
192,192,46805,1,8,0:0:0:0:
320,192,46805,1,0,0:0:0:60:Clap5.wav
448,192,46805,1,0,0:0:0:0:
64,192,46970,1,2,0:0:0:0:
448,192,46970,1,0,0:0:0:0:
320,192,47135,1,0,0:0:0:0:
64,192,47300,1,2,0:0:0:0:
192,192,47300,1,0,0:0:0:0:
64,192,47464,1,2,0:0:0:0:
320,192,47464,1,0,0:0:0:60:Finish.wav
448,192,47464,128,0,47959:0:0:0:0:
192,192,47959,1,2,0:0:0:0:
320,192,47959,1,0,0:0:0:0:
64,192,48124,128,2,48618:0:0:0:0:
320,192,48124,1,0,0:0:0:60:Finish.wav
448,192,48124,1,0,0:0:0:0:
192,192,48453,1,0,0:0:0:0:
320,192,48618,1,2,0:0:0:0:
448,192,48618,1,0,0:0:0:0:
64,192,48783,1,8,0:0:0:0:
192,192,48783,1,0,0:0:0:0:
448,192,48783,1,0,0:0:0:0:
192,192,48948,1,2,0:0:0:0:
320,192,48948,1,0,0:0:0:0:
64,192,49113,1,0,0:0:0:0:
320,192,49113,1,8,0:0:0:0:
448,192,49113,1,0,0:0:0:0:
64,192,49278,128,2,49442:0:0:0:0:
192,192,49278,1,0,0:0:0:60:Finish.wav
448,192,49278,128,0,49442:0:0:0:0:
192,192,49607,1,2,0:0:0:0:
320,192,49607,1,0,0:0:0:0:
64,192,49772,1,8,0:0:0:0:
320,192,49772,1,0,0:0:0:0:
448,192,49772,1,0,0:0:0:0:
64,192,49937,1,8,0:0:0:0:
192,192,49937,1,0,0:0:0:0:
320,192,50019,1,8,0:0:0:0:
64,192,50102,128,2,50431:0:0:0:0:
192,192,50102,1,0,0:0:0:60:Finish.wav
448,192,50102,1,0,0:0:0:0:
320,192,50431,1,8,0:0:0:0:
448,192,50431,128,0,50596:0:0:0:60:LR_HiHat Click2.wav
64,192,50596,1,2,0:0:0:0:
192,192,50596,1,0,0:0:0:0:
448,192,50761,128,0,50926:0:0:0:60:LR_HiHat Click2.wav
64,192,50926,1,2,0:0:0:0:
192,192,50926,1,0,0:0:0:0:
64,192,51091,1,8,0:0:0:0:
320,192,51091,1,0,0:0:0:60:LR_HiHat Click2.wav
448,192,51091,128,0,51256:0:0:0:0:
192,192,51420,1,2,0:0:0:0:
448,192,51420,128,0,51750:0:0:0:60:LR_HiHat Click2.wav
64,192,51585,1,0,0:0:0:0:
64,192,51750,1,8,0:0:0:0:
192,192,51750,1,0,0:0:0:60:LR_HiHat Click2.wav
320,192,51750,1,0,0:0:0:0:
192,192,51915,128,2,52245:0:0:0:0:
448,192,51915,1,0,0:0:0:0:
64,192,52080,1,0,0:0:0:60:LR_HiHat Click2.wav
320,192,52245,1,2,0:0:0:0:
448,192,52245,1,0,0:0:0:0:
64,192,52409,1,8,0:0:0:0:
192,192,52409,1,0,0:0:0:60:LR_HiHat Click2.wav
448,192,52409,128,0,52574:0:0:0:0:
64,192,52739,1,2,0:0:0:0:
320,192,52739,128,0,53234:0:0:0:60:LR_HiHat Click2.wav
64,192,53069,1,8,0:0:0:0:
192,192,53069,1,0,0:0:0:60:LR_HiHat Click2.wav
448,192,53069,1,0,0:0:0:0:
64,192,53234,1,2,0:0:0:0:
448,192,53234,1,0,0:0:0:0:
192,192,53398,128,0,53728:0:0:0:60:LR_HiHat Click2.wav
320,192,53563,1,2,0:0:0:0:
448,192,53563,1,0,0:0:0:0:
64,192,53728,1,8,0:0:0:0:
320,192,53728,1,0,0:0:0:60:LR_HiHat Click2.wav
448,192,53728,1,0,0:0:0:0:
64,192,53893,128,0,54223:0:0:0:0:
320,192,54058,1,2,0:0:0:0:
448,192,54058,1,0,0:0:0:60:LR_HiHat Click2.wav
192,192,54223,1,2,0:0:0:0:
320,192,54223,1,0,0:0:0:0:
64,192,54387,1,8,0:0:0:0:
192,192,54387,1,0,0:0:0:60:LR_HiHat Click2.wav
448,192,54387,1,0,0:0:0:0:
320,192,54552,1,2,0:0:0:0:
448,192,54552,1,0,0:0:0:0:
192,192,54717,1,0,0:0:0:60:LR_HiHat Click2.wav
64,192,54882,1,2,0:0:0:0:
448,192,54882,1,0,0:0:0:0:
64,192,55047,1,8,0:0:0:0:
192,192,55047,1,0,0:0:0:0:
320,192,55047,1,0,0:0:0:0:
192,192,55212,128,2,55541:0:0:0:0:
320,192,55212,1,0,0:0:0:60:Finish.wav
448,192,55212,1,0,0:0:0:0:
320,192,55541,1,2,0:0:0:0:
448,192,55541,1,0,0:0:0:0:
64,192,55706,1,8,0:0:0:0:
192,192,55706,1,4,0:0:0:0:
448,192,55706,128,0,56036:0:0:0:0:
320,192,55871,1,0,0:0:0:0:
64,192,56036,1,4,0:0:0:0:
192,192,56036,1,2,0:0:0:0:
64,192,56201,1,8,0:0:0:0:
320,192,56201,1,0,0:0:0:60:Clap5.wav
448,192,56201,1,0,0:0:0:0:
64,192,56365,1,8,0:0:0:0:
192,192,56365,1,0,0:0:0:60:Clap5.wav
448,192,56365,1,0,0:0:0:0:
192,192,56530,1,2,0:0:0:0:
320,192,56530,128,0,56860:0:0:0:60:Finish.wav
448,192,56530,1,0,0:0:0:0:
192,192,56860,1,2,0:0:0:0:
448,192,56860,1,0,0:0:0:0:
64,192,57025,128,8,57354:0:0:0:0:
320,192,57025,1,4,0:0:0:0:
448,192,57025,1,0,0:0:0:0:
192,192,57190,1,0,0:0:0:0:
192,192,57354,1,2,0:0:0:0:
320,192,57354,1,0,0:0:0:0:
64,192,57519,1,8,0:0:0:0:
320,192,57519,1,0,0:0:0:60:Clap5.wav
448,192,57519,1,0,0:0:0:0:
64,192,57684,1,8,0:0:0:0:
192,192,57684,1,0,0:0:0:60:Clap5.wav
448,192,57684,1,0,0:0:0:0:
192,192,57849,1,2,0:0:0:0:
320,192,57849,1,0,0:0:0:0:
64,192,58014,128,8,58343:0:0:0:0:
320,192,58014,1,0,0:0:0:60:Finish.wav
448,192,58014,1,0,0:0:0:0:
192,192,58343,1,4,0:0:0:0:
320,192,58343,1,8,0:0:0:0:
448,192,58343,1,0,0:0:0:0:
64,192,58508,1,2,0:0:0:0:
448,192,58508,1,0,0:0:0:0:
64,192,58673,1,8,0:0:0:0:
192,192,58673,1,4,0:0:0:0:
320,192,58673,1,0,0:0:0:0:
320,192,58838,1,2,0:0:0:0:
448,192,58838,1,0,0:0:0:0:
64,192,59003,1,8,0:0:0:0:
192,192,59003,1,4,0:0:0:0:
448,192,59003,1,0,0:0:0:0:
192,192,59168,1,2,0:0:0:0:
320,192,59168,1,0,0:0:0:0:
64,192,59332,1,4,0:0:0:0:
320,192,59332,1,8,0:0:0:0:
448,192,59332,1,0,0:0:0:0:
192,192,59497,1,2,0:0:0:0:
448,192,59497,1,0,0:0:0:0:
64,192,59662,1,4,0:0:0:0:
192,192,59662,1,8,0:0:0:0:
320,192,59662,1,0,0:0:0:0:
448,192,59827,1,2,0:0:0:0:
320,192,59882,1,0,0:0:0:0:
192,192,59937,1,0,0:0:0:0:
64,192,59992,1,8,0:0:0:0:
448,192,59992,1,4,0:0:0:0:
64,192,60157,1,2,0:0:0:0:
320,192,60157,1,0,0:0:0:0:
192,192,60321,1,4,0:0:0:0:
320,192,60321,1,8,0:0:0:0:
448,192,60321,1,0,0:0:0:0:
64,192,60486,1,2,0:0:0:0:
192,192,60486,1,0,0:0:0:0:
320,192,60569,1,2,0:0:0:0:
64,192,60651,1,8,0:0:0:0:
192,192,60651,1,0,0:0:0:0:
448,192,60651,1,0,0:0:0:0:
320,192,60816,1,2,0:0:0:0:
448,192,60816,1,0,0:0:0:0:
320,192,60981,1,2,0:0:0:0:
448,192,60981,1,0,0:0:0:0:
64,192,61146,1,8,0:0:0:0:
320,192,61146,1,0,0:0:0:0:
448,192,61146,1,0,0:0:0:0:
64,192,61311,1,2,0:0:0:0:
192,192,61311,1,0,0:0:0:0:
64,192,61475,1,2,0:0:0:0:
192,192,61475,1,0,0:0:0:0:
64,192,61640,1,8,0:0:0:0:
192,192,61640,1,0,0:0:0:0:
448,192,61640,1,0,0:0:0:0:
320,192,61805,1,2,0:0:0:0:
448,192,61805,1,0,0:0:0:0:
64,192,61970,1,8,0:0:0:0:
192,192,61970,1,0,0:0:0:0:
320,192,61970,1,0,0:0:0:0:
64,192,62794,1,2,0:0:0:0:
448,192,62794,1,0,0:0:0:0:
320,192,62876,1,2,0:0:0:0:
64,192,62959,1,8,0:0:0:0:
192,192,62959,1,0,0:0:0:0:
448,192,62959,1,0,0:0:0:0:
64,192,63289,1,2,0:0:0:0:
192,192,63289,1,0,0:0:0:60:Finish.wav
320,192,63289,128,0,63618:0:0:0:0:
64,192,63618,1,8,0:0:0:0:
192,192,63618,1,0,0:0:0:60:LR_HiHat Click2.wav
448,192,63618,1,0,0:0:0:0:
192,192,63783,128,2,64113:0:0:0:0:
448,192,63783,1,0,0:0:0:0:
320,192,63948,1,0,0:0:0:60:LR_HiHat Click2.wav
64,192,64113,1,2,0:0:0:0:
448,192,64113,1,0,0:0:0:0:
192,192,64278,1,8,0:0:0:0:
320,192,64278,1,0,0:0:0:60:LR_HiHat Click2.wav
448,192,64278,1,0,0:0:0:0:
320,192,64442,128,0,64772:0:0:0:0:
64,192,64607,1,2,0:0:0:0:
192,192,64607,128,0,64937:0:0:0:60:LR_HiHat Click2.wav
64,192,64937,1,8,0:0:0:0:
320,192,64937,1,0,0:0:0:60:LR_HiHat Click2.wav
448,192,64937,1,0,0:0:0:0:
192,192,65102,1,2,0:0:0:0:
448,192,65102,1,0,0:0:0:0:
192,192,65267,1,0,0:0:0:60:LR_HiHat Click2.wav
64,192,65431,1,2,0:0:0:0:
320,192,65431,1,0,0:0:0:0:
64,192,65596,128,8,65926:0:0:0:0:
192,192,65596,1,0,0:0:0:60:LR_HiHat Click2.wav
448,192,65596,1,0,0:0:0:0:
320,192,65926,1,2,0:0:0:0:
448,192,65926,128,0,66256:0:0:0:60:LR_HiHat Click2.wav
64,192,66256,1,8,0:0:0:0:
192,192,66256,1,0,0:0:0:60:LR_HiHat Click2.wav
320,192,66256,1,0,0:0:0:0:
64,192,66420,1,2,0:0:0:0:
192,192,66420,128,0,66585:0:0:0:0:
320,192,66585,1,0,0:0:0:60:LR_HiHat Click2.wav
64,192,66750,128,2,66915:0:0:0:0:
448,192,66750,1,0,0:0:0:0:
192,192,66915,1,8,0:0:0:0:
320,192,66915,1,0,0:0:0:60:LR_HiHat Click2.wav
448,192,66915,1,0,0:0:0:0:
320,192,67080,128,0,67739:0:0:0:0:
64,192,67245,1,2,0:0:0:0:
192,192,67245,1,0,0:0:0:60:LR_HiHat Click2.wav
448,192,67409,1,0,0:0:0:0:
64,192,67574,1,8,0:0:0:0:
192,192,67574,1,0,0:0:0:60:LR_HiHat Click2.wav
448,192,67574,1,0,0:0:0:0:
64,192,67739,1,2,0:0:0:0:
192,192,67739,1,0,0:0:0:0:
448,192,67904,1,0,0:0:0:60:LR_HiHat Click2.wav
64,192,68069,1,2,0:0:0:0:
192,192,68069,1,0,0:0:0:0:
64,192,68234,1,8,0:0:0:0:
320,192,68234,1,0,0:0:0:60:LR_HiHat Click2.wav
448,192,68234,1,0,0:0:0:0:
192,192,68398,128,0,68563:0:0:0:0:
64,192,68563,1,2,0:0:0:0:
320,192,68563,1,0,0:0:0:60:Finish.wav
448,192,68563,1,0,0:0:0:0:
448,192,68728,128,0,68893:0:0:0:0:
64,192,68893,1,8,0:0:0:0:
192,192,68893,1,0,0:0:0:60:LR_HiHat Click2.wav
320,192,68893,128,0,69058:0:0:0:0:
64,192,69058,1,2,0:0:0:0:
448,192,69058,1,0,0:0:0:0:
192,192,69223,128,0,69387:0:0:0:60:LR_HiHat Click2.wav
64,192,69387,1,2,0:0:0:0:
448,192,69387,128,0,69552:0:0:0:0:
64,192,69552,1,8,0:0:0:0:
192,192,69552,1,0,0:0:0:60:LR_HiHat Click2.wav
320,192,69552,128,0,69717:0:0:0:0:
64,192,69882,1,2,0:0:0:0:
448,192,69882,128,0,70047:0:0:0:60:LR_HiHat Click2.wav
320,192,70047,128,0,70212:0:0:0:0:
64,192,70212,1,8,0:0:0:0:
192,192,70212,1,0,0:0:0:60:LR_HiHat Click2.wav
448,192,70212,1,0,0:0:0:0:
64,192,70376,1,2,0:0:0:0:
320,192,70376,128,0,70706:0:0:0:0:
192,192,70541,1,0,0:0:0:60:LR_HiHat Click2.wav
64,192,70706,1,2,0:0:0:0:
448,192,70706,1,0,0:0:0:0:
64,192,70871,1,8,0:0:0:0:
192,192,70871,1,0,0:0:0:60:LR_HiHat Click2.wav
320,192,70871,1,0,0:0:0:0:
448,192,71036,128,0,71365:0:0:0:0:
64,192,71201,1,2,0:0:0:0:
320,192,71201,1,0,0:0:0:60:LR_HiHat Click2.wav
192,192,71365,128,0,71530:0:0:0:0:
64,192,71530,128,8,71695:0:0:0:0:
320,192,71530,1,0,0:0:0:60:LR_HiHat Click2.wav
448,192,71530,1,0,0:0:0:0:
192,192,71695,1,2,0:0:0:0:
448,192,71695,1,0,0:0:0:0:
320,192,71860,128,0,72025:0:0:0:60:LR_HiHat Click2.wav
64,192,72025,128,2,72190:0:0:0:0:
448,192,72025,1,0,0:0:0:0:
192,192,72190,128,8,72354:0:0:0:0:
320,192,72190,1,0,0:0:0:60:LR_HiHat Click2.wav
448,192,72190,1,0,0:0:0:0:
64,192,72354,1,2,0:0:0:0:
320,192,72354,1,0,0:0:0:0:
64,192,72519,1,8,0:0:0:0:
192,192,72519,1,0,0:0:0:60:Finish.wav
448,192,72519,1,0,0:0:0:0:
320,192,72684,1,2,0:0:0:0:
448,192,72684,1,0,0:0:0:0:
192,192,72849,1,2,0:0:0:0:
320,192,72849,1,0,0:0:0:0:
64,192,73014,1,8,0:0:0:0:
192,192,73014,1,4,0:0:0:60:Finish.wav
448,192,73014,1,0,0:0:0:0:
320,192,73179,1,2,0:0:0:0:
448,192,73179,1,0,0:0:0:0:
192,192,73343,1,2,0:0:0:0:
320,192,73343,1,0,0:0:0:0:
64,192,73508,1,8,0:0:0:0:
192,192,73508,1,0,0:0:0:0:
448,192,73508,1,0,0:0:0:0:
64,192,73673,1,8,0:0:0:0:
192,192,73673,1,0,0:0:0:0:
320,192,73756,1,8,0:0:0:0:
64,192,73838,1,2,0:0:0:0:
192,192,73838,128,0,74168:0:0:0:60:Finish.wav
448,192,73838,1,0,0:0:0:0:
64,192,74168,1,8,0:0:0:0:
320,192,74168,1,0,0:0:0:60:LR_HiHat Click2.wav
448,192,74168,1,0,0:0:0:0:
192,192,74332,1,2,0:0:0:0:
320,192,74332,128,0,75157:0:0:0:0:
448,192,74497,1,0,0:0:0:60:LR_HiHat Click2.wav
64,192,74662,1,2,0:0:0:0:
192,192,74662,1,0,0:0:0:0:
64,192,74827,1,8,0:0:0:0:
192,192,74827,1,0,0:0:0:60:LR_HiHat Click2.wav
448,192,74827,1,0,0:0:0:0:
64,192,75157,1,2,0:0:0:0:
448,192,75157,1,0,0:0:0:60:LR_HiHat Click2.wav
64,192,75486,1,8,0:0:0:0:
192,192,75486,1,0,0:0:0:60:LR_HiHat Click2.wav
448,192,75486,128,0,75651:0:0:0:0:
64,192,75651,1,2,0:0:0:0:
320,192,75651,1,0,0:0:0:0:
192,192,75816,128,0,76146:0:0:0:60:LR_HiHat Click2.wav
64,192,75981,1,2,0:0:0:0:
448,192,75981,1,0,0:0:0:0:
64,192,76146,1,8,0:0:0:0:
320,192,76146,128,0,76475:0:0:0:60:LR_HiHat Click2.wav
448,192,76146,1,0,0:0:0:0:
64,192,76475,128,2,76805:0:0:0:0:
192,192,76475,1,0,0:0:0:60:Finish.wav
448,192,76475,1,0,0:0:0:0:
192,192,76805,1,8,0:0:0:0:
320,192,76805,1,0,0:0:0:0:
448,192,76805,1,0,0:0:0:0:
64,192,76970,1,2,0:0:0:0:
192,192,76970,1,0,0:0:0:60:Finish.wav
448,192,76970,128,0,77300:0:0:0:0:
192,192,77300,1,2,0:0:0:0:
320,192,77300,1,0,0:0:0:0:
64,192,77464,1,8,0:0:0:0:
320,192,77464,1,0,0:0:0:0:
448,192,77464,1,0,0:0:0:0:
64,192,77629,1,2,0:0:0:0:
192,192,77629,128,0,77959:0:0:0:60:Finish.wav
448,192,77629,1,0,0:0:0:0:
320,192,77959,1,2,0:0:0:0:
448,192,77959,1,0,0:0:0:0:
64,192,78124,1,0,0:0:0:60:Tom1.wav
448,192,78124,1,0,0:0:0:60:Tom2.wav
192,192,78289,1,2,0:0:0:0:
320,192,78289,1,0,0:0:0:0:
64,192,78453,1,8,0:0:0:0:
320,192,78453,1,0,0:0:0:0:
448,192,78453,1,0,0:0:0:0:
64,192,78701,1,8,0:0:0:0:
192,192,78701,1,0,0:0:0:0:
448,192,78701,1,0,0:0:0:0:
192,192,78948,1,8,0:0:0:0:
320,192,78948,1,0,0:0:0:0:
448,192,78948,1,0,0:0:0:0:
64,192,79113,1,2,0:0:0:0:
192,192,79113,1,0,0:0:0:60:Finish.wav
320,192,79113,1,0,0:0:0:0:
448,192,79278,128,4,79442:0:0:0:0:
64,192,79442,1,2,0:0:0:0:
192,192,79442,1,8,0:0:0:0:
320,192,79442,1,0,0:0:0:0:
320,192,79607,128,4,79772:0:0:0:0:
192,192,79772,1,2,0:0:0:0:
448,192,79772,1,0,0:0:0:0:
64,192,79937,128,4,80102:0:0:0:0:
192,192,80102,1,2,0:0:0:0:
320,192,80102,1,8,0:0:0:0:
448,192,80102,1,0,0:0:0:0:
448,192,80267,128,4,80431:0:0:0:0:
64,192,80431,1,2,0:0:0:0:
320,192,80431,1,0,0:0:0:0:
192,192,80596,128,4,80761:0:0:0:0:
64,192,80761,1,2,0:0:0:0:
320,192,80761,1,8,0:0:0:0:
448,192,80761,1,0,0:0:0:0:
448,192,80926,128,4,81091:0:0:0:0:
64,192,81091,1,2,0:0:0:0:
192,192,81091,1,0,0:0:0:0:
320,192,81256,128,4,81420:0:0:0:0:
64,192,81420,1,8,0:0:0:0:
192,192,81420,1,2,0:0:0:0:
448,192,81420,1,0,0:0:0:0:
64,192,81585,128,4,81750:0:0:0:0:
192,192,81750,1,2,0:0:0:0:
320,192,81750,1,0,0:0:0:60:Finish.wav
448,192,81750,128,0,82080:0:0:0:0:
64,192,82080,1,2,0:0:0:0:
192,192,82080,1,8,0:0:0:0:
320,192,82080,1,0,0:0:0:0:
64,192,82245,128,4,82409:0:0:0:0:
320,192,82409,1,2,0:0:0:0:
448,192,82409,1,0,0:0:0:0:
192,192,82574,128,4,82739:0:0:0:0:
64,192,82739,1,8,0:0:0:0:
320,192,82739,1,2,0:0:0:0:
448,192,82739,1,0,0:0:0:0:
320,192,82904,128,4,83069:0:0:0:0:
64,192,83069,1,2,0:0:0:0:
192,192,83069,1,0,0:0:0:0:
448,192,83234,128,4,83398:0:0:0:0:
64,192,83398,1,8,0:0:0:0:
192,192,83398,1,2,0:0:0:0:
320,192,83398,1,0,0:0:0:0:
64,192,83563,1,4,0:0:0:0:
192,192,83646,1,0,0:0:0:0:
320,192,83728,1,2,0:0:0:0:
448,192,83728,1,0,0:0:0:0:
192,192,83893,1,0,0:0:0:60:Tom1.wav
320,192,83893,1,0,0:0:0:60:Tom2.wav
64,192,84058,1,2,0:0:0:0:
448,192,84058,1,8,0:0:0:0:
192,192,84140,1,8,0:0:0:0:
320,192,84140,1,0,0:0:0:0:
64,192,84223,1,8,0:0:0:0:
448,192,84223,1,0,0:0:0:0:
320,192,84305,1,0,0:0:0:60:Tom2.wav
64,192,84387,1,2,0:0:0:0:
192,192,84387,1,0,0:0:0:60:Finish.wav
448,192,84387,128,0,84717:0:0:0:0:
192,192,84717,1,2,0:0:0:0:
320,192,84717,1,4,0:0:0:0:
64,192,84882,1,8,0:0:0:0:
320,192,84882,128,0,85212:0:0:0:0:
448,192,84882,1,0,0:0:0:0:
192,192,85047,1,4,0:0:0:0:
64,192,85212,1,2,0:0:0:0:
192,192,85212,1,0,0:0:0:0:
64,192,85376,128,8,85706:0:0:0:0:
320,192,85376,1,4,0:0:0:0:
448,192,85376,1,0,0:0:0:0:
192,192,85706,128,2,86036:0:0:0:0:
448,192,85706,1,4,0:0:0:0:
320,192,86036,1,2,0:0:0:0:
448,192,86036,1,4,0:0:0:0:
64,192,86201,1,8,0:0:0:0:
192,192,86201,1,0,0:0:0:0:
448,192,86201,128,0,86530:0:0:0:0:
320,192,86365,1,4,0:0:0:0:
64,192,86530,1,2,0:0:0:0:
192,192,86530,1,0,0:0:0:0:
64,192,86695,1,0,0:0:0:60:Tom1.wav
448,192,86695,1,0,0:0:0:60:Tom2.wav
192,192,86860,1,2,0:0:0:0:
320,192,86860,1,0,0:0:0:0:
64,192,87025,128,2,87354:0:0:0:0:
320,192,87025,1,0,0:0:0:60:Finish.wav
448,192,87025,1,0,0:0:0:0:
192,192,87354,1,2,0:0:0:0:
448,192,87354,1,4,0:0:0:0:
64,192,87519,1,8,0:0:0:0:
320,192,87519,128,0,87849:0:0:0:0:
448,192,87519,1,0,0:0:0:0:
192,192,87684,1,4,0:0:0:0:
64,192,87849,1,2,0:0:0:0:
192,192,87849,1,0,0:0:0:0:
64,192,88014,1,8,0:0:0:0:
320,192,88014,1,4,0:0:0:0:
448,192,88014,128,0,88343:0:0:0:0:
192,192,88343,128,2,88673:0:0:0:0:
320,192,88343,1,4,0:0:0:0:
320,192,88673,1,4,0:0:0:0:
448,192,88673,1,2,0:0:0:0:
64,192,88838,1,8,0:0:0:0:
192,192,88838,1,0,0:0:0:0:
448,192,88838,1,0,0:0:0:0:
320,192,89003,1,4,0:0:0:0:
64,192,89168,1,2,0:0:0:0:
448,192,89168,1,0,0:0:0:0:
64,192,89332,1,8,0:0:0:0:
192,192,89332,1,4,0:0:0:0:
320,192,89332,1,0,0:0:0:0:
320,192,89497,1,8,0:0:0:0:
448,192,89497,1,0,0:0:0:0:
192,192,89580,1,8,0:0:0:0:
64,192,89662,128,4,90486:0:0:0:0:
448,192,89662,1,2,0:0:0:0:
192,192,89992,1,2,0:0:0:0:
320,192,89992,1,4,0:0:0:0:
320,192,90321,1,2,0:0:0:0:
448,192,90321,1,4,0:0:0:0:
192,192,90651,1,2,0:0:0:0:
448,192,90651,128,4,90816:0:0:0:0:
320,192,90816,128,0,91970:0:0:0:0:
64,192,90981,1,4,0:0:0:0:
192,192,90981,1,2,0:0:0:0:
64,192,91311,1,4,0:0:0:0:
448,192,91311,1,2,0:0:0:0:
192,192,91640,1,2,0:0:0:0:
448,192,91640,1,4,0:0:0:0:
64,192,91805,1,0,0:0:0:60:Tom1.wav
192,192,91805,1,0,0:0:0:0:
64,192,91970,1,2,0:0:0:0:
448,192,91970,1,4,0:0:0:0:
192,192,92135,1,0,0:0:0:60:Tom2.wav
320,192,92135,1,0,0:0:0:60:Tom2.wav
64,192,92300,1,2,0:0:0:0:
448,192,92300,128,0,93124:0:0:0:60:Finish.wav
320,192,92300,1,0,0:0:0:0:
64,192,92629,1,2,0:0:0:0:
192,192,92629,1,4,0:0:0:0:
192,192,92959,1,4,0:0:0:0:
320,192,92959,1,2,0:0:0:0:
64,192,93289,1,2,0:0:0:0:
192,192,93289,128,4,93453:0:0:0:0:
320,192,93453,128,0,94278:0:0:0:0:
64,192,93618,1,4,0:0:0:0:
448,192,93618,1,2,0:0:0:0:
64,192,93948,1,4,0:0:0:0:
192,192,93948,1,2,0:0:0:0:
64,192,94278,1,8,0:0:0:0:
192,192,94278,1,0,0:0:0:0:
320,192,94360,1,0,0:0:0:60:Tom1.wav
64,192,94442,1,2,0:0:0:0:
192,192,94442,1,0,0:0:0:0:
320,192,94525,1,2,0:0:0:0:
448,192,94525,1,0,0:0:0:0:
192,192,94607,1,0,0:0:0:0:
64,192,94772,1,2,0:0:0:0:
448,192,94772,1,0,0:0:0:0:
320,192,94854,1,2,0:0:0:0:
64,192,94937,1,2,0:0:0:0:
192,192,94937,1,8,0:0:0:0:
448,192,94937,1,0,0:0:0:0:
192,192,95761,1,2,0:0:0:0:
448,192,95761,1,0,0:0:0:0:
320,192,95843,1,2,0:0:0:0:
64,192,95926,1,8,0:0:0:0:
192,192,95926,1,0,0:0:0:0:
448,192,95926,1,0,0:0:0:0:
64,192,96256,128,2,96585:0:0:0:0:
320,192,96256,1,0,0:0:0:60:Finish.wav
448,192,96256,1,0,0:0:0:0:
192,192,96585,1,8,0:0:0:0:
320,192,96585,1,0,0:0:0:0:
448,192,96585,128,0,96915:0:0:0:0:
64,192,96750,128,4,96915:0:0:0:0:
192,192,96915,1,2,0:0:0:0:
320,192,96915,1,0,0:0:0:0:
192,192,97080,128,4,97245:0:0:0:0:
64,192,97245,1,8,0:0:0:0:
448,192,97245,1,0,0:0:0:0:
320,192,97245,1,0,0:0:0:0:
448,192,97409,128,4,97574:0:0:0:0:
320,192,97574,1,0,0:0:0:0:
192,192,97574,1,2,0:0:0:0:
64,192,97739,128,4,97904:0:0:0:0:
192,192,97904,1,8,0:0:0:0:
320,192,97904,1,0,0:0:0:0:
448,192,97904,128,0,98069:0:0:0:0:
192,192,98069,128,4,98234:0:0:0:0:
64,192,98234,128,2,98398:0:0:0:0:
448,192,98234,1,0,0:0:0:0:
320,192,98398,128,4,98563:0:0:0:0:
64,192,98563,1,8,0:0:0:0:
192,192,98563,128,0,98728:0:0:0:0:
448,192,98563,1,0,0:0:0:0:
448,192,98728,128,4,98893:0:0:0:0:
64,192,98893,1,2,0:0:0:0:
320,192,98893,128,0,99058:0:0:0:0:
192,192,99058,128,4,99223:0:0:0:0:
64,192,99223,128,8,99387:0:0:0:0:
320,192,99223,1,2,0:0:0:0:
448,192,99223,1,0,0:0:0:0:
448,192,99387,128,4,99552:0:0:0:0:
192,192,99552,1,2,0:0:0:0:
320,192,99552,1,0,0:0:0:0:
64,192,99717,128,4,99882:0:0:0:0:
192,192,99882,1,8,0:0:0:0:
320,192,99882,1,2,0:0:0:0:
448,192,99882,128,0,100047:0:0:0:0:
192,192,100047,128,4,100212:0:0:0:0:
320,192,100212,1,2,0:0:0:0:
448,192,100212,1,0,0:0:0:0:
64,192,100376,128,4,100541:0:0:0:0:
192,192,100541,1,2,0:0:0:0:
320,192,100541,128,8,100706:0:0:0:0:
448,192,100541,1,0,0:0:0:0:
192,192,100706,128,4,100871:0:0:0:0:
320,192,100871,1,2,0:0:0:0:
448,192,100871,128,0,101036:0:0:0:0:
64,192,101036,1,8,0:0:0:0:
192,192,101036,1,0,0:0:0:0:
320,192,101036,128,0,101201:0:0:0:0:
64,192,101201,128,8,101365:0:0:0:0:
192,192,101201,1,0,0:0:0:0:
448,192,101201,1,0,0:0:0:0:
320,192,101365,1,8,0:0:0:0:
448,192,101365,1,0,0:0:0:0:
192,192,101448,1,8,0:0:0:0:
64,192,101530,1,2,0:0:0:0:
320,192,101530,1,0,0:0:0:60:Finish.wav
448,192,101530,128,0,101695:0:0:0:0:
192,192,101695,128,4,101860:0:0:0:0:
64,192,101860,1,8,0:0:0:0:
320,192,101860,128,0,102025:0:0:0:0:
448,192,101860,1,0,0:0:0:0:
64,192,102025,128,4,102190:0:0:0:0:
192,192,102190,1,2,0:0:0:0:
448,192,102190,1,0,0:0:0:0:
320,192,102354,128,4,102519:0:0:0:0:
64,192,102519,128,8,102684:0:0:0:0:
192,192,102519,1,0,0:0:0:0:
448,192,102519,1,0,0:0:0:0:
448,192,102684,128,4,102849:0:0:0:0:
192,192,102849,1,2,0:0:0:0:
320,192,102849,1,0,0:0:0:0:
64,192,103014,128,4,103179:0:0:0:0:
192,192,103179,128,8,103343:0:0:0:0:
320,192,103179,1,0,0:0:0:0:
448,192,103179,1,0,0:0:0:0:
448,192,103343,128,4,103508:0:0:0:0:
192,192,103508,1,2,0:0:0:0:
320,192,103508,128,0,103673:0:0:0:0:
64,192,103673,128,4,103838:0:0:0:0:
192,192,103838,1,8,0:0:0:0:
320,192,103838,1,0,0:0:0:0:
448,192,103838,128,0,104003:0:0:0:0:
320,192,104003,128,4,104168:0:0:0:0:
64,192,104168,128,2,104332:0:0:0:0:
192,192,104168,1,0,0:0:0:60:Finish.wav
448,192,104168,1,0,0:0:0:0:
448,192,104332,128,4,104497:0:0:0:0:
64,192,104497,1,8,0:0:0:0:
192,192,104497,128,0,104662:0:0:0:0:
320,192,104497,1,0,0:0:0:0:
320,192,104662,128,4,104827:0:0:0:0:
64,192,104827,1,2,0:0:0:0:
448,192,104827,1,0,0:0:0:0:
192,192,104992,128,4,105157:0:0:0:0:
64,192,105157,128,8,105321:0:0:0:0:
320,192,105157,1,0,0:0:0:0:
448,192,105157,1,0,0:0:0:0:
448,192,105321,128,4,105486:0:0:0:0:
192,192,105486,1,2,0:0:0:0:
320,192,105486,1,0,0:0:0:0:
64,192,105651,128,4,105816:0:0:0:0:
192,192,105816,1,8,0:0:0:0:
320,192,105816,1,0,0:0:0:0:
448,192,105816,128,0,105981:0:0:0:0:
192,192,105981,128,4,106146:0:0:0:0:
320,192,106146,128,2,106311:0:0:0:0:
448,192,106146,1,0,0:0:0:0:
64,192,106311,1,0,0:0:0:0:
320,192,106393,1,8,0:0:0:0:
448,192,106393,1,0,0:0:0:0:
64,192,106475,1,8,0:0:0:0:
192,192,106475,1,0,0:0:0:0:
320,192,106558,1,8,0:0:0:0:
448,192,106558,1,0,0:0:0:0:
192,192,106640,1,0,0:0:0:0:
64,192,106805,1,8,0:0:0:0:
320,192,106805,1,0,0:0:0:60:Finish.wav
448,192,106805,1,0,0:0:0:0:
192,192,106970,1,2,0:0:0:0:
320,192,106970,1,0,0:0:0:0:
192,192,107135,1,2,0:0:0:0:
320,192,107135,1,0,0:0:0:0:
64,192,107300,1,8,0:0:0:0:
192,192,107300,1,0,0:0:0:60:Finish.wav
448,192,107300,1,0,0:0:0:0:
320,192,107464,1,2,0:0:0:0:
448,192,107464,1,0,0:0:0:0:
64,192,107629,1,2,0:0:0:0:
192,192,107629,1,0,0:0:0:0:
64,192,107794,1,8,0:0:0:0:
320,192,107794,1,0,0:0:0:60:Finish.wav
448,192,107794,1,0,0:0:0:0:
192,192,107959,1,2,0:0:0:0:
320,192,107959,1,0,0:0:0:0:
192,192,108124,1,2,0:0:0:0:
320,192,108124,1,0,0:0:0:0:
64,192,108289,1,8,0:0:0:0:
192,192,108289,1,0,0:0:0:60:Finish.wav
448,192,108289,1,0,0:0:0:0:
320,192,108453,1,2,0:0:0:0:
448,192,108453,1,0,0:0:0:0:
64,192,108618,1,2,0:0:0:0:
192,192,108618,1,0,0:0:0:0:
64,192,108783,1,8,0:0:0:0:
320,192,108783,1,0,0:0:0:0:
448,192,108783,1,0,0:0:0:0:
192,192,108948,1,2,0:0:0:0:
320,192,108948,1,0,0:0:0:0:
64,192,109113,1,8,0:0:0:0:
192,192,109113,1,0,0:0:0:0:
448,192,109113,1,0,0:0:0:0:
64,192,109278,1,8,0:0:0:0:
320,192,109278,1,0,0:0:0:0:
448,192,109278,1,0,0:0:0:0:
64,192,109607,1,2,0:0:0:0:
448,192,109607,1,0,0:0:0:0:
320,192,109690,1,2,0:0:0:0:
64,192,109772,128,8,112080:0:0:0:0:
192,192,109772,1,0,0:0:0:60:Finish.wav
448,192,109772,128,0,115376:0:0:0:0:
192,192,112080,1,0,0:0:0:0:
