osu file format v14

[General]
AudioFilename: audio.mp3
AudioLeadIn: 0
PreviewTime: 37917
Countdown: 0
SampleSet: Soft
StackLeniency: 0.7
Mode: 0
LetterboxInBreaks: 0
WidescreenStoryboard: 1

[Editor]
DistanceSpacing: 1
BeatDivisor: 4
GridSize: 32
TimelineZoom: 2.1

[Metadata]
Title:Connecting Happy!!
TitleUnicode:Connecting Happy!!
Artist:Pecorine (CV: M.A.O), Kokkoro (CV: Itou Miku), Karyl (CV: Tachibana Rika)
ArtistUnicode:ペコリーヌ(CV:M・A・O)、コッコロ(CV:伊藤美来)、キャル(CV:立花理香)
Creator:PikAqours
Version:Normal!!
Source:プリンセスコネクト!Re:Dive
Tags:princess connect cygames priconne rpg ending ed kyaru japanese pop jpop j-pop video game kowari
BeatmapID:3503728
BeatmapSetID:1699189

[Difficulty]
HPDrainRate:3
CircleSize:3
OverallDifficulty:4
ApproachRate:5.5
SliderMultiplier:1.01
SliderTickRate:1

[Events]
//Background and Video events
0,0,"bg.jpg",0,0
//Break Periods
//Storyboard Layer 0 (Background)
//Storyboard Layer 1 (Fail)
//Storyboard Layer 2 (Pass)
//Storyboard Layer 3 (Foreground)
//Storyboard Layer 4 (Overlay)
//Storyboard Sound Samples

[TimingPoints]
747,329.67032967033,4,2,1,40,1,0
747,-99.009900990099,4,2,1,40,0,0
4703,-99.009900990099,4,2,1,60,0,0
15252,-109.89010989011,4,2,1,50,0,0
24483,-99.009900990099,4,2,1,60,0,0
25636,-99.009900990099,4,2,1,50,0,0
30911,-99.009900990099,4,2,1,60,0,0
35939,-99.009900990099,4,2,1,40,0,0
36186,-99.009900990099,4,2,1,60,0,0
38659,-99.009900990099,4,2,1,75,0,0
38823,-99.009900990099,4,2,1,40,0,0
38988,-99.009900990099,4,2,1,75,0,0
54812,-99.009900990099,4,2,1,60,0,0
58768,-99.009900990099,4,2,1,60,0,0
59097,-99.009900990099,4,2,1,60,0,0
70637,-99.009900990099,4,2,1,50,0,0
71790,-99.009900990099,4,2,1,40,0,0
71955,-99.009900990099,4,2,1,60,0,0
83494,-243.902439024391,4,2,1,45,0,0
84153,-243.902439024391,4,2,1,40,0,0
84812,-243.902439024391,4,2,1,35,0,0
85472,-243.902439024391,4,2,1,30,0,0
86131,-243.902439024391,4,2,1,25,0,0
86790,-243.902439024391,4,2,1,20,0,0
87450,-243.902439024391,4,2,1,15,0,0
88109,-243.902439024391,4,2,1,10,0,0
88439,-243.902439024391,4,2,1,5,0,0

[Colours]
Combo1 : 255,147,201
Combo2 : 173,91,255

[HitObjects]
59,10,4703,6,0,P|51:64|46:117,1,102.009997976486,4|10,1:2|0:2,0:0:0:0:
61,159,5197,1,2,0:2:0:0:
148,212,5527,1,2,0:2:0:0:
75,283,5856,1,2,0:2:0:0:
163,334,6186,2,0,P|158:360|153:387,2,51.0049989882431,2|10|2,0:2|0:2|0:2,0:0:0:0:
204,304,6681,2,0,P|254:296|308:334,1,102.009997976486,2|10,1:2|0:2,0:0:0:0:
382,376,7340,6,0,P|422:364|482:355,1,102.009997976486,2|10,1:2|0:2,0:0:0:0:
504,308,7834,2,0,P|493:253|481:194,1,102.009997976486,2|2,0:2|0:2,0:0:0:0:
449,177,8329,1,10,0:2:0:0:
449,177,8494,2,0,P|460:122|472:63,1,102.009997976486,2|2,0:2|0:2,0:0:0:0:
481,27,8988,1,10,0:2:0:0:
381,5,9318,2,0,P|347:12|321:20,1,51.0049989882431,2|8,1:2|0:2,0:0:0:0:
298,56,9648,2,0,P|273:49|248:44,1,51.0049989882431,2|2,1:2|1:2,0:0:0:0:
206,14,9977,6,0,P|173:56|175:105,1,102.009997976486,6|10,1:2|0:2,0:0:0:0:
195,149,10472,1,2,0:2:0:0:
270,216,10801,2,0,P|265:246|260:280,1,51.0049989882431,2|10,0:2|0:2,0:0:0:0:
231,307,11131,2,0,P|181:292|122:287,1,102.009997976486,2|2,0:2|0:2,0:0:0:0:
92,253,11626,1,10,0:2:0:0:
29,172,11955,2,0,P|58:159|90:156,1,51.0049989882431,2|2,1:2|0:0,0:0:0:0:
110,117,12285,2,0,P|139:128|164:148,1,51.0049989882431,10|2,0:2|0:2,0:0:0:0:
203,156,12615,6,0,P|256:144|320:138,1,102.009997976486,14|2,0:2|1:2,0:0:0:0:
355,158,13109,1,10,0:0:0:0:
355,158,13274,1,2,1:2:0:0:
446,202,13604,2,0,P|450:176|457:148,2,51.0049989882431,10|2|2,0:0|1:2|1:2,0:0:0:0:
420,246,14098,2,0,P|425:270|429:295,1,51.0049989882431,10|2,0:0|1:2,0:0:0:0:
415,348,14428,1,2,1:2:0:0:
415,348,14593,1,10,0:2:0:0:
317,376,14922,2,0,P|293:367|267:365,1,51.0049989882431,10|10,0:2|0:2,0:0:0:0:
221,374,15252,5,4,1:2:0:0:
168,288,15582,2,0,P|173:261|177:232,1,45.9550015426789,2|0,1:2|0:0,0:0:0:0:
213,209,15911,2,0,P|203:159|196:105,1,91.9100030853578,2|0,1:2|1:2,0:0:0:0:
227,21,16571,2,0,P|180:16|126:44,1,91.9100030853578,2|2,1:2|1:2,0:0:0:0:
113,75,17065,1,2,0:2:0:0:
43,1,17395,1,2,0:2:0:0:
3,94,17725,6,0,P|15:138|26:197,1,91.9100030853578,2|2,0:2|0:2,0:0:0:0:
54,223,18219,2,0,P|42:267|31:326,2,91.9100030853578,2|2|2,1:2|1:2|1:2,0:0:0:0:
136,165,19208,2,0,P|181:177|231:185,1,91.9100030853578,2|2,1:2|1:2,0:0:0:0:
325,167,19867,2,0,P|313:212|305:262,1,91.9100030853578,0|2,1:2|1:2,0:0:0:0:
324,304,20362,1,2,0:2:0:0:
324,304,20527,6,0,P|372:294|427:289,1,91.9100030853578,4|2,1:2|1:2,0:0:0:0:
474,208,21186,1,2,1:2:0:0:
400,138,21516,1,2,1:2:0:0:
462,58,21845,2,0,P|412:36|360:45,1,91.9100030853578,2|2,1:2|1:2,0:0:0:0:
333,66,22340,2,0,P|288:75|242:80,1,91.9100030853578,2|0,0:2|0:0,0:0:0:0:
199,53,22834,1,0,1:2:0:0:
124,121,23164,6,0,P|132:166|138:223,1,91.9100030853578,0|2,1:2|1:2,0:0:0:0:
106,307,23823,2,0,P|151:311|194:295,1,91.9100030853578,2|2,1:2|1:2,0:0:0:0:
282,243,24483,2,0,P|287:217|295:182,1,51.0049989882431,6|2,1:2|0:2,0:0:0:0:
333,162,24812,1,2,1:2:0:0:
333,162,24977,2,0,P|326:116|316:55,1,102.009997976486,10|8,0:2|0:2,0:0:0:0:
341,16,25472,2,0,P|371:22|401:29,1,51.0049989882431,8|8,0:3|0:3,0:0:0:0:
426,63,25801,5,4,1:2:0:0:
488,143,26131,2,0,P|481:174|475:209,1,51.0049989882431,10|0,0:2|1:2,0:0:0:0:
439,227,26461,2,0,P|446:258|452:293,1,51.0049989882431,2|0,0:2|1:2,0:0:0:0:
474,321,26790,1,10,0:2:0:0:
392,383,27120,2,0,P|341:370|283:366,1,102.009997976486,2|10,1:2|0:2,0:0:0:0:
249,337,27615,2,0,P|244:277|266:236,1,102.009997976486,2|0,1:2|1:2,0:0:0:0:
299,205,28109,1,10,0:2:0:0:
244,118,28439,6,0,P|193:131|135:135,1,102.009997976486,2|8,1:2|0:2,0:0:0:0:
45,109,29098,2,0,P|58:160|62:218,1,102.009997976486,2|8,0:2|0:2,0:0:0:0:
99,244,29593,2,0,P|86:295|82:353,1,102.009997976486,2|0,0:2|1:2,0:0:0:0:
101,382,30087,1,10,0:2:0:0:
183,321,30417,2,0,P|209:326|238:332,1,51.0049989882431,2|0,0:2|1:2,0:0:0:0:
279,364,30747,1,10,0:2:0:0:
279,364,30911,6,0,P|303:358|396:345,1,102.009997976486,6|2,1:2|1:2,0:0:0:0:
423,319,31406,1,10,0:2:0:0:
490,242,31736,1,2,1:2:0:0:
490,242,31900,2,0,P|485:204|481:178,1,51.0049989882431,8|8,0:2|0:2,0:0:0:0:
473,141,32230,2,0,P|424:117|373:128,1,102.009997976486,6|2,1:2|1:2,0:0:0:0:
340,158,32725,1,10,0:2:0:0:
238,146,33054,2,0,P|234:120|231:95,1,51.0049989882431,0|8,1:2|0:2,0:0:0:0:
254,49,33384,1,10,1:2:0:0:
165,1,33714,6,0,P|108:19|54:11,1,102.009997976486,14|8,0:2|0:2,0:0:0:0:
30,51,34208,1,2,1:2:0:0:
30,51,34373,2,0,P|41:102|51:173,1,102.009997976486,10|8,0:2|0:2,0:0:0:0:
114,229,35032,2,0,P|167:214|225:208,1,102.009997976486,10|8,0:2|0:2,0:0:0:0:
258,181,35527,1,2,1:2:0:0:
258,181,35692,2,0,P|311:196|351:198,2,76.5074984823647,10|2|2,0:2|0:0|1:2,0:0:0:0:
228,139,36351,6,0,P|221:89|234:22,1,102.009997976486,14|0,0:2|1:2,0:0:0:0:
267,5,36845,1,10,0:2:0:0:
267,5,37010,1,2,1:2:0:0:
356,54,37340,2,0,P|386:48|424:43,1,51.0049989882431,8|2,0:2|1:2,0:0:0:0:
444,11,37670,1,8,0:2:0:0:
444,11,38494,1,0,1:0:0:0:
444,11,38659,2,0,P|436:51|430:81,1,51.0049989882431,14|0,1:2|0:0,0:0:0:0:
395,94,38988,6,0,P|406:149|415:211,1,102.009997976486,6|8,1:2|0:2,0:0:0:0:
444,234,39483,1,2,1:2:0:0:
411,330,39812,2,0,P|380:323|339:316,1,51.0049989882431,2|8,1:2|0:2,0:0:0:0:
329,279,40142,2,0,P|275:269|223:307,1,102.009997976486,2|0,0:2|0:0,0:0:0:0:
214,337,40637,1,10,0:2:0:0:
136,270,40966,1,0,0:0:0:0:
43,312,41296,2,0,P|37:286|32:254,1,51.0049989882431,10|0,0:2|0:0,0:0:0:0:
56,216,41626,5,2,1:2:0:0:
85,121,41955,1,10,0:2:0:0:
85,121,42120,2,0,P|118:114|157:105,1,51.0049989882431,2|0,1:2|0:0,0:0:0:0:
174,77,42450,2,0,P|224:86|273:97,1,102.009997976486,2|2,1:2|0:2,0:0:0:0:
307,135,42944,1,0,1:2:0:0:
409,113,43274,1,10,0:2:0:0:
409,113,43439,2,0,P|400:160|387:231,1,102.009997976486,2|2,1:2|1:2,0:0:0:0:
414,257,43933,1,10,0:2:0:0:
335,323,44263,6,0,P|280:306|234:301,1,102.009997976486,4|10,1:2|0:2,0:0:0:0:
157,236,44922,2,0,P|130:240|88:248,1,51.0049989882431,2|2,0:2|1:2,0:0:0:0:
68,278,45252,1,10,0:2:0:0:
11,201,45582,1,2,1:2:0:0:
11,201,45747,2,0,P|18:171|26:128,1,51.0049989882431,2|8,0:2|0:2,0:0:0:0:
39,103,46076,2,0,P|92:93|146:85,1,102.009997976486,2|2,1:2|1:2,0:0:0:0:
181,114,46571,1,10,0:2:0:0:
263,55,46900,6,0,P|283:112|270:160,1,102.009997976486,0|10,1:2|0:2,0:0:0:0:
194,213,47560,2,0,P|200:242|207:277,1,51.0049989882431,2|2,0:2|1:2,0:0:0:0:
238,300,47889,2,0,P|232:329|225:364,1,51.0049989882431,10|0,0:2|1:2,0:0:0:0:
270,378,48219,2,0,P|320:381|366:361,1,102.009997976486,10|2,0:2|1:2,0:0:0:0:
411,335,48714,2,0,P|419:280|428:227,1,102.009997976486,10|0,0:2|1:2,0:0:0:0:
430,183,49208,1,8,0:2:0:0:
490,101,49538,6,0,P|443:82|392:88,1,102.009997976486,14|10,0:2|0:2,0:0:0:0:
355,121,50032,2,0,P|305:132|254:136,1,102.009997976486,2|2,1:2|1:2,0:0:0:0:
205,121,50527,1,8,0:2:0:0:
141,200,50856,1,0,1:2:0:0:
61,136,51186,2,0,P|55:156|51:187,1,51.0049989882431,10|0,0:2|1:2,0:0:0:0:
20,227,51516,2,0,P|26:247|30:278,1,51.0049989882431,2|0,0:2|1:2,0:0:0:0:
64,314,51845,1,10,0:2:0:0:
149,370,52175,6,0,P|204:352|253:348,1,102.009997976486,6|10,1:2|0:2,0:0:0:0:
292,323,52670,2,0,P|340:339|390:345,1,102.009997976486,6|2,1:2|1:2,0:0:0:0:
442,366,53164,1,8,0:2:0:0:
442,366,53329,2,0,P|429:294|425:245,1,102.009997976486,6|0,1:2|1:2,0:0:0:0:
442,217,53823,1,8,0:2:0:0:
389,129,54153,2,0,P|426:114|470:120,2,76.5074984823647,12|12|12,0:2|0:2|0:2,0:0:0:0:
352,164,54812,5,0,1:0:0:0:
261,117,55142,2,0,P|257:90|244:13,2,102.009997976486,10|2|10,0:2|1:2|0:2,0:0:0:0:
193,193,56131,2,0,P|141:179|73:167,1,102.009997976486,2|8,1:2|0:2,0:0:0:0:
44,156,56626,2,0,P|16:201|23:256,1,102.009997976486,2|0,0:2|0:0,0:0:0:0:
36,296,57120,1,8,0:2:0:0:
109,367,57450,6,0,P|144:359|223:346,1,102.009997976486,4|10,1:2|0:2,0:0:0:0:
289,284,58109,1,2,1:2:0:0:
289,284,58274,2,0,P|339:292|389:303,1,102.009997976486,2|2,0:2|0:2,0:0:0:0:
428,335,58768,2,0,P|445:294|439:226,1,102.009997976486,0|10,1:0|0:2,0:0:0:0:
373,162,59428,2,0,P|348:165|307:174,1,51.0049989882431,2|8,1:2|0:3,0:0:0:0:
282,201,59757,2,0,P|256:196|231:193,1,51.0049989882431,10|0,0:2|1:2,0:0:0:0:
185,170,60087,5,4,1:2:0:0:
111,240,60417,1,2,1:2:0:0:
111,240,60582,2,0,P|90:194|94:127,1,102.009997976486,10|0,0:2|1:2,0:0:0:0:
106,95,61076,1,10,0:2:0:0:
177,22,61406,1,0,1:2:0:0:
272,70,61736,1,2,1:2:0:0:
272,70,61901,2,0,P|318:91|385:87,1,102.009997976486,10|0,0:2|1:2,0:0:0:0:
415,70,62395,1,10,0:2:0:0:
488,138,62725,6,0,P|474:202|465:252,1,102.009997976486,6|2,1:2|1:2,0:0:0:0:
429,271,63219,2,0,P|365:257|315:248,1,102.009997976486,10|0,0:2|1:2,0:0:0:0:
289,217,63714,1,10,0:2:0:0:
226,297,64043,2,0,P|175:306|126:317,1,102.009997976486,2|2,1:2|1:2,0:0:0:0:
76,302,64538,1,10,0:2:0:0:
76,302,64703,2,0,P|65:254|63:237,1,51.0049989882431,2|0,0:2|1:2,0:0:0:0:
32,212,65032,2,0,P|43:164|45:147,1,51.0049989882431,10|8,0:2|0:3,0:0:0:0:
77,124,65362,6,0,P|129:117|183:150,1,102.009997976486,6|0,1:2|1:2,0:0:0:0:
217,46,66021,2,0,P|258:77|273:139,1,102.009997976486,0|2,1:2|1:2,0:0:0:0:
371,89,66681,2,0,P|378:141|345:195,1,102.009997976486,2|0,1:2|1:2,0:0:0:0:
274,244,67340,2,0,P|247:237|210:229,1,51.0049989882431,4|4,0:3|0:3,0:0:0:0:
183,201,67670,2,0,P|158:206|133:213,1,51.0049989882431,12|8,0:3|0:3,0:0:0:0:
97,249,67999,6,0,P|109:284|123:366,1,102.009997976486,6|0,1:2|1:2,0:0:0:0:
219,376,68659,2,0,P|227:325|243:277,1,102.009997976486,0|2,1:2|1:2,0:0:0:0:
343,259,69318,2,0,P|359:307|366:357,1,102.009997976486,2|0,1:2|1:2,0:0:0:0:
466,376,69977,2,0,P|471:344|478:309,1,51.0049989882431,8|0,0:0|1:2,0:0:0:0:
454,278,70307,2,0,P|449:246|442:211,1,51.0049989882431,8|0,0:0|1:2,0:0:0:0:
472,184,70637,1,10,0:0:0:0:
472,184,71461,1,0,1:0:0:0:
472,184,71626,2,0,P|441:174|405:172,1,51.0049989882431,14|0,0:0|0:0,0:0:0:0:
379,145,71955,6,0,P|333:157|261:165,1,102.009997976486,6|10,1:2|0:2,0:0:0:0:
245,203,72450,1,2,0:2:0:0:
172,135,72779,1,2,0:2:0:0:
85,185,73109,1,2,0:2:0:0:
85,185,73274,2,0,P|99:239|109:301,1,102.009997976486,2|10,1:2|0:2,0:0:0:0:
185,349,73933,2,0,P|216:342|244:337,1,51.0049989882431,2|2,1:2|0:2,0:0:0:0:
277,309,74263,2,0,P|302:313|326:319,1,51.0049989882431,10|2,0:2|0:2,0:0:0:0:
367,350,74593,5,2,1:2:0:0:
436,278,74922,1,10,0:2:0:0:
410,184,75252,1,2,1:2:0:0:
410,184,75417,2,0,P|419:147|422:122,1,51.0049989882431,2|8,0:2|0:2,0:0:0:0:
430,83,75747,2,0,P|356:104|313:100,1,102.009997976486,2|2,0:2|0:2,0:0:0:0:
293,68,76241,2,0,P|262:59|221:51,1,51.0049989882431,10|2,0:2|0:2,0:0:0:0:
206,19,76571,1,2,1:2:0:0:
129,86,76900,2,0,L|141:150,1,51.0049989882431,8|8,0:2|0:2,0:0:0:0:
172,174,77230,6,0,P|132:186|72:195,1,102.009997976486,2|10,1:2|0:2,0:0:0:0:
21,190,77724,2,0,P|32:245|44:304,1,102.009997976486,2|2,0:2|0:2,0:0:0:0:
55,344,78219,1,10,0:2:0:0:
55,344,78384,2,0,P|110:355|169:367,1,102.009997976486,2|2,0:2|0:2,0:0:0:0:
201,343,78878,1,10,0:2:0:0:
286,384,79208,2,0,P|320:377|346:369,1,51.0049989882431,2|10,1:2|0:2,0:0:0:0:
378,344,79538,2,0,P|403:351|428:356,1,51.0049989882431,10|10,0:2|0:2,0:0:0:0:
473,377,79867,6,0,P|461:326|455:267,1,102.009997976486,14|2,0:2|1:2,0:0:0:0:
450,230,80362,1,10,0:2:0:0:
450,230,80527,1,2,1:2:0:0:
388,148,80856,2,0,P|363:154|338:161,2,51.0049989882431,10|2|2,0:0|1:2|1:2,0:0:0:0:
410,101,81351,2,0,P|434:107|459:114,2,51.0049989882431,10|2|2,0:0|1:2|1:2,0:0:0:0:
378,60,81845,1,8,0:0:0:0:
297,6,82175,1,2,1:2:0:0:
297,6,82340,1,10,0:2:0:0:
252,152,82834,1,14,0:2:0:0:
256,192,82999,12,0,88438,0:0:0:0:
